#VERSION:0.83;
#TITLE:been so long (tofubeats remix);
#ARTIST:m-flo;
#GENRE:J-HIPHOP;
#CREDIT:B. M'Rey;
#MUSIC:been so long (tofubeats remix).ogg;
#BANNER:been so long (tofubeats remix).png;
#BACKGROUND:been so long (tofubeats remix)-bg.png;
#CDTITLE:./CDTitles/avex.png;
#SAMPLESTART:98.286;
#SAMPLELENGTH:15;
#OFFSET:-0.051;
#BPMS:0=102;

//--------------- dance-single - B. M'Rey ----------------
#NOTEDATA:;
#STEPSTYPE:dance-single;
#DESCRIPTION:B. M'Rey;
#CREDIT:B. M'Rey;
#DIFFICULTY:Beginner;
#METER:2;
#RADARVALUES:0,0,0,0,0;
#NOTES:
0000
0000
0000
0000
,
0000
0000
0000
0000
,
1000
0000
0000
0000
,
0001
0000
0000
0000
,
0100
0000
0000
0000
,
0001
0000
0000
0000
,
0010
0000
0000
0000
,
0100
0000
0000
0000
,
0001
0000
0000
0000
,
1000
0000
0000
0000
,
0001
0000
0000
0000
,
0000
0000
0000
0000
,
1000
0000
0000
0000
,
0000
0000
0000
0000
,
0001
0000
0000
0000
,
0100
0000
0000
0000
,
1000
0000
0000
0000
,
0001
0000
0000
0000
,
0100
0000
0010
0000
,
0001
0000
1000
0000
,
0100
0000
1000
0000
,
0010
0000
0100
0000
,
0001
0000
0010
0000
,
0001
0000
0100
0000
,
0010
0000
1000
0000
,
0010
0000
0000
0000
,
0100
0000
0000
0000
,
0001
0000
0000
0000
,
1000
0000
0000
0000
,
0010
0000
0000
0000
,
0100
0000
0000
0000
,
0001
0000
0000
0000
,
0010
0000
0000
0000
,
0001
0000
0000
0000
,
1000
0000
0000
0000
,
0010
0000
0000
0000
,
0100
0000
0000
0000
,
0001
0000
0000
0000
,
1000
0000
0000
0000
,
0010
0000
0000
0000
,
0100
0000
0000
0000
,
0001
0000
0000
0000
,
1000
0000
0010
0000
,
0100
0000
0001
0000
,
0010
0000
0001
0000
,
0100
0000
0010
0000
,
1000
0000
0010
0000
,
0100
0000
0010
0000
,
0001
0000
0000
0000
,
1000
0000
0000
0000
,
0001
0000
0000
0000
,
0100
0000
0000
0000
,
0010
0000
0000
0000
,
1000
0000
0000
0000
,
0001
0000
0000
0000
,
0010
0000
0000
0000
,
0001
0000
0000
0000
,
0100
0000
0000
0000
,
1001
0000
0000
0000
;

//--------------- dance-single - B. M'Rey ----------------
#NOTEDATA:;
#STEPSTYPE:dance-single;
#DESCRIPTION:B. M'Rey;
#CREDIT:B. M'Rey;
#DIFFICULTY:Easy;
#METER:4;
#RADARVALUES:0,0,0,0,0;
#NOTES:
0000
0000
0000
0000
,
0000
0000
0000
0000
,
1000
0000
0001
0000
,
0010
0000
0001
0000
,
0100
0000
0010
0000
,
1000
1000
0001
0001
,
0100
0000
0010
0000
,
1000
0000
0001
0000
,
0010
0000
0001
0000
,
0100
0100
0100
0100
,
0001
0000
1000
0000
,
0000
0001
0100
0000
,
0010
0000
1000
0000
,
0001
0000
0000
0100
,
0010
0000
1000
0000
,
0001
0000
0010
0000
,
0100
0000
0000
0000
,
1001
0000
0000
0000
,
0100
1000
0010
1000
,
0100
0010
0001
1000
,
0001
1000
0001
0010
,
0100
0010
0100
1000
,
0001
1000
0100
1000
,
0100
0010
0001
1000
,
0001
1000
0010
0100
,
0010
1000
0001
1000
,
0001
0000
0100
0000
,
0010
0000
1000
0000
,
0001
0000
0010
0000
,
0001
0000
0100
0000
,
0010
0000
1000
0000
,
0100
0000
0001
0001
,
1000
1000
0010
0010
,
0000
0000
0000
0000
,
0100
0000
0001
0000
,
1000
0000
0010
0000
,
0100
0000
0001
0000
,
0010
0000
0100
0000
,
0010
0001
0010
0000
,
0100
1000
0100
0000
,
0010
0000
0000
0000
,
0100
0000
0000
0000
,
0001
1000
0001
0000
,
0000
1000
0010
1000
,
0001
0000
0010
1000
,
0100
0000
0000
0100
,
0001
0010
0000
0010
,
0001
0100
0010
1000
,
0010
0000
0000
0100
,
0001
0000
0001
0000
,
1000
0000
0001
0000
,
0010
0000
0100
0000
,
0010
0000
0100
0000
,
1000
1000
0010
0010
,
0100
0000
0001
0000
,
0010
0000
0001
0000
,
0100
0000
0010
0000
,
1000
0000
0001
0000
,
1001
0000
0000
0000
,
0110
0000
0000
0000
;

//--------------- dance-single - B. M'Rey ----------------
#NOTEDATA:;
#STEPSTYPE:dance-single;
#DESCRIPTION:B. M'Rey;
#CREDIT:B. M'Rey;
#DIFFICULTY:Medium;
#METER:7;
#RADARVALUES:0,0,0,0,0;
#NOTES:
0000
0000
0000
0000
,
0000
0000
0000
0000
,
0100
0010
0001
0010
,
0100
1000
0010
0100
,
0001
1000
0100
1000
,
0020
0000
0230
0000
,
1300
0010
0001
1000
,
0100
0010
0001
0100
,
0010
0100
0001
1000
,
0110
0000
0011
0000
1100
0000
1000
0001
,
0010
0000
0001
0010
0100
0000
0001
0000
,
0100
0000
0001
0010
0100
0010
0100
1000
,
0000
0010
0002
0000
0003
1000
0000
0010
,
0000
1000
0000
0000
0000
0100
0010
1000
,
0100
0001
0000
0010
0000
0010
0001
0100
,
0000
1000
0010
0100
0001
0100
0010
0100
,
0000
0010
0100
2000
0000
0000
3000
0000
,
0110
1001
0110
0100
,
0001
1000
0001
1000
0010
1000
0010
0100
,
0001
0000
0100
0000
0010
1000
0010
0000
,
0010
0100
0001
0000
0001
0100
0010
0000
,
0001
1000
0010
1000
0001
0100
0001
0000
,
0001
0010
0100
0000
0100
0010
0001
0000
,
0010
0100
0010
0100
0001
1000
0001
0000
,
0010
1000
0010
0000
0010
0100
0001
0000
,
0011
0011
0110
0110
,
0001
0000
0100
0000
0010
0000
1000
0010
,
1000
0000
0100
0000
0100
0001
1000
0000
,
0100
0000
0010
0000
0100
0000
0010
0001
,
0000
0001
0010
0000
0001
0010
0100
0000
,
0010
0000
0100
0000
0010
0100
1000
0000
,
0100
0000
0010
0000
0100
0001
0010
0000
,
0100
0010
1000
0000
0010
0001
1000
0000
,
0010
0100
0010
0100
,
0001
0010
0100
0000
,
0001
0010
0001
0000
,
0010
0000
0100
0001
0010
0000
1000
0010
,
0100
1000
0100
0010
,
0001
0100
0010
0000
,
0010
0100
0001
0000
,
0010
1000
0000
0100
,
0010
0000
1000
0000
0001
0000
0001
1000
,
0001
0000
0010
0100
0010
0000
0001
0000
,
0010
0000
0001
0010
0100
1000
0001
1000
,
0000
0100
0010
0000
0000
1000
0000
0100
,
0000
1000
0000
0000
0001
0000
0001
0000
,
0100
1000
0100
0000
0100
0010
0001
1000
,
0000
0010
0001
0100
0001
0100
0010
1000
,
0000
0010
0100
0000
1000
0000
0010
0000
,
1001
1010
0110
1001
,
0001
1000
0010
0100
,
0010
0100
0001
0100
,
0010
1000
0001
0010
,
0001
1000
0010
0000
0001
0010
0100
0000
,
0010
0100
0010
0100
,
0001
1000
0010
0100
,
0001
0100
0010
0100
,
0010
1000
0010
1000
,
1001
0000
0010
0000
,
0100
0100
0001
0001
;

//--------------- dance-single - B. M'Rey ----------------
#NOTEDATA:;
#STEPSTYPE:dance-single;
#DESCRIPTION:B. M'Rey;
#CREDIT:B. M'Rey;
#DIFFICULTY:Hard;
#METER:9;
#RADARVALUES:0,0,0,0,0;
#NOTES:
0000
0000
0000
0000
,
0000
0000
0000
0000
,
0001
0010
0100
0000
0100
1000
0010
0000
,
0100
1000
0010
0000
0001
0100
0010
0000
,
0010
1000
0100
0000
0100
1000
0010
0000
,
0010
0001
0100
0010
,
0010
1000
0010
0000
0100
0010
0001
0000
,
0010
0100
0010
0000
0001
1000
0010
0000
,
0001
0100
0001
0000
0100
1000
0001
0000
,
0110
1001
0101
1010
,
0001
0010
0001
1000
0200
0000
0300
0000
,
0000
0001
0010
1000
0010
0100
0010
2000
,
0000
3010
0100
1000
0000
0010
0000
0100
,
0000
1000
0000
0000
0000
0100
0010
0000
,
0010
1000
0010
0000
0000
0010
0001
0100
,
0000
0010
0100
0010
0001
0010
0100
2000
,
0000
3010
0001
0200
0000
0300
0010
1000
,
0110
0000
1001
0000
0110
0000
0100
0010
,
0001
0000
0001
0100
0001
0000
0100
1000
0100
0000
0001
0100
0001
0000
0001
1000
,
0010
0000
0010
0100
0010
0000
0001
1000
0001
0000
0010
0100
0010
0000
0010
1000
,
0100
0000
0010
0000
0100
0000
0010
1000
0010
0000
0001
0000
0010
0000
0001
0100
,
0010
0000
0001
0100
0001
0000
0001
1000
0010
0000
0010
0000
0100
0000
0001
0100
,
0001
0000
0001
0010
0100
0000
0100
1000
0100
0000
0001
1000
0100
0000
0100
0010
,
0100
0000
0010
0000
1000
0000
0001
0100
0010
0000
0100
0000
0001
0000
0001
1000
,
0001
0000
0100
0010
0100
0000
0001
1000
0001
0000
0001
0010
0100
0000
0100
0010
,
0001
1000
0010
0100
0010
0100
0001
0000
,
0010
0000
0010
1000
0100
0000
0100
0010
,
0100
0000
0001
0000
1000
0010
0100
0010
,
0001
0000
0010
0000
0100
0000
0010
1000
,
0001
0000
0100
0000
0001
1000
0010
0100
,
0010
0000
1000
0000
0001
0100
0010
0100
,
0000
0010
0000
0000
0100
1000
0100
0010
,
0001
1000
0010
0100
0001
0010
0100
0010
,
0001
0000
1000
0000
0001
0000
0100
0010
,
0001
0000
0001
0000
0200
0000
0300
0010
,
0100
0000
1000
0000
0002
0000
0000
0003
,
1000
0100
0001
1000
0001
0010
0100
0010
,
0001
0000
0020
0000
0000
0030
0000
1000
,
0100
0000
0010
0000
0002
0000
0003
0010
,
0100
0000
0001
0000
0020
0000
0031
0100
,
0010
0000
0001
0000
1000
0010
0100
1000
,
0110
0000
0110
0000
0011
0000
0001
0100
,
0001
0000
0100
0000
0001
0000
0010
0000
0100
0000
0010
0001
0000
1000
0000
0100
,
0000
1000
0010
0000
0100
0000
1000
0000
0010
0000
0100
0000
0010
0000
0100
0000
,
0001
0000
0100
0000
0001
0000
1000
0000
0001
0000
1000
0010
0000
1000
0000
0100
,
0000
0010
0100
0000
0001
0000
0100
0000
0001
0000
0100
0000
0010
0000
1000
0000
,
0100
0000
1000
0000
0100
0000
1000
0000
0001
0000
0010
0100
0000
0010
0000
0001
,
0000
0010
1000
0000
0001
0000
1000
0000
0001
0000
0010
0000
0100
0000
0010
0000
,
0100
0010
0001
1000
0001
1000
0100
1000
,
0110
0101
0110
1001
,
0010
0000
1000
0000
0010
0000
0000
0000
0001
0000
0010
0001
0010
0000
0000
0000
,
0100
0000
0000
0001
0000
0000
1000
0000
0001
0000
0010
0000
0100
0000
0000
0000
,
0100
1000
0010
0000
0010
0100
0010
0000
,
0001
0000
1000
0000
0010
0100
0000
0100
0010
0000
1000
0100
0000
0001
0010
0000
,
0001
1000
0001
0000
0001
1000
0010
0000
,
0010
0000
0000
0100
0000
0000
1000
0000
0001
0000
0000
0010
0000
0000
1000
0000
,
0100
0000
0001
0010
0001
0000
0001
0100
,
0010
0000
0001
1000
0100
0000
0010
0000
,
0100
0010
0001
0000
0001
0100
0010
0000
,
1010
1010
0110
0011
;
