#VERSION:0.83;
#TITLE:We Live Forever;
#ARTIST:Prodigy;
#GENRE:BREAKBEAT;
#MUSIC:WE LIVE FOREVER.ogg;
#BANNER:WE LIVE FOREVER-bn.png;
#BACKGROUND:WE LIVE FOREVER-bg.png;
#CDTITLE:./CDTITLES/Licensed Music.PNG;
#SAMPLESTART:32.489;
#SAMPLELENGTH:15;
#OFFSET:-0.233;
#BPMS:0=133;

//--------------- dance-single - B. M'Rey ----------------
#NOTEDATA:;
#STEPSTYPE:dance-single;
#DESCRIPTION:B. M'Rey;
#CREDIT:B. M'Rey;
#DIFFICULTY:Beginner;
#METER:4;
#RADARVALUES:0,0,0,0,0;
#NOTES:
0000
0000
0000
0000
,
0000
0000
0000
0000
0000
0000
0000
0001
,
0000
0000
0000
0000
0000
0000
0000
0100
,
0000
0000
0000
0000
0000
0000
0000
0010
,
0000
0000
0000
0000
0000
0000
0000
1000
,
0000
0000
0000
0000
0000
0000
0000
0001
,
0000
0000
0000
1000
0000
1000
0000
0010
,
0000
0000
0000
0100
0000
0100
0000
0010
,
0000
0000
0000
0001
0000
0001
0000
1000
,
0000
0000
0000
0010
0000
0010
0000
0100
,
0000
0000
0000
1000
0000
1000
0000
0001
,
0000
0000
0000
0010
0000
0010
0000
0100
,
0000
0000
0000
0001
0000
0001
0000
1000
,
0000
0000
0000
0010
0000
0010
0000
0100
,
0000
0000
0000
0000
0000
0000
0000
0001
,
0000
0000
0000
0000
0000
0000
0000
1000
,
0000
0000
0000
0000
0000
0000
0000
0010
,
0000
0000
0000
0000
0000
1001
0000
0001
,
0000
0000
0000
0100
0000
0000
0000
0010
,
0000
0000
0000
1000
0000
0000
0000
1001
,
0000
0000
0000
1001
0000
0000
0000
0010
,
0000
0000
0000
0100
0000
0000
0000
0001
,
0000
0000
0000
1000
0000
0000
0000
0010
,
0000
0000
0000
0100
0000
0000
0000
1001
,
0000
0000
0000
1001
0000
0000
0000
0010
,
0000
0000
0000
0100
0000
0000
0000
0001
,
0000
0000
0000
1000
0000
0000
0000
1001
,
0000
0000
0000
0010
0000
0010
0000
0100
,
0000
0000
0000
0001
0000
0000
0000
1000
,
0000
0000
0000
0001
0000
0000
0000
1000
,
0000
0000
0000
0010
0000
0100
0000
0100
,
0000
0000
0000
0001
0000
0001
0000
1001
,
0000
0000
0000
0010
0000
0000
0000
0100
,
0000
0000
0000
1000
0000
0000
0000
0001
,
0000
0000
0000
0100
0000
0000
0000
0010
,
0000
0000
0000
1000
0000
0000
0000
0100
,
0000
0000
0000
1000
0000
0000
0000
0001
,
0000
0000
0000
0010
0000
0000
0000
0001
,
0000
0000
0000
0100
0000
0000
0000
0010
,
0000
0000
0000
1000
0000
0000
0000
0001
,
0000
0000
0000
0010
0000
0000
0000
0001
,
0000
0000
0000
0100
0000
0000
0000
0010
,
0000
0000
0000
0000
0000
0000
0000
0001
,
0000
0000
0000
0000
0000
0000
0000
1000
,
0000
0000
0000
0000
0000
0000
0000
0100
,
0000
0000
0000
0000
0000
0000
0000
0010
,
0000
0000
0000
0001
0000
0000
0000
1000
,
0000
0000
0000
0100
0000
0000
0000
1000
,
0000
0000
0000
0010
0000
0000
0000
0100
,
0000
0000
0000
0010
0000
1001
0000
0001
,
0000
0000
0000
0100
0000
0000
0000
0010
,
0000
0000
0000
1000
0000
0000
0000
0110
,
0000
0000
0000
0110
0000
0000
0000
0001
,
0000
0000
0000
1000
0000
0000
0000
0001
,
0000
0000
0000
0100
0000
0000
0000
0010
,
0000
0000
0000
1000
0000
0000
0000
1001
,
0000
0000
0000
0110
0000
0000
0000
0010
,
0000
0000
0000
1000
0000
0000
0000
0010
,
0000
0000
0000
0100
0000
0001
0000
1000
,
0000
0000
0000
0010
0000
0000
0000
0100
,
0000
0000
0000
0001
0000
1000
0000
0010
,
0000
0000
0000
0001
0000
0000
0000
0100
,
0000
0000
0000
0010
0000
1000
0000
0001
,
0000
0000
0000
0100
0000
0000
0000
0010
,
0000
0000
0000
1000
0000
0001
0000
0100
,
0000
0000
0000
0010
0000
0000
0000
1000
,
0000
0000
0000
0001
0000
0010
0000
0100
,
0000
0000
0000
1000
0000
0000
0000
1001
,
0000
0000
0000
0000
0000
0000
0000
0101
,
0000
0000
0000
0000
0000
0000
0000
0010
,
0000
0000
0000
1000
0000
0100
0000
0001
,
0000
0000
0000
0100
0000
0000
0000
1010
,
0000
0000
0000
0000
0000
0000
0000
0110
;

//--------------- dance-single - B. M'Rey ----------------
#NOTEDATA:;
#STEPSTYPE:dance-single;
#DESCRIPTION:B. M'Rey;
#CREDIT:B. M'Rey;
#DIFFICULTY:Easy;
#METER:7;
#RADARVALUES:0,0,0,0,0;
#NOTES:
0000
0000
0000
0000
,
0000
0000
0000
0000
0000
0000
0000
0011
,
0000
0000
0000
0110
0000
0000
0000
0110
,
0000
0000
0000
0101
0000
0000
0000
1010
,
0000
0000
0000
1100
0000
0000
0000
1100
,
0000
0000
0000
0101
0000
0000
0000
0011
,
0000
0010
0000
0100
0000
0010
0000
0001
,
0000
0010
0000
0100
0000
1000
0000
0101
,
0000
0100
0000
0001
0000
1000
0000
0010
,
0000
0100
0000
0001
0000
0100
0000
1001
,
0000
1000
0000
0100
0000
1000
0000
0001
,
0000
0100
0000
0010
0000
0100
0000
0110
,
0000
0100
0000
0001
0000
1000
0000
0100
,
0000
1000
0000
0100
0000
0010
0000
1100
,
0000
0000
0000
0101
0000
0000
0000
1010
,
0000
0000
0000
1010
0000
0000
0000
0011
,
0000
0000
0000
0110
0000
0000
0000
1001
,
0000
0000
0000
0110
0000
0000
0000
0001
,
0000
0010
0000
0100
0000
1000
0000
0100
,
0000
0010
0000
0001
0000
1000
0000
1001
,
0000
0000
0000
0110
0000
0000
0000
0101
,
0000
0000
0000
0011
0000
0000
0000
1100
,
0000
1000
0000
0010
0000
0100
0000
0010
,
0000
0100
0000
0001
0000
1000
0000
1001
,
0000
0000
0000
0110
0000
0000
0000
1010
,
0000
0000
0000
0101
0000
0000
0000
0001
,
0000
0010
0000
0100
0000
0010
0000
0100
,
0000
0000
0000
0001
0000
1000
0000
0100
,
0000
0000
0000
0100
0000
1000
0000
0001
,
0000
0000
0000
0100
0000
1000
0000
0001
,
0000
1000
0000
0001
0000
1000
0000
0100
,
0000
0000
0000
0001
0000
0010
0000
0001
,
0000
0000
0000
0001
0000
1000
0000
0100
,
0000
0000
0000
0001
0000
0100
0000
0001
,
0000
0000
0000
0010
0000
0100
0000
0010
,
0000
0000
0000
0100
0000
0000
0000
0010
,
0000
0000
0000
0010
0000
0100
0000
0010
,
0000
0000
0000
0001
0000
0000
0000
0001
,
0000
0000
0000
0010
0000
0100
0000
0010
,
0000
0000
0000
0001
0000
0000
0000
0010
,
0000
0000
0000
0001
0000
0010
0000
0100
,
0000
0000
0000
1000
0000
0000
0000
0110
,
0000
0000
0000
0011
0000
0000
0000
0011
,
0000
0000
0000
1100
0000
0000
0000
0011
,
0000
0000
0000
1100
0000
0000
0000
1100
,
0000
0000
0000
1010
0000
0000
0000
0001
,
0000
0010
0000
0001
0000
1000
0000
0100
,
0000
1000
0000
0100
0000
1000
0000
0001
,
0000
0100
0000
0010
0000
0100
0000
0010
,
0000
1000
0000
0100
0000
1010
0000
0010
,
0000
0100
0000
0001
0000
0100
0000
0010
,
0000
0100
0000
0001
0000
0010
0000
0101
,
0000
0000
0000
1001
0000
0000
0000
0110
,
0000
0000
0000
1010
0000
0000
0000
0010
,
0000
0100
0000
0001
0000
1000
0000
0010
,
0000
0100
0000
0001
0000
0100
0000
1010
,
0000
0000
0000
0110
0000
0000
0000
0101
,
0000
0000
0000
0101
0000
0000
0000
0001
,
0000
1000
0000
0100
0000
0010
0000
0001
,
0000
0010
0000
0100
0000
0010
0000
1001
,
0000
1000
0000
0010
0000
1000
0000
0010
,
0000
0100
0000
0001
0000
1000
0000
0110
,
0000
0010
0000
0001
0000
0100
0000
0001
,
0000
0100
0000
0010
0000
1000
0000
0101
,
0000
0100
0000
0010
0000
0100
0000
0001
,
0000
1000
0000
0010
0000
0100
0000
0101
,
0000
0100
0000
0001
0000
0010
0000
0001
,
0000
0100
0000
0010
0000
0100
0000
0011
,
0000
0000
0000
0011
0000
0000
0000
0110
,
0000
0000
0000
1100
0000
0000
0000
0101
,
0000
0100
0000
0010
0000
1000
0000
0100
,
0000
0010
0000
0100
0000
0010
0000
1100
,
0000
0000
0000
1001
0000
0000
0000
0011
,
0000
0000
0000
0101
0000
0000
0000
0000
;

//--------------- dance-single - B. M'Rey ----------------
#NOTEDATA:;
#STEPSTYPE:dance-single;
#DESCRIPTION:B. M'Rey;
#CREDIT:B. M'Rey;
#DIFFICULTY:Medium;
#METER:11;
#RADARVALUES:0,0,0,0,0;
#NOTES:
0000
0000
0000
0000
,
0000
0000
0000
0000
0000
0000
0000
1100
,
0000
0000
0100
0010
0000
0000
1000
0100
,
0000
0000
0000
0000
0010
0000
0100
0000
0000
0010
0000
0000
0100
0000
0010
0000
,
0000
0000
0010
0001
0000
0000
1000
0100
,
0000
0000
0000
0000
0010
0000
0100
0000
0000
1000
0000
0000
0000
0000
0010
0000
,
0100
0000
0001
0000
0010
0000
0001
0000
0000
0100
0000
0000
0100
0000
0001
0000
,
0010
0000
0001
0000
0100
0000
0010
0000
0000
0001
0000
0000
1000
0000
0100
0000
,
0010
0000
0001
0000
0010
0000
0001
0000
0000
0010
0000
0000
1000
0000
0010
0000
,
1000
0000
0100
0000
1000
0000
0100
0000
0000
0010
0000
0000
1000
0000
0010
0000
,
1000
0000
0010
0000
0100
0000
0001
0000
0000
0010
0000
0000
0010
0000
0100
0000
,
0010
0000
0001
0000
1000
0000
0010
0000
0000
0100
0000
0000
1000
0000
0001
0000
,
0010
0000
0001
0000
1000
0000
0010
0000
0000
0100
0000
0000
0010
0000
0100
0000
,
0010
0000
0001
0000
0100
0000
0010
0000
0000
0100
0000
0000
1000
0000
0110
0000
,
0000
0000
0010
0001
0000
0000
0010
0001
,
0000
0000
0000
0000
0100
0000
0001
0000
0000
0010
0000
0000
1000
0000
0010
0000
,
0000
0000
0100
0010
0000
0000
0100
0010
,
0000
0000
0000
0000
1000
0000
0100
0000
0000
0010
0000
0000
0000
0000
0001
0000
,
0010
0100
0010
0000
0010
0001
0100
0000
,
1000
0010
1000
0000
0100
0010
0100
0101
,
0000
0010
1000
0010
0000
0010
0100
0001
,
0000
0100
0000
0000
1000
0000
0001
0000
0000
0100
0000
0000
0100
0000
0010
0000
,
0100
0010
1000
0000
0100
0001
1000
0000
,
0100
0010
1000
0000
1000
0100
0010
0101
,
0000
0001
0010
0001
0000
0100
0010
0001
,
0000
0010
0000
0000
1000
0000
0100
0000
0000
1000
0000
0000
0100
0000
0001
0000
,
0010
0100
0010
0001
0100
0010
0000
1100
,
0000
0000
1000
0001
0100
0001
0000
1010
,
0000
0000
1000
0001
0010
0100
0010
0001
,
0000
0001
0000
0010
1000
0100
0010
0001
,
0010
0100
1000
0100
0010
0100
0000
0110
,
0000
0000
1000
0001
0010
0100
0000
1001
,
0000
0000
0010
0100
0010
0001
1000
0001
,
0000
0001
0010
0100
0010
0100
1000
0002
,
0000
0023
0000
0130
0010
0100
1000
0100
,
0000
0001
0000
0001
0010
0001
0000
0010
,
0100
0010
1000
0100
0010
0001
0010
0001
,
0000
0100
0000
0001
0100
0010
0000
0100
,
0000
0100
1000
0001
0100
0010
0100
0001
,
0000
0001
0000
0010
0100
0010
0000
0001
,
0000
0100
0010
0001
1000
0010
1000
0010
,
0000
0100
0000
0001
1000
0100
0000
0110
,
0000
0000
1000
0001
0000
0000
0010
0100
,
0000
0000
0000
0000
0100
0000
0001
0000
0000
0100
0000
0000
0010
0000
0100
0000
,
0000
0000
0100
0010
0000
0000
0100
0010
,
0000
0000
0000
0000
0100
0000
0001
0000
0000
1000
0000
0000
0010
0000
0001
0000
,
0100
0010
1000
0000
1000
0100
0010
0100
,
0010
0001
0100
0000
0010
0001
0010
0100
,
1000
0001
0100
0000
0100
0001
0010
0100
,
1000
0001
1000
0000
0100
0110
0000
0010
,
0100
0001
1000
0000
1000
0100
0010
0001
,
0100
0010
1000
0000
1000
0001
0010
0001
,
0000
0001
1000
0100
0000
0001
0100
0010
,
0000
1000
0000
0000
0010
0000
0100
0000
0000
1000
0000
0000
0100
0000
0010
0000
,
0100
0001
0010
0000
0010
0100
1000
0100
,
1000
0001
1000
0000
0100
0010
1000
0001
,
0000
0010
1000
0010
0000
0001
1000
0001
,
0000
0100
0000
0000
1000
0000
0100
0000
0000
0010
0000
0000
0010
0000
1001
0000
,
0000
1010
0000
0010
1000
0001
0010
0011
,
0000
0110
0000
1100
0000
0101
0000
0011
,
0000
0011
0000
0100
0010
0001
0100
0101
,
0000
0110
0000
1010
0000
1100
0000
0110
,
0000
0101
0000
0001
0010
0100
1000
0110
,
0000
0101
0000
1001
0000
0110
0000
1001
,
0000
0110
0000
0010
0100
0001
0100
1001
,
0000
0110
0000
1001
0000
1010
0000
0010
,
0000
0100
0000
0001
0100
0001
0010
1001
,
0000
0110
0000
0110
0000
0101
0000
0010
,
1000
0010
0000
0010
0100
0001
0010
0100
,
0000
1000
0000
0000
1000
0000
0010
0000
0000
0001
0000
0000
0100
0000
0110
0000
,
0000
1001
0000
0100
1000
0100
0010
0101
,
0000
0110
0000
0110
0000
1001
0000
0001
,
0010
0001
0000
0100
1000
0010
0000
0010
,
0000
0100
0000
0000
1000
0000
0001
0000
0000
0010
0000
0000
0100
0000
0000
0000
;

//--------------- dance-single - B. M'Rey ----------------
#NOTEDATA:;
#STEPSTYPE:dance-single;
#DESCRIPTION:B. M'Rey;
#CREDIT:B. M'Rey;
#DIFFICULTY:Hard;
#METER:15;
#RADARVALUES:0,0,0,0,0;
#NOTES:
0000
0000
0000
0000
,
0000
0000
0000
0000
0000
0000
0000
1001
,
0000
0000
1000
1100
0000
0000
0010
0011
,
0000
0000
0000
0000
1000
0000
0100
0000
0000
0100
0000
0000
1000
0000
0110
0000
,
0000
0000
0100
1010
0000
0000
1000
1100
,
0000
0000
0000
0000
0100
0000
0010
0000
0000
0100
0002
0000
0000
0000
0013
0000
,
1000
0000
0001
0000
0100
0000
0001
0100
0000
1000
0010
0000
0100
0000
0010
0000
,
1000
0000
0010
0000
1000
0000
0100
0010
0000
1000
0100
0000
0010
0000
1100
0000
,
1000
0000
0001
0000
1000
0000
0001
1000
0000
0001
0010
0000
0100
0000
0010
0000
,
0100
0000
0010
0000
1000
0000
0001
1000
0000
1000
0001
0000
0010
0000
0011
0000
,
0010
0000
0100
0000
1000
0000
0100
1000
0000
0010
0100
0000
0010
0000
0001
0000
,
0010
0000
0001
0000
0010
0000
0100
1000
0000
0001
0100
0000
0010
0000
0110
0000
,
0010
0000
0001
0000
0010
0000
0001
0100
0000
1000
0001
0000
1000
0000
0100
0000
,
1000
0000
0001
0000
1000
0000
0001
0100
0000
1000
0001
0000
0100
0000
1100
0000
,
0000
0000
0010
1010
0000
0000
0010
0101
,
0000
0000
0000
0000
0001
0000
1000
0000
0000
0010
0000
0000
0010
0000
1100
0000
,
0000
0000
0100
0110
0000
0000
0010
1010
,
0000
0000
0000
0000
0001
0000
0010
0000
0000
0001
1000
0000
0000
0000
0001
1000
,
0001
1000
0001
1000
0001
1000
0000
0100
0001
1000
0100
1000
0100
1000
0000
1000
,
0100
1000
0001
1000
0100
0010
0000
0010
0100
0010
0100
0010
0100
1000
0100
0000
,
1000
0100
1000
0100
1000
0001
1000
0001
,
1000
0000
0001
0000
1000
0000
0001
0000
0010
0000
0001
0000
0010
0000
0100
1000
,
0100
1000
0100
1000
0100
1000
0000
0010
0001
0010
0001
0010
0001
0010
0000
1000
,
0001
1000
0100
1000
0100
1000
0000
1000
0100
1000
0010
0100
0010
0100
0001
0000
,
1000
0001
1000
0001
1000
0001
1000
0001
,
0100
0000
0001
0000
1000
0000
0100
0000
1000
0000
1001
0000
0000
0000
0001
1000
,
0001
1000
0010
0000
0001
0100
0000
0100
0001
1000
0100
0000
0000
0000
0101
0000
,
0000
0000
0000
0100
0010
1000
0010
0000
0001
1000
0000
0000
0001
0100
0010
0000
,
0010
0000
1000
0000
0001
1000
0000
0100
0001
0000
0010
0100
0010
0000
0010
0000
,
1000
0000
0100
0000
0001
0010
0000
0010
0100
0000
0100
1000
0100
0000
0001
0010
,
0001
0010
0100
0000
0100
1000
0000
0010
0001
0100
0001
0000
0000
0000
1100
0000
,
0000
0000
0100
1000
0001
0100
0001
0000
0001
1000
0000
0000
0010
0000
1001
0000
,
0000
0000
0010
0000
0001
1000
0000
1000
0001
0000
0001
0100
0001
0000
0100
0000
,
1000
0000
0100
0000
0100
0010
0000
1000
0001
0000
0001
1000
0010
0000
0001
0000
,
1000
0000
0001
0000
1000
0001
0000
0010
0100
0000
0010
0100
0010
0000
0010
0000
,
1000
0010
1000
0100
1000
0100
0010
0100
,
0010
0000
0001
0000
0010
0001
0000
0001
1000
0000
0001
0100
0001
0000
0010
0000
,
0100
0010
0100
0001
0010
0001
0010
0001
,
0100
0000
0010
0000
0100
0010
0000
0001
0100
0000
0001
1000
0001
0000
0001
0000
,
1000
0001
0010
0100
1000
0100
1000
0100
,
0010
0000
0001
0000
0010
0001
0000
0100
0010
0000
0100
1000
0100
0000
0100
0000
,
1000
0100
0010
0001
0010
0001
0010
1001
,
0000
0000
1000
0101
0000
0000
0100
0110
,
0000
0000
0000
0000
1000
0000
0001
0000
0000
1000
0000
0000
0100
0000
0110
0000
,
0000
0000
0100
1001
0000
0000
1000
1010
,
0000
0000
0000
0000
0010
0000
0100
0000
0000
0010
0000
0000
0010
0000
0001
0000
,
1000
0100
1000
0100
1000
0001
0100
0010
,
0100
0010
0100
0001
1000
0001
0100
0001
,
1000
0100
0010
0100
1000
0010
1000
0010
,
1000
0000
0001
0000
0100
0000
0010
0000
0100
0000
0110
0000
0000
0000
0001
1000
,
0001
0100
0001
0100
0001
0100
0000
0100
0001
0010
0100
1000
0100
1000
0000
1000
,
0100
1000
0100
0010
0100
1000
0000
0100
0001
0100
0001
0100
0001
0100
0001
0000
,
0010
0001
0100
0001
0100
0001
0100
0001
,
0100
0000
0001
0000
1000
0000
0010
0000
1000
0000
0010
0000
1000
0000
0001
1000
,
0001
1000
0001
1000
0001
1000
0000
0010
0001
1000
0010
1000
0010
1000
0000
1000
,
0100
1000
0100
1000
0100
0010
0000
0010
0100
0010
0001
0010
0001
0010
0100
0000
,
1000
0100
1000
0100
1000
0100
1000
0100
,
0010
0100
1000
0010
0100
0110
0000
1001
,
0000
0000
1010
0000
0010
1000
0000
0100
0001
0000
0001
0100
0001
0000
0101
0000
,
0000
0000
0101
0000
0010
0000
0001
1000
0000
1000
0100
0000
0100
0000
1001
0000
,
0000
0000
1001
0000
0001
1000
0000
0010
0100
0000
0100
1000
0100
0000
1100
0000
,
0000
0000
1010
0000
0010
0000
1000
0100
0000
0100
0010
0000
0010
0000
0101
0000
,
0000
0000
1010
0000
0010
1000
0000
1000
0010
0000
0010
0100
0001
0000
0101
0000
,
0000
0000
0101
0000
0000
0000
0010
0000
0010
1000
0000
1000
0001
0000
1001
0000
,
0000
0000
0011
0000
0001
0010
0000
0010
0100
0000
0100
0010
0100
0000
1100
0000
,
0000
0000
0011
0000
0001
0000
0001
0010
0000
1000
0001
0000
0010
0000
1001
0000
,
0000
0000
0101
0000
0001
0100
0000
0100
0001
0000
0010
1000
0010
0000
1010
0000
,
0000
0000
1001
0000
0010
0000
0001
0100
0000
0100
0010
0000
0010
0000
0001
0000
,
1000
0001
1000
0100
1000
0100
1000
0100
,
0010
0100
0010
0100
1000
0001
1000
1001
,
0000
0000
0011
0000
0001
1000
0000
1000
0100
0000
0100
1000
0100
0000
0011
0000
,
0000
0000
0011
0000
0001
0000
0001
1000
0000
1000
0010
0000
0010
0000
0010
0000
,
1000
0010
1000
0010
1000
0010
1000
0010
,
0100
0010
0100
0001
1000
0001
1000
0001
;
