#VERSION:0.83;
#TITLE:WILD ANGELS;
#ARTIST:MISSING HEART;
#GENRE:EURODANCE;
#MUSIC:Wild Angels.ogg;
#BANNER:Wild Angels-bn.png;
#BACKGROUND:Wild Angels-bg.png;
#CDTITLE:./CDTITLES/DANCEMANIA X0.PNG;
#SAMPLESTART:59.740;
#SAMPLELENGTH:15;
#OFFSET:-0.041;
#BPMS:0=131.661;

//--------------- dance-single - B. M'Rey ----------------
#NOTEDATA:;
#STEPSTYPE:dance-single;
#DESCRIPTION:B. M'Rey;
#CREDIT:B. M'Rey;
#DIFFICULTY:Beginner;
#METER:2;
#RADARVALUES:0,0,0,0,0;
#NOTES:
0000
0000
0000
0000
,
0000
0000
0000
0000
,
0000
0000
0000
0000
,
0000
0000
0000
0000
,
0000
0000
0000
0000
,
0000
0000
0000
0000
,
0000
0000
0000
0000
,
0000
0000
0000
0000
,
0100
0000
0000
0000
,
0001
0000
0000
0000
,
1000
0000
0000
0000
,
0010
0000
0000
0000
,
0100
0000
0000
0000
,
0001
0000
0000
0000
,
1000
0000
0000
0000
,
0010
0000
0000
0000
,
1001
0000
0000
0000
,
1000
0000
0000
0000
,
0010
0000
0000
0000
,
0100
0000
0000
0000
,
0001
0000
0000
0000
,
1000
0000
0000
0000
,
0010
0000
0000
0000
,
0100
0000
0000
0000
,
0001
0000
1000
0000
,
0010
0000
0100
0000
,
0001
0000
0010
0000
,
0001
0000
1000
0000
,
1001
0000
0010
0000
,
0100
0000
0010
0000
,
1000
0000
0001
0000
,
0010
0000
0001
0000
,
1001
0000
0000
0000
,
1000
0000
0000
0000
,
0010
0000
0000
0000
,
0100
0000
0000
0000
,
0001
0000
0001
0000
,
1000
0000
0000
0000
,
0010
0000
0000
0000
,
0100
0000
0000
0000
,
0001
0000
0000
0000
,
1000
0000
0010
0000
,
0100
0000
0010
0000
,
0001
0000
0010
0000
,
0100
0000
0010
0000
,
1000
0000
0001
0000
,
0010
0000
0001
0000
,
0100
0000
0010
0000
,
1000
0000
0010
0000
,
0100
0000
0000
0000
,
0001
0000
0000
0000
,
1000
0000
0000
0000
,
0010
0000
0001
0000
,
0100
0000
0000
0000
,
0010
0000
0000
0000
,
1000
0000
0001
0000
,
0010
0000
0000
0000
;

//--------------- dance-single - B. M'Rey ----------------
#NOTEDATA:;
#STEPSTYPE:dance-single;
#DESCRIPTION:B. M'Rey;
#CREDIT:B. M'Rey;
#DIFFICULTY:Easy;
#METER:4;
#RADARVALUES:0,0,0,0,0;
#NOTES:
0000
0000
0000
0000
,
0000
0000
0000
0000
,
0000
0000
0000
0000
,
0000
0000
0000
0000
,
0000
0000
0000
0000
,
0000
0000
0000
0000
,
0000
0000
0000
0000
,
0000
0000
0000
0000
,
1000
0000
0000
0000
,
0001
0000
0000
0000
,
0100
0000
0000
0000
,
0010
0000
0000
0000
,
1000
0000
0000
0000
,
0001
0000
0000
0000
,
0010
0000
0000
0000
,
0100
0000
0000
0000
,
1001
0000
0000
0000
,
0001
0000
0001
0000
,
1000
0000
1000
0000
,
0010
0000
0010
0000
,
0100
0000
0100
0000
,
0010
0000
0010
0000
,
0001
0000
0001
0000
,
1000
0000
1000
0000
,
0010
0000
0100
0000
,
0001
0001
0000
0100
,
0010
0001
0010
0000
,
1000
0100
0000
1000
,
0010
0000
0010
0100
,
0001
0000
0010
0000
,
1000
0010
0000
0100
,
0000
0001
0010
1000
,
1001
0000
0000
0001
,
1000
0000
0000
0010
0000
0000
0100
0000
,
0001
0000
0000
1000
0000
0000
0010
0000
,
0100
0000
0000
0001
0000
0000
0010
0000
,
1000
0010
0000
0100
0000
0000
0001
0000
,
0010
0000
0000
1000
0000
0000
0010
0000
,
0100
0000
0000
0001
0000
0000
0010
0000
,
0100
0000
0000
0001
0000
0000
1000
0000
,
0010
0100
0000
0001
,
0010
0000
1000
0000
,
0001
0000
0000
0100
0000
0000
0010
0000
,
1000
0000
0001
0000
,
0100
0000
0001
0010
,
1000
0000
0010
0000
,
0100
0000
0000
0001
0000
0000
0010
0000
,
1000
0000
0000
0010
,
0000
0000
0000
0000
0100
0000
0001
1000
,
0000
0010
0000
0000
0000
0000
0000
0000
,
0100
0000
0010
0000
,
0001
0000
1000
0000
,
0010
0000
0100
0001
,
0000
1000
0000
0010
,
0100
0000
0000
0000
0001
0000
0000
1000
,
0000
0010
0000
0000
0000
0000
0000
0200
,
0000
0000
0000
0000
,
0300
0000
0000
0000
;

//--------------- dance-single - B. M'Rey ----------------
#NOTEDATA:;
#STEPSTYPE:dance-single;
#DESCRIPTION:B. M'Rey;
#CREDIT:B. M'Rey;
#DIFFICULTY:Medium;
#METER:7;
#RADARVALUES:0,0,0,0,0;
#NOTES:
0000
0000
0000
0000
,
0000
0000
0000
0000
,
0000
0000
0000
0000
,
0000
0000
0000
0000
,
0000
0000
0000
0000
,
0000
0000
0000
0000
,
0000
0000
0000
0000
,
0000
0000
0000
0000
,
1000
0010
0100
0001
,
0010
0001
0100
0010
,
1000
0100
1000
0010
,
0100
0000
0001
0000
,
0010
0001
0010
0100
,
1000
0010
0100
0001
,
1000
0010
0100
0001
,
0010
0000
1000
0000
,
1001
0000
0000
0000
,
1000
1000
1000
0000
0010
0010
0010
0000
,
0100
0100
0100
0000
0001
0001
0001
0000
,
1000
0001
0010
0100
,
0001
0010
1000
0000
1000
0100
0010
0000
,
0001
0001
0001
0000
0010
0010
0010
0000
,
0100
0100
0100
0000
1000
1000
1000
0000
,
0001
0000
0010
0000
0100
0000
0001
1000
,
0010
0000
0001
1000
0010
0000
1000
0100
,
0001
0010
1000
0000
0010
0100
0010
0000
,
1000
0100
0010
0000
0001
0010
0100
0000
,
0010
0100
0010
0000
1000
0001
0100
0000
,
1001
0000
0000
0000
0010
0100
0001
0000
,
1000
0000
0010
0000
0100
0010
0100
0000
,
0001
0010
1000
0000
0100
1000
0100
0000
,
0010
0000
0100
0000
0001
0010
1000
0000
,
0110
0000
0000
1000
,
0100
0010
0000
0001
0010
0000
1000
0000
,
0001
0010
0000
1000
0100
0000
0010
0000
,
0100
0010
0000
0001
0010
0000
1000
0000
,
0001
1000
0000
0020
0000
0030
0100
0000
,
0001
1000
0000
0010
0100
0000
0001
0000
,
1000
0010
0000
0100
0001
0000
0010
0000
,
1000
0010
0000
0100
0001
0000
0010
0000
,
1000
0000
0010
0100
0001
0000
1000
0000
,
0001
1000
0000
0010
0000
0100
0000
0001
,
0020
0000
0030
0100
0000
0010
0100
0000
,
1000
0000
0010
0000
0100
0001
0010
1000
,
0000
0100
0000
0010
0001
0010
0001
0010
,
1000
0010
0100
0001
,
0020
0000
0030
1000
0000
0000
0010
0000
,
0100
0000
0001
0000
0010
0000
0001
0010
,
1000
0000
0010
0000
0100
0000
0001
1000
,
0010
0000
0100
0001
0100
0000
0010
1000
,
0200
0000
0000
0000
0320
0000
0000
0130
,
0000
0001
1000
0010
0000
1000
0000
0100
,
0001
0010
0000
1000
0000
0001
0020
0000
,
1030
0100
0000
0001
0000
0010
0000
1000
,
0020
0000
0000
0000
0230
0000
0000
0301
,
0000
1000
0001
0010
0000
0100
0000
0001
,
1000
0010
0000
1000
0000
0002
0000
0000
,
0003
0000
0000
0000
;

//--------------- dance-single - B. M'Rey ----------------
#NOTEDATA:;
#STEPSTYPE:dance-single;
#DESCRIPTION:B. M'Rey;
#CREDIT:B. M'Rey;
#DIFFICULTY:Hard;
#METER:11;
#RADARVALUES:0,0,0,0,0;
#NOTES:
0000
0000
0000
0000
,
0000
0000
0000
0000
,
0000
0000
0000
0000
,
0000
0000
0000
0000
,
0000
0000
0000
0000
,
0000
0000
0000
0000
,
0000
0000
0000
0000
,
0000
0000
0000
0000
,
0001
0000
1000
0000
0001
0000
0100
0100
,
0001
0000
0100
0000
0010
0000
0100
0100
,
0010
0000
1000
0000
0100
0000
1000
0100
,
0100
0000
1000
1000
0001
0000
0010
0010
,
0100
0000
0010
0000
0100
0000
0010
0010
,
0001
0000
0100
0000
0001
0000
0100
0100
,
0001
0000
1000
0000
0100
0000
1000
1000
,
0100
0000
0010
0010
0100
0000
0010
0010
,
1001
0000
0000
0000
,
0001
1000
0001
0010
0001
1000
0001
0100
,
0010
0100
0001
0100
0010
0100
0001
0010
,
0001
1000
0001
0100
0001
1000
0100
1000
,
0001
1000
0100
1000
0001
0010
0100
0010
,
0001
0010
0100
0010
0001
1000
0001
0010
,
0100
1000
0100
0010
0100
1000
0100
0010
,
0001
0010
0100
0010
0001
1000
0100
1000
,
0110
0000
0001
1000
0110
0000
0021
0000
,
0031
0010
0100
0000
0001
0010
0001
0000
,
0100
0010
0001
0100
0010
1000
0001
0000
,
0001
0100
0001
0010
0100
0010
0001
0000
,
0110
0000
0001
0100
0010
1000
0010
0100
,
1010
0000
1100
0000
0001
0100
0001
0000
,
0001
0100
0010
0000
0010
0100
0001
0000
,
0001
0100
0010
1000
0001
0100
0010
0000
,
1001
0000
0000
0001
,
0100
0000
0010
1000
0001
0000
0100
0000
,
0010
1000
0100
1000
0000
1000
0001
0000
,
0001
0010
0100
1000
0000
0100
0001
0000
,
0100
1000
0000
0200
0000
1300
0002
0000
,
0103
0010
0100
1000
0000
0100
0001
0000
,
0100
1000
0010
0100
0000
1000
0010
0000
,
0001
0000
0100
1000
0000
0010
0001
0000
,
0100
1000
0010
2000
0000
3010
0100
0010
,
1000
0001
1000
0001
1000
0001
1000
0100
,
0010
0100
0010
0001
1000
0001
1000
0010
,
1000
0100
0010
0100
0010
0100
0010
0100
,
1000
0001
1000
0001
1000
0001
1000
0100
,
0010
0100
0010
0100
0010
0100
1000
0001
,
0010
0001
0010
0100
0010
0100
0010
0001
,
0100
0001
0100
0001
0100
0001
0010
0100
,
0010
0100
0010
0100
1000
0100
0010
0001
,
0010
0001
0010
0001
0010
0100
1000
0100
,
2000
0100
3020
0001
,
0031
0001
0010
0100
1000
0100
1000
0100
,
1000
0100
0010
0001
0010
0001
0100
0001
,
0100
0001
0100
0010
0100
0010
1000
0010
,
2000
0001
3020
1000
,
0031
1000
0010
0100
1000
0100
1000
0200
,
0000
2300
0000
3002
0000
0203
0000
0000
,
0300
0000
0000
0000
;
