#VERSION:0.83;
#TITLE:UP AND DOWN;
#ARTIST:BUSā˜…STOP;
#GENRE:EUROPOP;
#MUSIC:UP AND DOWN.ogg;
#BANNER:UP AND DOWN-bn.png;
#BACKGROUND:UP AND DOWN-bg.png;
#CDTITLE:./CDTITLES/DANCEMANIA X9.PNG;
#SAMPLESTART:71.692;
#SAMPLELENGTH:15;
#OFFSET:-0.084;
#BPMS:0=134.063;

//--------------- dance-single - B. M'Rey ----------------
#NOTEDATA:;
#STEPSTYPE:dance-single;
#DESCRIPTION:B. M'Rey;
#CREDIT:B. M'Rey;
#DIFFICULTY:Beginner;
#METER:4;
#RADARVALUES:0,0,0,0,0;
#NOTES:
0000
0000
0000
0000
,
0000
0000
0000
0000
,
0000
0000
0000
0000
,
0000
0000
0000
0000
,
0000
0000
0000
0000
,
0000
0000
0000
0000
,
0000
0000
0000
0000
,
1000
0000
0000
0000
,
0001
0000
0000
0000
,
0010
0000
0000
0000
,
0001
0000
0000
0000
,
1000
0000
0000
0000
,
0100
0000
1000
0000
,
0010
0000
0000
0000
,
0100
0000
0001
0000
,
0010
0010
0010
0010
,
0001
0000
1000
0000
,
0010
0000
0100
0000
,
0010
0000
1000
0000
,
0001
0000
0010
0000
,
0100
0100
0100
0000
,
1000
1000
1000
0000
,
0010
0000
0100
0000
,
1001
0000
0000
0000
,
1000
0000
0001
0000
,
0010
0000
0100
0000
,
0010
0000
1000
0000
,
0100
0000
1000
0000
,
0010
0000
0100
0000
,
0010
0000
0001
0000
,
0010
0000
0001
0000
,
1000
0000
0010
0000
,
0001
0000
0000
0000
0000
0000
0000
0100
,
0000
0000
0000
0000
,
0001
0000
1000
0000
,
0010
0000
0000
0000
,
0100
0000
1000
0000
,
0010
0000
0100
0000
,
0010
0000
1000
0000
,
0001
0000
0000
0000
,
0010
0000
0100
0000
,
0001
0001
0001
0000
,
1000
0000
0001
0000
,
1000
0000
0100
0000
,
0010
0000
0100
0000
,
0000
0001
0001
0001
,
1000
0000
0001
0000
,
0110
0000
0000
0000
,
0010
0000
0100
0000
,
0001
0001
1000
1000
,
0001
0000
1000
0000
,
0010
1000
0100
0000
,
0010
0000
0100
0000
,
0000
0001
0001
0001
,
1000
0000
0001
0000
,
0110
0000
0000
0000
,
1000
0000
0000
0000
,
0001
0000
0000
0000
,
0100
0000
0000
0000
,
0010
0000
0000
0000
,
0010
0000
0100
0000
,
0001
0001
1000
1000
,
0010
0000
1000
0000
,
0001
0000
0000
0000
,
0010
0000
0100
0000
,
0000
0000
0000
0000
,
0001
0000
1000
0000
,
0000
0000
0000
0000
,
1001
0000
0000
0000
;

//--------------- dance-single - B. M'Rey ----------------
#NOTEDATA:;
#STEPSTYPE:dance-single;
#DESCRIPTION:B. M'Rey;
#CREDIT:B. M'Rey;
#DIFFICULTY:Easy;
#METER:7;
#RADARVALUES:0,0,0,0,0;
#NOTES:
0000
0000
0000
0000
,
0000
0000
0000
0000
,
0000
0000
0000
0000
,
0000
0000
0000
0000
,
0000
0000
0000
0000
,
0000
0000
0000
0000
,
0000
0000
0000
0000
,
0002
0000
0000
0000
,
1003
0100
0010
0001
,
0200
0300
0000
0000
,
0010
0001
1000
0010
,
0200
0000
0020
0330
,
0010
0100
0010
0100
,
2000
3010
0000
0001
,
1000
0010
0100
0001
,
2000
0000
0000
0000
0000
0000
0000
3000
,
0001
0010
0100
0001
,
0010
0001
1000
0010
,
0100
0001
1000
0100
,
1000
0010
0100
0010
,
0100
0001
0010
0100
,
1000
0001
1000
0010
,
0100
0010
1000
0001
,
0010
0000
0000
0000
,
1000
0100
0010
0100
,
0010
0001
0010
0001
,
1000
0010
0000
0010
,
0000
0010
1000
0100
,
0010
0100
1000
0010
,
0100
0010
0100
0001
,
0100
0001
1000
0110
,
0100
0000
1000
0000
,
1000
0000
0010
0000
1000
0000
0000
0100
,
0000
0000
0001
0100
,
1000
0000
0100
0000
0001
0000
0000
0020
,
0000
0130
1000
0001
,
0100
0001
1000
0100
,
0010
0001
0100
0010
,
1000
0010
1000
0100
,
1000
0000
0000
0000
,
0010
0000
0100
0000
,
1000
0100
0010
0100
,
0001
0000
1000
0000
,
1000
0001
1000
0001
,
0010
0000
0100
0100
,
0000
0001
0010
0001
,
0100
0010
0100
0010
,
1010
0110
0101
0011
,
0010
0000
0100
0000
,
0100
0010
0100
0010
,
0100
0000
1000
0000
,
0100
0010
1000
0100
,
0010
0000
0100
0100
,
0000
0001
0100
0001
,
0100
0010
1000
0001
,
0101
0101
0110
1100
,
0001
0010
0100
0001
,
0010
0001
1000
0010
,
0100
0001
1000
0100
,
1000
0010
0100
0010
,
0010
0000
0100
0000
,
1000
0100
0010
0100
,
0001
0000
1000
0000
,
1000
0001
0000
0001
,
0010
0000
0100
0100
,
0000
0001
0010
0001
,
0100
0010
0100
0010
,
1000
0010
0000
0000
,
0100
0000
0000
0000
;

//--------------- dance-single - B. M'Rey ----------------
#NOTEDATA:;
#STEPSTYPE:dance-single;
#DESCRIPTION:B. M'Rey;
#CREDIT:B. M'Rey;
#DIFFICULTY:Medium;
#METER:8;
#RADARVALUES:0,0,0,0,0;
#NOTES:
0000
0000
0000
0000
,
0000
0000
0000
0000
,
0000
0000
0000
0000
,
0000
0000
0000
0000
,
0001
0000
1000
0000
,
0010
0000
0100
0000
,
0010
0010
1000
1000
,
1001
0010
0101
0010
,
0020
2030
3200
2300
,
3200
0310
0000
0000
,
0002
0023
0032
0203
,
0320
2030
3200
0300
,
0002
0023
0032
0023
,
0032
1003
0100
1000
,
1001
0010
0110
0001
,
1001
0110
0101
1010
,
0001
0010
0001
0000
0010
0000
1000
0000
,
0100
1000
0100
0000
0010
0000
0100
0000
,
0010
0100
0010
0000
1000
0000
0100
0000
,
0001
0010
0001
0000
1000
0100
1000
0000
,
0010
0000
0100
0000
0001
0010
0001
0000
,
1000
0000
0010
0000
0100
0010
0100
0000
,
1000
0000
0100
0000
1000
0100
1000
0000
,
2002
0000
0000
3003
,
1001
0000
0110
0000
0001
0010
1000
0000
,
0010
0000
0100
0000
0001
1000
0100
0000
,
0010
0001
1000
0000
0100
0000
1000
0000
,
1000
0100
0010
0000
0001
0000
0010
0000
,
0001
1000
0010
0000
0100
0000
0010
0000
,
1000
0100
0010
0000
0001
0010
0100
0000
,
0010
0000
1001
0000
0010
0100
0001
0000
,
0010
0000
1000
0000
0100
1000
0100
0000
,
0001
0000
0010
0000
1000
0000
0100
1000
,
0200
0310
0001
0010
,
0001
0010
0001
0000
1000
0100
1000
0000
,
0020
0130
0001
0010
,
0001
0010
0001
0000
0010
0100
0010
0000
,
1000
0100
1000
0000
0010
0100
0010
0000
,
0001
0010
0001
0000
1000
0100
1000
0000
,
2002
0000
0000
3003
,
0010
0110
0100
1000
,
0001
0010
0100
0000
1000
0100
0010
0000
,
0001
1001
1000
0010
,
0100
0001
0010
0000
1000
0000
0010
0000
,
0010
0110
0100
0100
,
0000
0000
0001
1000
0010
0000
0100
0000
,
0001
0000
1001
0000
1000
0000
0010
0100
,
0001
0010
1000
0100
,
0010
0110
0100
1000
,
0001
0100
0010
0000
0001
1000
0010
0000
,
1000
1001
0001
0100
,
0001
0010
1000
0000
0100
0010
0100
0000
,
0010
0110
0100
0100
,
1000
0000
0001
0010
0100
0000
1000
0000
,
0001
0000
1001
0000
1000
0000
0010
0100
,
0001
0010
1000
0100
,
0001
0010
0001
0000
0010
0000
1000
0000
,
0100
1000
0100
0000
0010
0000
0100
0000
,
0010
0100
0010
0000
1000
0000
0100
0000
,
0001
0010
0001
0000
1000
0100
1000
0000
,
0010
0110
0100
1000
,
0001
0010
0100
0000
1000
0100
0010
0000
,
0001
1001
1000
0010
,
0100
0001
0010
0000
1000
0000
0010
0000
,
0010
0110
0100
0100
,
0000
0000
0001
1000
0010
0000
0100
0000
,
0001
0000
1001
0000
1000
0000
0010
0100
,
0001
0010
1000
0100
,
0010
0000
0000
0000
;

//--------------- dance-single - B. M'Rey ----------------
#NOTEDATA:;
#STEPSTYPE:dance-single;
#DESCRIPTION:B. M'Rey;
#CREDIT:B. M'Rey;
#DIFFICULTY:Hard;
#METER:11;
#RADARVALUES:0,0,0,0,0;
#NOTES:
0000
0000
0000
0000
,
0000
0000
0000
0000
,
0000
0000
0000
0000
,
0000
0000
0000
0000
,
1000
0001
0010
0100
,
0010
1000
0100
0001
,
0010
0001
0100
0010
,
1001
1001
1001
1001
,
0001
1000
0010
0100
0020
0000
0032
0000
,
0103
0010
1000
0100
0020
0000
0230
0000
,
0301
0010
0100
0001
0200
0000
0302
0000
,
0013
1000
0100
1000
0020
0000
0230
0000
,
0320
1030
0020
0031
,
0020
0130
0020
1030
,
1001
0010
0101
0010
,
1001
0110
0101
1010
,
0001
0010
0001
0010
0100
0000
0010
0000
,
1000
0100
1000
0100
0010
0000
0100
0000
,
0001
0010
0001
0010
0001
0000
0010
0000
,
0100
0010
0100
0010
1000
0000
0100
0000
,
0010
0100
0010
0100
0001
0000
0010
0000
,
0001
0100
0010
0100
0001
0000
1000
0000
,
0010
0100
0010
0100
0001
0000
0010
0000
,
2002
0000
0000
3003
,
1001
0000
0110
0000
0001
0010
0001
0000
,
0010
0100
1000
0100
0010
0100
0001
0000
,
0010
0100
0001
0000
0010
1000
0100
0000
,
0010
0100
1000
0100
0010
0100
0001
0000
,
1000
0001
0100
0010
0001
0010
1000
0000
,
0010
0100
0010
0100
0001
1000
0010
0000
,
0110
0010
0110
0000
1000
0010
1001
0000
,
0010
0000
0100
0000
0010
0001
1000
0000
,
0010
0100
0001
0010
0001
0000
1000
0200
,
0000
0310
0000
0010
0100
0001
0100
0000
,
0010
1000
0001
0100
0010
0000
0001
0200
,
0010
0000
0310
0000
1000
0001
0100
0000
,
0010
0001
0100
0010
1000
0000
0100
1000
,
0010
0000
0100
0001
0010
0000
0001
1000
,
0010
0100
0001
1000
0010
0100
0001
1000
,
1001
1001
1001
1001
,
0020
0000
0130
1000
0200
0000
0310
0000
,
0001
0010
1000
0010
0100
0000
0010
0000
,
1001
0110
1001
0110
,
0001
0010
1000
0100
0000
0000
0001
0100
,
0020
0000
0031
1000
0200
0300
0100
0000
,
0010
0000
0001
1000
0010
0100
0001
0000
,
1001
0000
0110
0000
1001
0000
0010
0001
,
0100
0010
1000
0100
0000
0001
0010
0000
,
0020
0000
0031
1000
0200
0000
0310
0000
,
0001
0010
1000
0001
0100
0010
1000
0000
,
1001
0110
1001
0110
,
0001
0010
0001
1000
0100
0000
0010
1000
,
0020
0000
0031
0010
0200
0300
0100
0000
,
1000
0000
0010
0100
0001
1000
0010
0100
,
1001
0000
0110
0000
1001
0000
0010
0100
,
0001
1000
0010
0100
0000
1000
0010
0000
,
0001
0010
0001
0010
0001
1000
0100
0010
,
2000
0000
3020
0000
0130
0001
0010
1000
,
0000
0010
0100
0001
1000
0100
0010
0100
,
2002
3003
0220
0330
0202
0303
0220
0330
,
0110
0000
0000
1000
0110
0000
0001
0000
,
0001
1000
0010
0100
0010
1000
0000
0000
,
1001
0000
0000
0010
0101
0000
0000
0010
,
1000
0100
0010
1000
0000
0000
0001
0000
,
0110
0000
0000
0001
0110
0000
0100
0000
,
0000
0000
0010
1000
0100
0010
1000
0000
,
1001
0000
0110
0000
1001
0000
0010
0100
,
0001
1000
0010
0100
0000
0000
0000
0000
,
1001
0000
0000
0000
;

//--------------- dance-single - B. M'Rey ----------------
#NOTEDATA:;
#STEPSTYPE:dance-single;
#DESCRIPTION:B. M'Rey;
#CREDIT:B. M'Rey;
#DIFFICULTY:Challenge;
#METER:15;
#RADARVALUES:0,0,0,0,0;
#NOTES:
0000
0000
0000
0000
,
0000
0000
0000
0000
,
0000
0000
0000
0000
,
0000
0000
0000
0000
,
0110
0000
0001
0010
0100
0000
0000
0000
1100
0000
0010
0100
0001
0000
0100
0000
,
0110
0000
0010
0100
0001
0000
0100
0000
0110
0000
0100
1000
0010
0000
0010
0000
,
0001
0100
0010
0100
0010
0100
0001
0100
,
1001
0110
0101
0110
,
0001
0000
0010
0000
0001
0000
0010
0000
0100
0000
0000
0001
0000
0000
1000
0000
,
0010
0000
1000
0000
0010
0000
0100
0000
0010
0000
0000
1000
0000
0000
0001
0000
,
0100
0000
0010
0000
0100
0000
1000
0000
0100
0000
0000
1000
0000
0000
0010
0000
,
0100
0000
1000
0000
0100
0000
0010
0000
0100
0000
0000
0010
0000
0000
0100
0000
,
0110
0000
0001
0010
0001
1000
0010
1000
,
0001
0100
0010
0100
0001
1000
0010
0100
,
1001
0000
0110
0000
,
0101
0110
1100
0110
,
0001
0000
0010
0000
0100
0000
0010
0000
0100
1000
0000
1000
0001
0000
0100
0000
,
0001
0000
1000
0000
0100
0000
1000
0000
0001
1000
0000
1000
0010
0000
0100
0000
,
0010
0000
0100
0000
0010
0000
1000
0000
0001
0100
0000
0100
0010
0000
0100
0000
,
0001
0000
0100
0000
0001
0000
1000
0000
0001
0100
0000
0100
0010
0000
0100
0000
,
0010
0000
1000
0000
0100
0000
1000
0000
0100
1000
0000
1000
0010
0000
0100
0000
,
0001
0000
0100
0000
0001
0000
1000
0000
0100
0010
0000
0010
0001
0000
0100
0000
,
0010
0000
0100
0000
0001
0000
0010
0000
0001
1000
0000
1000
0001
0000
0100
0000
,
0010
0000
0001
0000
0010
0000
0001
0000
1000
0000
0000
0001
0000
0000
1000
0001
,
1000
0000
0000
0010
0001
0000
0001
1000
0100
0010
0001
0000
0100
0000
0010
0000
,
0100
0010
0001
0010
0100
0000
1000
0000
0001
1000
0000
0100
0001
0000
1000
0000
,
0010
1000
0010
0100
0010
0000
0100
0000
0001
0010
0100
1000
0100
0000
0010
0000
,
0001
0000
0001
0010
0001
0000
0010
0000
0100
1000
0000
1000
0001
0000
0100
0000
,
0001
1000
0100
1000
0001
0000
0100
0000
0001
0100
0001
0100
0001
0000
0100
1000
,
0100
1000
0001
0100
0010
0000
0010
0100
0001
0000
0010
0000
1010
0000
0001
1000
,
0100
0000
0100
0010
0100
0000
0001
0010
0001
0100
0001
1000
0010
0000
0001
0100
,
0001
1000
0100
1000
0001
0010
0001
0010
0001
1000
0010
1000
0100
0000
0000
0000
,
0010
0000
1000
0000
0100
0000
1000
0010
0000
0010
1000
0000
0010
0000
0100
0000
,
0001
0100
0000
0100
0001
0000
0100
0000
0010
1000
0000
1000
0001
0000
0100
0000
,
0010
0000
1000
0000
0001
0000
0100
0001
0000
0001
1000
0000
0010
0000
1000
0000
,
0001
0010
0000
0010
0001
0000
1000
0000
0100
0010
0000
0010
0001
0000
1000
0000
,
0001
0000
0100
0010
0000
0010
0100
0000
0001
0000
0100
0000
0010
0000
1000
0000
,
1010
1000
0010
0100
0001
0100
0010
0100
,
0101
0010
0100
1000
1010
1000
0010
0100
,
0022
0033
MMMM
0000
2002
3003
MMMM
0000
0220
0330
MMMM
0000
0202
0303
MMMM
0000
,
0100
0000
0010
0000
1000
0100
0000
0100
0010
0000
0001
0100
0000
0100
0010
0000
,
0100
0000
0001
0000
0010
0000
0100
0000
1000
0001
0000
0001
0100
0000
0001
0010
,
0100
0000
0010
0100
0000
0100
0010
0000
0100
0001
0000
0001
0100
0000
0001
0000
,
0010
0000
0100
0000
0010
0001
0000
0001
0100
0000
0001
1000
0100
0000
0010
0000
,
0100
0001
0000
0001
0010
0000
0100
0010
0000
0010
0001
0000
0100
0000
0010
0000
,
0100
0000
0001
0000
0100
0010
0000
0010
1000
0000
0001
0100
0000
0100
0001
0000
,
1010
0100
0110
0001
1001
0100
0010
0001
,
0101
0110
1100
0110
,
0010
0000
0100
0000
0001
0010
0000
0010
0100
0000
1000
0010
0000
0010
0100
0000
,
0010
0000
1000
0000
0100
0000
0010
0000
0001
1000
0000
1000
0010
0000
1000
0100
,
0010
0000
0100
0010
0000
0010
0100
0000
0010
1000
0000
1000
0010
0000
1000
0000
,
0100
0000
0010
0000
0100
1000
0000
1000
0010
0000
1000
0001
0010
0000
0100
0000
,
0010
1000
0000
1000
0100
0000
0010
0100
0000
0100
1000
0000
0010
0000
0100
0000
,
0010
0000
1000
0000
0010
0100
0000
0100
0001
0000
1000
0010
0000
0010
1000
0000
,
0101
0010
0110
1000
1001
0010
0100
1000
,
1010
0110
0011
0110
,
0001
0000
0010
0000
0100
0000
0010
0000
0100
1000
0000
1000
0001
0000
0100
0000
,
0001
0000
1000
0000
0100
0000
1000
0000
0001
1000
0000
1000
0010
0000
0100
0000
,
0010
0000
0100
0000
0010
0000
1000
0000
0001
0100
0000
0100
0010
0000
0100
0000
,
0001
0000
0100
0000
0001
0000
1000
0000
0001
0100
0000
0100
0010
0000
0100
0000
,
0110
1100
0110
0101
,
0100
0000
0001
0000
0010
0000
0100
0000
1000
0001
0000
0001
0100
0000
0001
0010
,
0100
0110
0101
0110
,
0010
0000
0100
0000
0010
0001
0000
0001
0100
0000
0001
0000
0100
0000
0010
0000
,
0011
0110
1100
0110
,
0100
0000
0001
0000
0100
0000
0010
0000
1000
0010
0001
0100
0000
0000
0100
0000
,
1010
0000
0110
0000
1001
0000
0010
0001
,
0100
0000
0001
0000
0100
0000
0010
0000
1100
0000
0000
0110
0000
0000
0101
0000
;
