#TITLE:THE NAUGHTY SONG;
#ARTIST:OSCILLATOR X;
#GENRE:SYNTH-POP;
#CREDIT:B. M'Rey;
#MUSIC:The Naughty Song.ogg;
#BANNER:The Naughty Song-bn.png;
#BACKGROUND:The Naughty Song-bg.png;
#CDTITLE:./cdtitles/KaW Originals.png;
#SAMPLESTART:48.233;
#SAMPLELENGTH:12;
#OFFSET:-0.097;
#BPMS:0=128.074;

//--------------- dance-single - B. M'Rey ----------------
#NOTES:
     dance-single:
     B. M'Rey:
     Beginner:
     1:
     0,0,0,0,0:
0000
0000
0000
0000
,
0000
0000
0000
0000
,
0000
0000
0000
0000
,
0000
0000
0000
0000
,
0000
0000
0000
0000
,
0100
0000
0000
0000
,
0010
0000
0000
0000
,
0001
0000
1000
0000
,
0010
0000
0100
0000
,
0010
0000
0000
0000
,
0001
0000
0000
0000
,
1000
0000
0010
0000
,
0100
0000
0010
0000
,
1000
0000
0001
0000
,
0100
0100
0100
0000
,
0010
0000
0001
0000
,
1000
1000
1000
0000
,
1001
0000
0000
0000
,
0100
0000
0000
0000
,
0000
0000
0000
0000
,
0010
0000
0000
0000
,
0000
0000
0000
0001
,
1000
0000
0000
0000
,
0100
0000
0000
0000
,
0010
0000
0001
0000
,
1000
0001
1001
0000
,
1000
0000
0010
0000
,
0100
0000
0001
0000
,
0010
0000
0001
0000
,
0100
0000
0000
0010
,
1000
0000
0010
0000
,
0100
0000
0000
0001
,
1000
0000
0010
0000
,
0100
0000
0001
0000
,
1000
0000
0000
0000
,
0010
0000
0100
0000
,
0010
0000
0000
0001
,
1000
0000
0000
0000
,
0010
0000
0100
0000
,
0001
0000
1000
0000
,
0010
0000
1000
0000
,
0100
0000
0010
0000
;

//--------------- dance-single - B. M'Rey ----------------
#NOTES:
     dance-single:
     B. M'Rey:
     Easy:
     2:
     0,0,0,0,0:
0000
0000
0000
0000
,
0000
0000
0000
0000
,
0000
0000
0000
0000
,
0000
0000
0000
0000
,
1000
0000
0000
0000
,
0001
0000
0010
0000
,
0100
0000
1000
0000
,
0100
0100
0010
0010
,
0001
0000
0000
0001
0000
0000
0000
0000
,
1000
0000
0010
0000
,
0100
0000
0001
0000
,
1000
1000
0100
0100
,
0010
0000
0000
0010
0000
0000
0000
0000
,
1000
0001
0010
0100
,
0010
1000
0100
0000
,
0001
0010
0001
0100
,
0010
1000
1001
0000
,
0100
0000
0000
0000
,
1001
0000
0000
0000
,
0010
0000
0000
0000
,
0100
0000
0000
0000
,
0001
0000
0000
1000
,
0001
0000
0000
0000
,
0100
0000
0000
0000
,
0010
0000
1000
0000
,
0001
1000
1001
0000
,
1000
0000
0010
0010
,
0100
0000
0001
0000
,
0010
0000
0001
0001
,
1000
0000
0000
0100
,
0010
0000
0100
0100
,
0100
0000
0000
0001
,
0010
0000
1000
1000
,
1000
0000
0001
0000
,
0100
0000
0010
0000
,
1000
0000
1000
0100
,
0010
0000
0001
0000
,
0010
0100
1000
0100
,
0010
0000
0001
0000
,
0010
0100
1000
0010
,
1000
0010
1000
0010
,
1001
1001
1001
0000
;

//--------------- dance-single - B. M'Rey ----------------
#NOTES:
     dance-single:
     B. M'Rey:
     Medium:
     4:
     0,0,0,0,0:
0000
0000
0000
0000
,
0000
0000
0000
0000
,
0000
0000
0000
0000
,
0000
0000
0000
0000
,
2002
0000
0000
0000
0000
0000
0000
0000
0000
0000
0000
0000
0000
0000
0000
3003
,
0100
1000
0010
0100
,
0010
1000
0100
1000
,
0100
0010
0100
0010
0100
0000
1000
0000
,
0001
0100
0000
0001
0000
0000
0100
0000
,
0001
1000
0100
1000
,
0010
1000
0010
0100
,
0010
0100
0010
0100
0010
0000
1000
0000
,
0001
0100
0000
0010
0000
1000
1000
0000
,
0001
0100
0001
0010
,
0001
0010
0100
0000
0010
0000
1000
0000
,
0100
0010
0100
1000
,
0100
0001
0010
0000
0001
0000
1000
0000
,
0101
0101
0000
0000
,
0100
0000
0000
0000
,
1000
0000
0000
0000
,
0001
0000
0000
0000
,
0100
0000
0000
0110
,
0110
0000
0001
0000
,
1000
0000
0010
0000
,
0110
0000
1010
0000
,
1000
0001
1000
0001
1000
0000
1001
0000
,
0010
0001
0100
0000
0101
0000
0101
0000
,
0101
0000
1000
0000
0001
0000
1000
0100
,
0010
0100
0110
0110
,
0110
1000
0100
1000
,
0100
0001
0010
0000
0011
0000
0011
0000
,
0011
0000
1000
0000
0001
0000
0100
0001
,
0010
0100
1010
1010
,
0110
1000
0101
0100
,
0001
0010
1000
0000
0001
0100
0010
0000
,
0100
0000
1000
0000
0001
0010
1000
0000
,
0001
0100
0100
0000
0001
0000
0010
1000
,
0100
0000
0010
0000
0100
0000
1000
0100
,
0010
1000
0100
0010
,
0001
0100
0010
0000
0100
0000
0010
0001
,
0100
0000
1000
0010
0100
0000
1000
0000
,
1010
0101
1001
0000
;

//--------------- dance-single - B. M'Rey ----------------
#NOTES:
     dance-single:
     B. M'Rey:
     Hard:
     7:
     0,0,0,0,0:
0000
0000
0000
0000
,
0000
0000
0000
0000
,
0000
0000
0000
0000
,
0000
0000
0000
0000
,
2002
0000
0000
0000
0000
0000
0000
0000
0000
0000
0000
0000
0000
0000
0000
3003
,
0001
0010
0001
1000
0010
0100
0000
0100
,
0010
1000
0000
1001
0000
0110
0000
0011
,
0000
0000
0010
0001
0010
0000
1000
0000
0001
0000
0010
0000
0100
0000
0000
0000
,
0001
0010
0000
1000
0100
0000
0010
0010
,
0001
0000
0100
0010
0000
0000
1000
0000
0001
0000
0100
0000
0010
0000
1000
0000
,
0010
0100
0010
0100
0001
0000
0001
1000
,
0100
0000
1000
0010
1000
0000
0100
0000
0010
0000
1000
0000
0100
0000
0000
0000
,
0100
1000
0000
1000
0010
0000
0110
0000
,
0010
0100
0001
0010
0200
0000
0301
0010
,
0100
1000
1010
0000
1001
0000
0010
0000
,
0010
0100
0010
1000
0001
1000
0001
1000
,
0100
0010
0101
0000
0101
0000
0001
1000
,
0110
1001
2002
3003
,
2000
0000
3020
0000
,
0230
0000
0302
0000
,
0023
0000
2030
0000
,
3020
0000
0130
1001
,
1001
0001
0100
0010
,
1000
0010
0100
0001
,
0011
0001
0110
0100
,
0010
0100
0010
0100
1000
0000
1001
0000
,
0001
1000
0010
1000
0110
0000
1010
0000
,
0110
0000
0001
0010
0001
0010
0100
1000
,
0010
0000
0000
1000
0000
0000
0000
0000
0110
0000
0000
0000
0110
0000
0000
0000
,
0101
0000
0001
1000
0010
0100
0001
1000
,
0001
0000
0000
0010
0000
0000
1000
0000
1001
0000
0000
0000
1100
0000
0000
0000
,
0101
0000
0010
1000
0010
0100
0001
0010
,
0001
0000
0000
1000
0000
0000
1000
0000
0110
0000
0000
0000
1010
0000
0000
0000
,
1001
0000
0100
0110
0000
0010
0100
1000
,
0001
0000
0000
1000
0000
0000
1000
0000
0001
0000
1000
0000
0001
0000
0010
0000
,
0001
0000
0000
0010
0000
0000
0010
0000
0100
0000
1000
0000
0001
0000
0010
0000
,
0100
0010
0100
1000
0010
1000
0001
1000
,
0110
0000
1001
0000
0001
1000
0001
0010
,
0100
0000
1000
0000
0001
0000
0010
0000
0100
0000
0000
1000
0000
0000
0010
0000
,
0001
0000
0100
0000
0010
0000
0100
0000
0001
0000
0000
0100
0000
0000
1000
0000
,
0010
1000
0010
0100
0010
1000
0001
0010
,
0100
1000
0001
1000
0110
0000
0000
0000
;
