
//----- song ID: thepromiseronskispeedremix -----//
#TITLE:THE PROMISE;
#SUBTITLE:(RONSKI SPEED REMIX);
#ARTIST:RUSCH & MURRAY;
#GENRE:TRANCE;
#CREDIT:B. M'Rey/DWI Extreme T-8;
#MUSIC:The Promise (RONSKI SPEED REMIX).ogg;
#BANNER:The Promise (RONSKI SPEED REMIX).png;
#BACKGROUND:The Promise (RONSKI SPEED REMIX)-bg.png;
#CDTITLE:CDTITLES/QUAKE TRANCE EUPHORIA.png;
#SAMPLESTART:42.419;
#SAMPLELENGTH:12;
#OFFSET:-0.454;
#BPMS:0=70.063,17=140.126;
#BGCHANGES:9.000=MAX-EXTREME/unicorn1.avi=1.000=1=0=1===CrossFade==,
17.000=MAX-EXTREME/space2.avi=1.000=0=0=1,
49.000=MAX-EXTREME/symbols3.avi=1.000=0=0=1,
81.000=MAX-EXTREME/ring6.avi=1.000=0=0=1,
113.000=MAX-EXTREME/cube1.avi=1.000=0=0=1,
145.000=MAX-EXTREME/cube2.avi=1.000=0=0=1,
177.000=MAX-EXTREME/light6.avi=1.000=0=0=1,
193.000=MAX-EXTREME/fish1.avi=1.000=0=0=1,
205.000=MAX-EXTREME/fish1.avi=0.500=0=0=1,
208.375=MAX-EXTREME/fish1.avi=2.000=0=0=1,
208.500=The Promise (RONSKI SPEED REMIX)-bg.png=1.000=1=0=1===CrossFade==
;

//--------------- dance-single - B. M'Rey ----------------
#NOTES:
     dance-single:
     B. M'Rey:
     Beginner:
     1:
     0.129487,0.17634,0.038571,0.019285,0,94,90,4,2,0,0,0.129487,0.17634,0.038571,0.019285,0,94,90,4,2,0,0:
0000
0000
0000
0000
,
0000
0000
0000
0000
,
0000
1000
0000
0000
,
0000
0010
0000
0000
,
0000
0001
0000
0010
,
0000
0100
0000
0010
,
0000
1000
0000
0100
,
0000
1000
0000
0010
,
0000
0100
0000
0001
,
0000
0010
0000
0001
,
0000
1000
0000
0010
,
0000
0100
0000
0010
,
0000
1001
0000
0000
,
0000
0010
0000
0000
,
0000
0100
0000
0000
,
0000
0001
0000
0000
,
0000
1000
0000
0000
,
0000
0010
0000
0000
,
0000
0100
0000
0000
,
0000
0001
0000
0000
,
0000
1001
0000
0001
,
0001
0000
0000
0100
,
0100
0000
0000
0010
,
0010
0000
0000
1000
,
1000
0000
0000
0001
,
0001
0000
0000
0100
,
0100
0000
0000
0010
,
0010
0000
0000
1000
,
1000
0000
0000
0010
,
0010
0000
0000
0100
,
0100
0000
0000
0001
,
0001
0000
0000
0010
,
0010
0000
0000
0100
,
0100
0000
0000
1000
,
1000
0000
0000
0010
,
0010
0000
0000
0000
,
0010
0100
0000
0001
,
1000
0000
0000
0001
,
0100
0000
0000
0100
,
1000
0000
0000
0010
,
0100
0000
0000
0001
,
0010
0000
0000
0100
,
0010
0000
0000
1000
,
0001
0000
0000
0100
,
0010
1001
0000
0100
,
0000
1000
0000
0010
,
0000
0100
0000
0001
,
0000
0010
0000
0001
,
0000
0100
0000
0010
,
0000
1000
0000
0100
,
0000
1000
0000
0010
,
0000
2002
0000
0000
,
0000
3003
0000
0000
;

//--------------- dance-single - DWI Extreme T-8 ----------------
#NOTES:
     dance-single:
     DWI Extreme T-8:
     Easy:
     4:
     0.268616,0.253119,0.019285,0.134997,0,195,193,2,14,0,0,0.268616,0.253119,0.019285,0.134997,0,195,193,2,14,0,0:
0000
0000
0000
0000
,
0000
0000
0000
0000
,
0000
2000
3001
1000
,
0100
0020
0031
0100
,
0001
1000
0100
1000
,
0100
1000
0100
1000
,
0100
0001
0010
0001
,
0010
0001
0010
0001
,
0010
0100
1000
0100
,
0010
0100
1000
0010
,
0100
0001
0010
0100
,
0010
0001
0010
0100
,
1000
0010
1000
0001
,
0100
0001
1000
0100
,
1000
0010
1000
0001
,
0100
0001
0010
0001
,
1000
0010
1000
0001
,
1000
0001
0100
0010
,
1000
0100
0100
0100
,
0100
0020
0000
0000
,
0030
1001
1000
0001
,
0100
0010
1000
0001
,
0010
0100
1000
0010
,
0100
0001
1000
0010
,
0100
0001
1000
0010
,
1000
0001
0100
1000
,
0100
0001
1000
0100
,
0010
0001
1000
0010
,
0100
0010
0010
1000
,
1000
0001
0010
0100
,
1000
0001
0001
1000
,
1000
0010
1000
0001
,
1000
0100
0100
0001
,
0001
0010
1000
0001
,
0010
1000
1000
0001
,
0001
0200
0000
0010
,
0310
1000
0002
0013
,
0100
1000
0020
0130
,
0001
1000
0200
0310
,
0001
1000
0002
0013
,
0100
0010
0200
1300
,
0100
0010
0002
1003
,
0010
0100
0020
1030
,
0001
0100
0002
1003
,
0100
1001
1000
0001
,
1000
0010
1000
0001
,
2000
3001
0010
0001
,
1000
0001
0100
0001
,
0010
0100
1000
0010
,
0001
0010
1000
0100
,
0001
0100
1000
0001
,
1000
0200
0000
0000
,
0000
0000
0300
0000
;

//--------------- dance-single - DWI Extreme T-8 ----------------
#NOTES:
     dance-single:
     DWI Extreme T-8:
     Medium:
     6:
     0.398103,0.607487,0,0.163925,0.231423,289,289,0,17,0,0,0.398103,0.607487,0,0.163925,0.231423,289,289,0,17,0,0:
0000
0000
0000
0000
,
0000
0000
0000
0000
,
0000
0000
0000
0000
0000
0000
0000
0000
0000
0000
1000
0000
1000
0000
0000
0001
0000
0000
0100
0000
0010
0000
0100
0000
0000
0000
0001
0000
0001
0000
0000
1000
,
0000
0000
0010
0000
0100
0000
0010
0000
0000
0000
1000
0000
0100
0000
0000
1000
0000
0000
0001
0000
0100
0000
0001
0000
0000
0000
1000
0000
0010
0000
0000
1000
,
0000
0001
0010
0001
0000
0000
1000
0000
1000
0000
0000
0010
0000
0000
1000
0000
,
0100
0000
0010
0000
0000
0000
0001
0000
0001
0000
0000
1000
0000
0000
0001
0000
,
0010
0000
0100
0000
0000
0000
0010
0000
0010
0000
0000
0001
0000
0000
1000
0000
,
0100
0000
0010
0000
0000
0000
0100
0000
0100
0000
0000
1000
0000
0000
0001
0000
,
0010
0000
0100
0000
0000
0000
1000
0000
1000
0000
0000
0001
0000
0000
1000
0000
,
0001
0000
0100
0000
0000
0000
0001
0000
0001
0000
0000
1000
0000
0000
0010
0000
,
0100
0000
0001
0000
0000
0000
0010
0000
0010
0000
0000
0001
0000
0000
1000
0000
,
0001
0000
0100
0000
0000
0000
0010
0000
0010
0000
0000
1000
0000
0000
0001
0000
,
1000
0100
0020
0000
0031
0000
0002
0000
,
0103
1000
0100
0010
,
0001
0200
0310
0020
,
1030
0001
0100
0010
,
1000
0100
0010
0001
,
0010
0100
1000
0001
,
0100
0000
0001
1000
0001
1000
0010
1000
,
0010
1000
0200
0000
0010
0000
0010
0000
,
0310
0000
0000
0000
0000
0000
0001
0000
0100
0000
0000
0001
0000
0000
0010
0000
,
0100
0000
1000
0000
0000
0000
0010
0000
1000
0000
0000
0010
0000
0000
0100
0000
,
0001
0000
0010
0000
0000
0000
0100
0000
1000
0000
0000
0100
0000
0000
0010
0000
,
0001
0000
0100
0000
0000
0000
0001
0000
0010
0000
0000
0001
0000
0000
1000
0000
,
0001
0000
0100
0000
0000
0000
0010
0000
0100
0000
0000
0001
0000
0000
1000
0000
,
0001
0000
0010
0000
0000
0000
0100
0000
0010
0000
0000
0001
0000
0000
0100
0000
,
0010
0000
1000
0000
0000
0000
0001
0000
0010
0000
0000
0100
0000
0000
1000
0000
,
0010
0000
0100
0000
0000
0000
0010
0000
1000
0000
0000
0001
0000
0000
0100
0000
,
0001
0000
1000
0000
0000
0000
0001
0000
0010
0000
0000
0010
0000
0000
0001
0000
,
0100
0000
1000
0000
0000
0000
0100
0000
0001
0000
0000
0001
0000
0000
1000
0000
,
0100
0000
0010
0000
0000
0000
0100
0000
1000
0000
0000
1000
0000
0000
0010
0000
,
1000
0000
0100
0000
0000
0000
0010
0000
0001
0000
0000
0001
0000
0000
0100
0000
,
0010
0000
1000
0000
0000
0000
0010
0000
0100
0000
0000
0100
0000
0000
0001
0000
,
1000
0000
0100
0000
0000
0000
0010
0000
0001
0000
0000
0001
0000
0000
1000
0000
,
0010
0000
0100
0000
0000
0000
0001
0000
0100
0000
0000
0100
0000
0000
0001
0000
,
1000
0000
0100
0000
0000
0000
0010
0000
0001
0000
0000
0001
0000
0000
1000
0000
,
0100
0000
0010
0000
0000
0000
0001
0000
0200
0000
0000
0010
0000
0000
0310
0000
,
1000
0000
0100
0000
0000
0000
0010
0000
0002
0000
0000
1000
0000
0000
1003
0000
,
0010
0000
0100
0000
0000
0000
0001
0000
2000
0000
0000
0010
0000
0000
3010
0000
,
0100
0000
0001
0000
0000
0000
0100
0000
0020
0000
0000
1000
0000
0000
1030
0000
,
0100
0000
0010
0000
0000
0000
0001
0000
2000
0000
0000
0100
0000
0000
3100
0000
,
0010
0000
0001
0000
0000
0000
0010
0000
0002
0000
0000
0100
0000
0000
0103
0000
,
0001
0000
1000
0000
0000
0000
0100
0000
0020
0000
0000
0100
0000
0000
0130
0000
,
1000
0000
0010
0000
0000
0000
0100
0000
0002
0000
0000
0010
0000
0000
0013
0000
,
0100
1000
0010
0000
1000
0000
0100
0010
,
0001
0000
1000
0000
0001
0000
0100
0001
,
2000
0000
3010
0000
0100
0000
0001
0010
,
0100
0000
0010
0000
0001
0000
1000
0010
,
0100
0000
0001
0000
1000
0000
0001
0100
,
0010
0001
1000
0010
,
0100
0001
1000
0100
,
0020
0032
1000
0000
,
1000
2000
0000
0000
3003
0000
0000
0000
;

//--------------- dance-single - DWI Extreme T-8 ----------------
#NOTES:
     dance-single:
     DWI Extreme T-8:
     Hard:
     9:
     0.651567,0.683422,0.009643,0.134997,0.597844,473,472,1,14,0,0,0.651567,0.683422,0.009643,0.134997,0.597844,473,472,1,14,0,0:
0000
0000
0000
0000
,
0000
0000
0000
0000
,
0000
0000
0000
0000
0000
0000
0000
0000
0000
0000
0001
0000
0100
0000
0000
0001
0000
0000
1000
0000
0100
0000
0010
0000
0000
0000
1000
0000
0001
0000
0000
1000
,
0000
0000
0010
0000
0100
0000
0001
0000
0000
0000
0010
0000
1000
0000
0000
0010
0000
0000
0100
0000
0001
0000
1000
0000
0000
0000
0010
0000
0100
0000
0000
0010
,
0000
0001
1000
0100
0010
0100
0010
0000
0100
0000
1000
0001
0000
0000
0100
0000
,
0010
0000
0010
0000
1000
0100
1000
0000
0001
0000
0010
0100
0000
0000
1000
0000
,
0001
0000
0001
0000
0100
0010
0100
0000
0001
0000
0010
0100
0000
0000
1000
0000
,
0010
0000
0010
0000
0100
0001
0100
0000
0010
0000
1000
0100
0000
0000
0010
0000
,
0100
0000
0100
0000
1000
0001
1000
0000
0100
0000
0010
0001
0000
0000
1000
0000
,
0001
0000
0001
0000
0010
0100
0010
0000
0001
0000
1000
0100
0000
0000
0010
0000
,
0100
0000
0100
0000
1000
0010
1000
0000
0001
0000
0010
0100
0000
0000
0010
0000
,
0001
0000
0001
0000
0100
0010
0100
0000
0001
0000
1000
0100
0000
0000
0010
0000
,
0100
0000
0100
0000
1001
0000
1000
0000
0010
0000
0100
0001
0000
0000
1000
0000
,
0100
0000
0010
0000
0001
0000
0100
0000
0010
0000
1000
0100
0000
0000
1000
0000
,
0010
0000
0001
0000
0010
0000
1000
0000
0001
0000
0010
0100
0000
0000
0010
0000
,
0001
0000
0100
0000
0010
0000
1000
0000
0100
0000
0010
0001
0000
0000
0010
0000
,
1000
0000
0010
0000
0100
0000
1000
0000
0001
0000
0100
0010
0000
0000
0100
0000
,
0001
0000
0010
0000
0001
0000
0100
0000
0010
0000
1000
0100
0000
0000
0001
0000
,
0100
0000
1000
0000
0001
0100
0001
0100
0001
1000
0001
1000
0010
1000
0010
1000
,
0010
0100
0010
0100
0002
0000
1000
0000
1000
0000
0000
0010
0000
0000
1000
0000
,
1003
0000
0100
0000
0010
0001
0010
0000
0100
0000
1000
0001
0000
0001
0100
0000
,
0010
0000
1000
0000
0100
0010
0100
0000
0010
0000
0001
1000
0000
1000
0100
0000
,
0010
0000
0010
0000
0100
1000
0100
0000
1000
0000
0001
0100
0000
0100
0010
0000
,
1000
0000
1000
0000
0001
0010
0001
0000
1000
0000
0100
0010
0000
0010
0001
0000
,
0100
0000
0100
0000
0010
1000
0010
0000
0100
0000
0010
1000
0000
1000
0001
0000
,
0010
0000
0010
0000
0001
1000
0001
0000
0100
0000
0010
1000
0000
1000
0100
0000
,
0010
0000
0010
0000
0100
1000
0100
0000
0010
0000
0001
0100
0000
0100
0010
0000
,
1000
0000
1000
0000
0010
0100
0010
0000
1000
0000
0100
0010
0000
0010
0001
0000
,
0100
0000
0100
0000
0001
0010
0100
0000
1000
0000
0010
0100
0000
0010
0100
0000
,
0001
0000
0010
0000
0100
0010
0001
0000
1000
0000
0001
0010
0000
0001
0010
0000
,
0100
0000
0001
0000
0100
1000
0010
0000
0100
0000
0001
1000
0000
0001
1000
0000
,
0010
0000
0100
0000
0001
1000
0100
0000
0010
0000
0100
1000
0000
0100
1000
0000
,
0010
0000
0001
0000
0010
0100
0001
0000
1000
0000
0001
0100
0000
0010
0100
0000
,
1000
0000
0100
0000
0001
1000
0010
0000
1000
0000
0001
0010
0000
0100
0010
0000
,
0100
0000
1000
0000
0010
0100
0001
0000
1000
0000
0100
0010
0000
0001
0010
0000
,
0100
0000
1000
0000
0010
0100
0010
0100
0010
1000
0010
1000
0001
1000
0001
1000
,
0001
0010
0001
0010
0100
1000
0001
0000
0200
0000
0310
1000
0000
1000
0100
0000
,
0010
0000
0001
0000
1000
0100
0010
0000
0002
0000
1003
0010
0000
0010
0100
0000
,
0001
0000
0010
0000
0100
1000
0010
0000
0200
0000
0301
0010
0000
0010
0100
0000
,
0010
0000
0001
0000
1000
0010
0100
0000
0020
0000
1030
0001
0000
0001
0010
0000
,
0100
0000
1000
0000
0001
0010
0100
0000
0020
0000
0031
1000
0000
1000
0100
0000
,
0010
0000
0001
0000
0100
0001
1000
0000
0002
0000
1003
0100
0000
0100
0010
0000
,
0001
0000
1000
0000
0010
1000
0001
0000
0200
0000
0310
1000
0000
1000
0100
0000
,
0001
0000
0100
0000
0010
0001
1000
0000
0200
0000
1300
0010
0000
0010
0100
0000
,
0001
1000
0001
0100
0001
1000
0001
0010
,
0100
1000
0010
0100
0001
0010
0100
0010
,
0002
1000
1003
0100
0010
0001
1000
0010
,
0100
0010
1000
0001
0100
0001
1000
0010
,
0200
0000
0301
0010
0100
1000
0010
0001
,
0010
1000
0001
0100
0010
1000
0100
0010
,
0002
0000
1003
0010
0100
0001
1000
0100
,
0010
0001
0200
0000
0010
0000
0001
0000
,
0010
0020
0000
0000
0330
0000
0000
0000
;

//--------------- dance-single - B. M'Rey ----------------
#NOTES:
     dance-single:
     B. M'Rey:
     Challenge:
     11:
     0,0,0,0,0:
0000
0000
0000
0000
,
0000
0000
0000
0000
,
0000
0000
0000
0000
0000
0000
0000
0000
0001
0000
1000
0000
0001
0000
0000
1000
0000
0000
0010
0000
0100
0000
1000
0000
0100
0000
0010
0000
0001
0000
0000
0100
,
0000
0000
1000
0000
0001
0000
1000
0000
0010
0000
0100
0000
0010
0000
0000
0100
0000
0000
0010
0000
0001
0000
0100
0000
0010
0000
0100
0000
0001
0000
0000
0010
,
0000
1000
0100
1000
0001
0010
0001
0000
0100
0000
1000
0100
0000
0100
0010
0000
,
0100
0000
0010
0000
0001
0100
0001
0000
0001
0000
0100
0001
0000
0001
0010
0000
,
0100
0000
0010
0000
0001
0100
0001
0000
0010
0000
0100
0010
0000
0010
0100
0000
,
0001
0000
0010
0000
0001
0100
0001
0000
0010
0000
0100
0010
0000
0010
1000
0000
,
0100
0000
1000
0000
0001
0100
0001
0000
0010
0000
1000
0001
0000
0001
1000
0000
,
0010
0000
0100
0000
0010
0100
0010
0000
0010
0000
1000
0100
0000
0100
1000
0000
,
0010
0000
1000
0000
0001
0010
0001
0000
0001
0000
0100
0001
0000
0001
1000
0000
,
0010
0000
0100
0000
0001
0010
0001
0000
0001
0000
1000
0010
0000
0010
0100
0000
,
0010
0000
0100
0000
0001
1000
0001
1000
0001
0000
0010
1000
0000
1000
0010
0000
,
0001
0010
0001
0000
0001
1000
0010
1000
0010
0000
0010
0100
0000
0100
0001
0000
,
0001
0010
0100
0000
0100
1000
0100
1000
0001
0000
0001
0010
0000
0100
0010
0000
,
0010
0100
0001
0000
0001
0010
0001
0010
0100
0000
0100
1000
0000
1000
0001
0000
,
0001
1000
0100
0000
0100
1000
0001
0100
0001
0000
0001
0010
0100
0010
0100
0010
,
0001
0000
0001
1000
0001
0010
0100
0010
0100
0000
0100
0010
0001
1000
0001
1000
,
0001
0000
0001
0010
0001
1000
0001
0010
0100
1000
0100
0010
0100
0010
0001
1000
,
0001
1000
0001
0010
0002
0000
0000
0000
2003
0000
0000
0000
3002
0000
0000
0000
,
2003
0000
0000
0000
3010
1000
0010
1000
0010
1000
0001
1000
0001
0010
0001
0010
,
0001
0010
0001
0100
0010
0100
0010
0100
0010
0100
0001
0100
0001
0010
0001
0010
,
0001
0010
0001
1000
0010
1000
0010
1000
0010
1000
0100
1000
0100
0010
0100
0010
,
0100
0010
0100
1000
0001
0100
0001
0100
0001
0100
0001
0010
0001
0010
0100
0010
,
0001
0010
0001
0010
0001
1000
0100
1000
0001
0000
0001
1000
0000
1000
0100
0000
,
0100
0010
0100
0000
0100
1000
0001
1000
0001
0000
0010
1000
0000
1000
0010
0000
,
0010
0100
0010
0000
0001
0100
0001
0100
0001
0000
0001
0010
0000
0010
0100
0000
,
0100
0010
0100
0000
0010
0100
0010
0100
0010
0000
0001
0010
0000
0100
0001
0000
,
0001
0100
0001
0000
0010
0100
0001
0100
0001
0100
0001
0010
0001
0010
0001
0010
,
0100
0010
0100
0010
0100
1000
0100
1000
0100
1000
0001
1000
0001
1000
0001
0010
,
0100
0010
0100
0010
0100
0010
0001
0010
0001
1000
0010
1000
0010
1000
0010
1000
,
0100
1000
0100
0010
0100
1000
0100
1000
0100
1000
0001
1000
0010
1000
0100
0010
,
0100
0010
0100
0010
0001
0010
0001
1000
0100
0000
0100
1000
0000
1000
0010
0000
,
0010
0100
0010
0000
0010
1000
0010
1000
0100
0000
0100
1000
0000
1000
0010
0000
,
0010
0100
0010
0000
0010
1000
0010
1000
0001
0000
0001
1000
0010
1000
0010
0100
,
0010
0000
0001
1000
0010
0100
0010
0100
0010
0000
0010
1000
0010
1000
0001
1000
,
0001
0000
0001
1000
0010
0100
0010
0100
0001
0100
0001
0100
0010
0100
0001
1000
,
0001
0100
0010
0100
0010
1000
0010
1000
0010
1000
0010
0100
0001
0100
0001
1000
,
0001
0100
0001
0100
0001
1000
0010
1000
0010
1000
0010
1000
0100
1000
0100
0010
,
0100
0010
0100
0010
0001
1000
0010
0100
0001
0100
0001
0100
0001
0100
0010
0100
,
0010
1000
0010
1000
0010
1000
0001
1000
0100
0000
0001
0100
0000
0010
0001
0000
,
0001
0010
0001
0000
0100
0010
0100
0010
0001
0000
0001
0010
0000
0010
0100
0000
,
0001
1000
0100
0000
0010
1000
0001
1000
0100
0000
0100
0010
0000
0010
0100
0000
,
0001
1000
0001
0000
0001
0100
0001
0100
0001
0000
0010
0100
0000
0100
0001
0000
,
0100
1000
0100
0000
0110
0000
0010
0100
0010
0000
0010
0000
0100
0000
1000
0010
,
1000
0000
1000
0000
0001
0000
1000
0010
1000
0000
0100
0000
0010
0000
1000
0000
,
0002
0000
0000
0000
0103
0000
0010
0100
0010
0000
0010
0000
0001
0000
1000
0100
,
1000
0000
0010
0000
0100
0000
0010
0001
0010
0000
1000
0000
0010
0000
0100
0000
,
0020
0000
0000
0000
0031
0000
0100
0010
0100
0000
1000
0000
0100
0000
0010
0001
,
0010
0000
0100
0000
0010
0000
1000
0100
1000
0000
0010
0000
0100
0000
1000
0000
,
0200
0000
0000
0000
0301
0000
0010
0100
0010
0000
1000
0000
0100
0000
0010
0001
,
0010
0010
0200
0000
0302
0000
0023
0000
,
0230
2000
0000
0000
3300
0000
0000
0000
;

//--------------- dance-double - B. M'Rey ----------------
#NOTES:
     dance-double:
     B. M'Rey:
     Easy:
     3:
     0,0,0,0,0:
00000000
00000000
00000000
00000000
,
00000000
00000000
00000000
00000000
,
00000000
00010000
00000000
00001000
,
00100000
00010000
00000000
01000000
,
00001000
00010000
00000000
00000100
,
00000000
00001000
00000000
00100000
,
00000000
00010000
00000000
01000000
,
00000000
00100000
00000000
10000000
,
00000000
01000000
00100000
00001000
,
00000000
00010000
00000100
00000010
,
00000000
00010000
00001000
00000100
,
00000000
00010000
00001000
00000010
,
00000000
00001100
00000010
00010000
,
00001000
00010000
00000100
00000010
,
00000001
00000010
00000100
00001000
,
00000001
00001000
00000100
00000010
,
00001000
00000000
00000001
00001000
00000001
00000000
00000100
00000000
,
00001000
00000000
00000010
00001000
00000010
00000000
00010000
00000000
,
00001000
00000000
00001000
00100000
00001000
00000000
01000000
00000000
,
00010000
00020000
00000000
00000000
,
00030000
01000000
10000000
01000000
,
00100000
01000000
10000000
00010000
,
01000000
00001000
00010000
00000010
,
00010000
00000100
00010000
00001000
,
00100000
00000000
00001000
00010000
00001000
00000000
00100000
00000000
,
00010000
00000000
00100000
10000000
00100000
00000000
00100000
00000000
,
01000000
00000000
00010000
10000000
00010000
00000000
01000000
00000000
,
10000000
00000000
00010000
01000000
00010000
00000000
00100000
00000000
,
01000000
00001000
00010000
00000100
,
00000010
00000100
00000010
00000001
,
00000100
00000001
00000100
00000010
,
00001000
00000100
00010000
00001000
,
01000000
00000000
00001000
00010000
00001000
00000000
00001000
00000000
,
00010000
00000000
00001000
01000000
00001000
00000000
00010000
00000000
,
00000100
00000000
00010000
00000100
00010000
00000000
00010000
00000000
,
10000000
02000000
00000000
00000000
,
03000000
01000000
00100000
00001000
,
00100000
01000000
00100000
00010000
,
10000000
00010000
10000000
00010000
,
01000000
00100000
01000000
00001000
,
00010000
00000000
00000010
00010000
00000010
00000000
00000010
00000000
,
00001000
00000000
00000001
00001000
00000001
00000000
00000100
00000000
,
00001000
00000000
00000100
00000010
00000100
00000000
00000100
00000000
,
00001000
00000000
00000001
00000100
00000001
00000000
00000010
00000000
,
00001000
00000010
00001000
00000010
,
00010000
00001000
00100000
00001000
,
00020000
00030000
01000000
00001000
,
00010000
00001000
00100000
00010000
,
00100000
00000000
01000000
10000000
,
00100000
00010000
01000000
00001000
,
01000000
00000000
00010000
00001000
,
00100000
00020200
00000000
00000000
,
00000000
00030300
00000000
00000000
;

//--------------- dance-double - B. M'Rey ----------------
#NOTES:
     dance-double:
     B. M'Rey:
     Medium:
     5:
     0,0,0,0,0:
00000000
00000000
00000000
00000000
,
00000000
00000000
00000000
00000000
,
00000000
00010000
00001000
01000000
,
00001000
00100000
01000000
10000000
,
00010000
00000000
00010000
00100000
00010000
00000000
00001000
00000000
,
00100000
00000000
01000000
00100000
01000000
00000000
01000000
00000000
,
10000000
00000000
00010000
10000000
00010000
00000000
00100000
00000000
,
01000000
00000000
00001000
01000000
00001000
00000000
00010000
00000000
,
00000100
00000000
00000010
00010000
00000010
00000000
00000100
00000000
,
00001000
00000000
00000100
00000010
00000100
00000000
00000100
00000000
,
00010000
00000000
00001000
01000000
00001000
00000000
00001000
00000000
,
00010000
00000000
00001000
00010000
00001000
00000000
00000010
00000000
,
00001000
00000000
00000010
00001000
00000010
00001000
00000000
00010000
,
00000000
00000100
00000000
00001000
00000001
00001000
00000000
00000100
,
00000000
00001000
00000000
00000010
00010000
00001000
00000000
00100000
,
00000000
00010000
10000000
00100000
10000000
00010000
00000000
01000000
,
00000000
00010000
00000000
01000000
10000000
00000000
01000000
00010000
,
00000000
01000000
00001000
00000000
00010000
00000100
00000000
00000100
,
00010000
00000000
00000010
00000100
00000001
00000100
00000010
00010000
,
00001000
00100000
00022000
00000000
00000000
00000000
00000000
00000000
,
00000000
00000000
00033000
00000000
00010000
00000000
00000100
00000000
00010000
00000000
00000000
00000100
00000000
00000000
00001000
00000000
,
00000010
00000000
00000100
00000000
00000000
00000000
00000001
00000000
00000100
00000000
00000000
00000001
00000000
00000000
00001000
00000000
,
00000010
00000000
00010000
00000000
00000000
00000000
00001000
00000000
00100000
00000000
00000000
00001000
00000000
00000000
01000000
00000000
,
00100000
00000000
10000000
00000000
00000000
00000000
00100000
00000000
01000000
00000000
00000000
00100000
00000000
00000000
10000000
00000000
,
00100000
00000000
01000000
00000000
00000000
00000000
00010000
00000000
01000000
00000000
00000000
00001000
00000000
00000000
00010000
00000000
,
00001000
00000000
00100000
00000000
00000000
00000000
01000000
00000000
00000000
00000000
00000000
00010000
00000000
00000000
01000000
00000000
,
00100000
00000000
10000000
00000000
00000000
00000000
00010000
00000000
00000000
00000000
00000000
01000000
00000000
00000000
00100000
00000000
,
00001000
00000000
00010000
00000000
00000000
00000000
00001000
00000000
00000000
00000000
00000000
00000100
00000000
00000000
00010000
00000000
,
00000100
00000000
00001000
00000000
00000010
00000000
00000001
00000000
00000010
00000000
00000000
00000010
00000000
00000000
00000001
00000000
,
00000100
00000000
00001000
00000000
00000000
00000000
00000100
00000000
00000001
00000000
00000000
00000001
00000000
00000000
00001000
00000000
,
00000010
00000000
00000100
00000000
00000000
00000000
00000010
00000000
00010000
00000000
00000000
00010000
00000000
00000000
00001000
00000000
,
00010000
00000000
00000010
00000000
00000000
00000000
00001000
00000000
00000001
00000000
00000000
00000001
00000000
00000000
00000010
00000000
,
00000100
00000000
00001000
00000000
00000000
00000000
00000100
00000000
00010000
00000000
00000000
00010000
00000000
00000000
00001000
00000000
,
01000000
00000000
00010000
00000000
00000000
00000000
00100000
00000000
00000000
00000000
00000000
00001000
00000000
00000000
01000000
00000000
,
00100000
00000000
10000000
00000000
00000000
00000000
00010000
00000000
00000000
00000000
00000000
10000000
00000000
00000000
00010000
00000000
,
00100000
00001000
00000000
01000000
00000000
00010000
00000000
00100000
,
00000000
00000000
00001000
00000000
00010000
00000000
01000000
00000000
00001000
00000000
00000000
00010000
00000000
00000000
00010000
00000000
,
00000100
00000000
00001000
00000000
00000000
00000000
00000010
00000000
00000100
00000000
00000000
00001000
00000000
00000000
00000010
00000000
,
00000001
00000000
00001000
00000000
00000000
00000000
00001000
00000000
00000010
00000000
00000000
00010000
00000000
00000000
00000100
00000000
,
00000001
00000000
00001000
00000000
00000000
00000000
00001000
00000000
00000010
00000000
00000000
00001000
00000000
00000000
00010000
00000000
,
00000100
00000000
00010000
00000000
00000000
00000000
00000010
00000000
00000100
00000000
00000000
00001000
00000000
00000000
00000100
00000000
,
00000001
00000000
00000100
00000000
00000000
00000000
00001000
00000000
00000100
00000000
00000000
00000001
00000000
00000000
00000100
00000000
,
00000001
00000000
00000100
00000000
00000000
00000000
00000001
00000000
00000100
00000000
00000000
00001000
00000000
00000000
00001000
00000000
,
00000001
00000000
00001000
00000000
00000000
00000000
00000001
00000000
00001000
00000000
00000000
00000100
00000000
00000000
00010000
00000000
,
00001000
00000000
00001000
00000000
01000000
00000000
00001000
00100000
,
01000000
00000000
01000000
00000000
10000000
00000000
00010000
10000000
,
00010000
00000000
01000000
00000000
00100000
00000000
00100000
10000000
,
00100000
00000000
01000000
00000000
00010000
00000000
01000000
10000000
,
00010000
00000000
00010000
00000000
00100000
00000000
01000000
00100000
,
01000000
00000000
10000000
00000000
00010000
00000000
00010000
00000010
,
00010000
00000000
00001000
00000000
01000000
00000000
00001000
00100000
,
01000000
00020000
10000000
00000000
,
10000000
20000000
00000000
00000000
30030000
00000000
00000000
00000000
;

//--------------- dance-double - B. M'Rey ----------------
#NOTES:
     dance-double:
     B. M'Rey:
     Hard:
     9:
     0,0,0,0,0:
00000000
00000000
00000000
00000000
,
00000000
00000000
00000000
00000000
,
00000000
00000000
00000000
00000000
00000000
00000000
00000000
00000000
00000000
00000000
00001000
00000000
00010000
00000000
00000000
00000100
00000000
00000000
00000100
00000000
00010000
00000000
00001000
00000000
00000000
00000000
00001000
00000000
00000010
00000000
00000000
00010000
,
00000000
00000000
00000010
00000000
00010000
00000000
00000100
00000000
00000000
00000000
00000100
00000000
00001000
00000000
00000000
00000100
00000000
00000000
00000010
00000000
00000001
00000000
00000010
00000000
00000000
00000000
00000010
00000000
00010000
00000000
00000000
00001000
,
00000000
00001000
00100000
00001000
01000000
00000000
00010000
00000000
00100000
00000000
10000000
00100000
00000000
00000000
01000000
00000000
,
00010000
00000000
10000000
00000000
00010000
00000000
10000000
00000000
00010000
00000000
01000000
00100000
00000000
00000000
01000000
00000000
,
00010000
00000000
00100000
00000000
00001000
00000000
01000000
00000000
00001000
00000000
01000000
00001000
00000000
00000000
00010000
00000000
,
00000010
00000000
00000100
00000000
00000010
00000000
00000100
00000000
00000010
00000000
00001000
00000001
00000000
00000000
00001000
00000000
,
00000100
00000000
00010000
00000000
00000010
00000000
00010000
00000000
00000010
00000000
00010000
00001000
00000000
00000000
01000000
00000000
,
00001000
00000000
01000000
00000000
00001000
00000000
00100000
00000000
00010000
00000000
10000000
00010000
00000000
00000000
10000000
00000000
,
00010000
00000000
00100000
00000000
01000000
00000000
00100000
00000000
00001000
00000000
00100000
00001000
00000000
00000000
00010000
00000000
,
00000100
00000000
00010000
00000000
00000100
00000000
00010000
00000000
00001000
00000000
00100000
00001000
00000000
00000000
01000000
00000000
,
00001000
00000000
01000000
00000000
00010000
01000000
00010000
00000000
00020000
00000000
10000000
00000000
00000000
00000000
10000000
00000000
,
00000000
10030000
00010000
01000000
00002000
00100000
00000000
00100000
,
00000000
00013000
00000100
00001000
00000002
00000100
00000000
00000010
,
00000000
00000000
00000010
00000003
00000100
00000000
00001000
00000000
00000020
00000000
00001000
00000000
00000000
00000000
00001000
00000000
,
00000000
00000130
00000001
00001000
00000100
00000000
00000100
00001000
,
00000100
00000000
00000001
00000100
00000001
00000000
00000001
00000010
,
00000100
00000000
00000000
00000000
00000010
00000100
00000001
00001000
00000001
00000010
00000001
00000010
00000100
00000010
00000001
00001000
,
00000001
00001000
00000001
00000100
00000020
00000000
00000100
00000000
00001000
00000000
00000000
00001000
00000000
00000000
00010000
00000000
,
00010000
00000000
00000030
00000000
00000010
00000000
00010000
00000000
00000010
00000000
00010000
00000100
00000000
00000100
00010000
00000000
,
00001000
00000000
01000000
00000000
00001000
00000000
00100000
00000000
00001000
00000000
00100000
00010000
00000000
00010000
01000000
00000000
,
00010000
00000000
00100000
00000000
00010000
00000000
01000000
00000000
00001000
00000000
01000000
00010000
00000000
00010000
01000000
00000000
,
00010000
00000000
00100000
00000000
00010000
00000000
01000000
00000000
00100000
00000000
01000000
00001000
00000000
00001000
01000000
00000000
,
00001000
00000000
00100000
00000000
00001000
00000000
00100000
00000000
00010000
00000000
10000000
00010000
00000000
00010000
10000000
00000000
,
00010000
00000000
01001000
00000000
00000000
00000000
01001000
00000000
00001000
00000000
01000000
00010000
00000000
00010000
10000000
00000000
,
00010000
00000000
10010000
00000000
00000000
00000000
00101000
00000000
00001000
00000000
00100000
00001000
00000000
00001000
00100000
00000000
,
00010000
00000000
10010000
00000000
00000000
00000000
01010000
00000000
00010000
00000000
01000000
00001000
00000000
00001000
01000000
00000000
,
00001000
00000000
00100000
00000000
00001000
00100000
00001000
00000000
01000000
00000000
00100000
00000000
00010000
01000000
00010000
00000000
,
00010000
00000000
10000000
00000000
01000000
10000000
01000000
00000000
00010000
00000000
10000000
00000000
00010000
01000000
00010000
00000000
,
00010000
00000000
01000000
00000000
00100000
01000000
00100000
00000000
00001000
00000000
00100000
00000000
00001000
00100000
00001000
00000000
,
00001000
00000000
01000000
00000000
00100000
01000000
00100000
00000000
00100000
00000000
01000000
00000000
00010000
00100000
00010000
00000000
,
00010000
00000000
00100000
00000000
10000000
00100000
01000000
00000000
00001000
00000000
01000000
00100000
00000000
10000000
00100000
00000000
,
00010000
00000000
00100000
00000000
10000000
01000000
00100000
00000000
01000000
00000000
10000000
00010000
00000000
01000000
00010000
00000000
,
01000000
00000000
00001000
00000000
00010000
00000100
00001000
00000000
00000001
00000000
00000010
00000100
00000000
00001000
00000100
00000000
,
00010000
00000000
00000010
00000000
00001000
00000100
00001000
00000100
00001000
00000001
00001000
00000001
00000010
00000001
00000010
00000001
,
00000010
00000100
00000010
00000100
00001000
00000001
00000010
00000000
00000200
00000000
00001300
00000010
00000000
00000010
00010000
00000000
,
00000100
00000000
00001000
00000000
00000001
00000010
00000100
00000000
00002000
00000000
00003010
00010000
00000000
00010000
00000100
00000000
,
00001000
00000000
00000010
00000000
00010000
00000100
00001000
00000000
00000002
00000000
00000013
00000100
00000000
00000100
00010000
00000000
,
00000100
00000000
00001000
00000000
00000001
00000100
00000010
00000000
00000200
00000000
00000301
00001000
00000000
00001000
00000100
00000000
,
00010000
00000000
00000010
00000000
00001000
00000100
00010000
00000000
00000200
00000000
00001300
00000010
00000000
00000010
00010000
00000000
,
00000100
00000000
00001000
00000000
00000001
00001000
00000100
00000000
00002000
00000000
00003100
00010000
00000000
00010000
00001000
00000000
,
01000000
00000000
00010000
00000000
10000000
00010000
01000000
00000000
00200000
00000000
10300000
00010000
00000000
00010000
00100000
00000000
,
10000000
00000000
00100000
00000000
00010000
01000000
00001000
00000000
00020000
00000000
00031000
00100000
00000000
00100000
00010000
00000000
,
01000000
00001000
00001000
00010000
00001000
01000000
00001000
01000000
,
00010000
01000000
00010000
10000000
00010000
10000000
00100000
10000000
,
00200000
00000000
01300000
00000000
00001000
00100000
00010000
00100000
,
00010000
01000000
00010000
01000000
00001000
01000000
00001000
00010000
,
00002000
00000000
00003100
00000000
00000100
00010000
00000100
00010000
,
00000010
00001000
00000010
00001000
00000010
00010000
00000100
00010000
,
00000200
00000000
00001300
00000000
00000010
00001000
00000100
00001000
,
00000100
00001000
00000200
00000000
00001000
00000000
00000001
00000000
,
00000010
00000020
00000000
00000000
00000330
00000000
00000000
00000000
;

//--------------- dance-double - B. M'Rey ----------------
#NOTES:
     dance-double:
     B. M'Rey:
     Challenge:
     11:
     0,0,0,0,0:
00000000
00000000
00000000
00000000
,
00000000
00000000
00000000
00000000
,
00000000
00000000
00000000
00000000
00000000
00000000
00000000
00000000
00001000
00000000
00010000
00000000
00001000
00000000
00000000
00010000
00000000
00000000
00000100
00000000
00001000
00000000
00010000
00000000
00000010
00000000
00001000
00000000
00000001
00000000
00000000
00000100
,
00000000
00000000
00000010
00000000
00000001
00000000
00000010
00000000
00000100
00000000
00010000
00000000
00000100
00000000
00000000
00010000
00000000
00000000
00000100
00000000
00001000
00000000
00010000
00000000
00000010
00000000
00010000
00000000
00001000
00000000
00000000
01000000
,
00000000
00100000
01000000
00100000
01000000
10000000
01000000
00000000
10000000
00000000
00100000
01000000
00000000
00000000
00001000
00000000
,
00100000
00000000
00100000
00000000
00010000
10000000
00010000
00000000
01000000
00000000
00001000
00010000
00000000
00000000
00000010
00000000
,
00001000
00000000
00001000
00000000
00000100
00010000
00000100
00000000
00000010
00000000
00000001
00001000
00000000
00000000
00000100
00000000
,
00010000
00000000
00010000
00000000
00000010
00001000
00000010
00000000
00010000
00000000
00001000
01000000
00000000
00000000
00100000
00000000
,
01000000
00000000
01000000
00000000
00010000
10000000
00010000
00000000
00100000
00000000
00001000
00010000
00000000
00000000
00000100
00000000
,
00010000
00000000
00010000
00000000
00001000
00100000
00001000
00000000
00010000
00000000
00000100
00001000
00000000
00000000
00000001
00000000
,
00001000
00000000
00001000
00000000
00000100
00010000
00000100
00000000
00000010
00000000
00000001
00001000
00000000
00000000
00000001
00000000
,
00000100
00000000
00000100
00000000
00000010
00001000
00000010
00000000
00010000
00000000
00001000
01000000
00000000
00000000
00010000
00000000
,
01000000
00000000
01000000
00000000
10100000
00000000
00100000
00000000
01000000
00000000
00001000
00100000
00000000
00000000
00010000
00000000
,
01000000
00000000
00100000
00000000
10000000
00000000
00010000
00000000
00100000
00000000
00001000
01000000
00000000
00000000
00001000
00000000
,
00010000
00000000
00100000
00000000
00010000
00000000
00001000
00000000
01000000
00000000
00010000
10000000
00000000
00000000
00010000
00000000
,
01000000
00000000
00001000
00000000
00100000
00000000
00010000
00000000
01000000
00000000
00001000
00010000
00000000
00000000
00001000
00000000
,
00000010
00000000
00001000
00000000
00010000
00000000
00000100
00000000
00001000
00000000
00000001
00000010
00000000
00000000
00000001
00000000
,
00000100
00000000
00000010
00000000
00000100
00000000
00000001
00000000
00001000
00000000
00000100
00000010
00000000
00000000
00001000
00000000
,
00000010
00000000
00000100
00000000
00001000
00000001
00001000
00000001
00001000
00000100
00001000
00000100
00010000
00000100
00010000
00000100
,
00010000
00001000
00010000
00001000
02000000
00000000
00100000
00000000
00100000
00000000
00000000
00001000
00000000
00000000
00010000
00000000
,
03010000
00000000
00100000
00000000
00100000
01000000
00100000
01000000
00100000
01000000
00010000
01000000
00010000
10000000
00010000
10000000
,
00010000
10000000
00010000
01000000
00001000
01000000
00001000
01000000
00001000
01000000
00010000
01000000
00010000
10000000
00010000
10000000
,
00010000
10000000
00010000
00100000
00001000
00100000
00001000
00100000
00001000
00100000
00010000
00100000
00010000
10000000
00010000
10000000
,
00010000
10000000
00010000
01000000
00001000
00010000
00001000
00010000
00001000
00010000
00001000
00100000
00001000
00100000
00010000
00100000
,
00001000
00100000
00001000
00100000
00001000
00010000
00000010
00000000
00001000
00000000
00000010
00000100
00000000
00000100
00000001
00000000
,
00000010
00000000
00000010
00000000
00000001
00000100
00000001
00000000
00001000
00000000
00000100
00000010
00000000
00000010
00000001
00000000
,
00000100
00000000
00000100
00000000
00000001
00001000
00000001
00000000
00000100
00000000
00000010
00001000
00000000
00001000
00000100
00000000
,
00000010
00000000
00000010
00000000
00000100
00010000
00000100
00000000
00001000
00000000
00000010
00010000
00000000
00010000
00001000
00000000
,
01000000
00000000
01000000
00000000
00001000
01000000
00001000
01000000
00001000
01000000
00001000
00010000
00001000
00010000
00001000
00010000
,
00000010
00010000
00000010
00010000
00000010
00001000
00000010
00001000
00000010
00001000
00000001
00001000
00000001
00001000
00000001
00000100
,
00000010
00000100
00000010
00000100
00000010
00000100
00000001
00000100
00000001
00001000
00000100
00001000
00000100
00001000
00000100
00001000
,
00000001
00001000
00000001
00000100
00000001
00001000
00000001
00001000
00000001
00001000
00000010
00001000
00000001
00001000
00000100
00000010
,
00000100
00000010
00000100
00000010
00001000
00000001
00000100
00000000
00000010
00000000
00000100
00000001
00000000
00000001
00000010
00000000
,
00000100
00000000
00000100
00000000
00000010
00000001
00000010
00000000
00000100
00000000
00010000
00001000
00000000
00001000
00100000
00000000
,
01000000
00000000
01000000
00000000
00100000
00010000
00100000
00000000
01000000
00000000
10000000
00100000
00000000
00100000
01000000
00000000
,
00010000
00000000
00010000
00000000
01000000
00100000
01000000
00000000
00010000
00000000
10000000
01000000
00000000
01000000
00100000
00000000
,
00010000
00000000
00010000
00000000
00010000
01000000
00010000
01000000
00100000
01000000
00100000
01000000
00010000
01000000
00001000
00010000
,
00001000
01000000
00010000
01000000
00010000
10000000
00010000
10000000
00010000
10000000
00010000
00100000
00001000
00100000
00001000
00010000
,
00001000
01000000
00001000
01000000
00001000
00010000
00000100
00010000
00000100
00010000
00000100
00010000
00001000
00010000
00001000
00100000
,
00001000
00100000
00001000
00100000
00010000
10000000
00100000
01000000
00010000
01000000
00010000
01000000
00010000
01000000
00100000
01000000
,
00100000
10000000
00100000
10000000
00100000
10000000
00010000
10000000
01000000
00000000
00010000
01000000
00000000
10000000
00010000
00000000
,
00010000
10000000
00010000
00000000
01000000
00100000
01000000
00100000
00010000
00000000
00010000
00100000
00000000
00100000
01000000
00000000
,
00001000
00010000
00000010
00000000
00001000
00010000
00000100
00010000
00001000
00000000
00001000
00000100
00000000
00000100
00001000
00000000
,
00000010
00010000
00000010
00000000
00000010
00000100
00000010
00000100
00000010
00000000
00010000
00001000
00000000
00001000
00000010
00000000
,
00001000
00010000
00001000
00000000
00101000
00000000
00100000
00001000
00100000
00000000
00100000
00000000
00001000
00000000
00010000
00000010
,
00010000
00000000
00010000
00000000
00000100
00000000
00010000
00001000
00010000
00000000
00000100
00000000
00000010
00000000
00001000
00000000
,
00000002
00000000
00000000
00000000
00000103
00000000
00001000
00000100
00001000
00000000
00001000
00000000
00000010
00000000
00010000
00001000
,
00010000
00000000
00000010
00000000
00001000
00000000
00000010
00000001
00000010
00000000
00001000
00000000
00000010
00000000
00000100
00000000
,
00000020
00000000
00000000
00000000
00000031
00000000
00000100
00000010
00000100
00000000
00001000
00000000
00000100
00000000
00000010
00000001
,
00000010
00000000
00001000
00000000
00000010
00000000
00010000
00001000
00010000
00000000
00000010
00000000
00000100
00000000
00001000
00000000
,
00000200
00000000
00000000
00000000
00000310
00000000
00010000
00001000
00010000
00000000
00100000
00000000
00001000
00000000
01000000
00010000
,
01000000
01000000
20000000
00000000
30020000
00000000
02030000
00000000
,
03002000
00020000
00000000
00000000
00033000
00000000
00000000
00000000
;
