#VERSION:0.83;
#TITLE:τ (tau);
#ARTIST:WOOD3N;
#TITLETRANSLIT:T (tau);
#GENRE:TECHNO;
#CREDIT:B. M'Rey;
#MUSIC:T (tau).ogg;
#BANNER:T (tau)-bn.png;
#BACKGROUND:T (tau)-bg.png;
#CDTITLE:./CDTITLES/BOF-TT.png;
#SAMPLESTART:101.058;
#SAMPLELENGTH:15;
#OFFSET:-0.026;
#BPMS:0=155;

//--------------- dance-single - B. M'Rey ----------------
#NOTEDATA:;
#STEPSTYPE:dance-single;
#DESCRIPTION:B. M'Rey;
#CREDIT:B. M'Rey;
#DIFFICULTY:Beginner;
#METER:7;
#RADARVALUES:0,0,0,0,0;
#NOTES:
0000
1001
0000
0100
,
0000
0000
0000
0000
0001
0000
0000
0010
,
0000
0100
0000
0000
,
0000
1000
0000
0000
0100
0000
0000
0010
,
0000
0001
0000
1000
,
0000
0000
0000
0000
0010
0000
0000
0100
,
0000
0010
0000
0000
,
0000
0000
1000
0000
0000
0010
0000
0000
0100
0000
0000
0001
0000
0000
0000
0000
,
0000
1000
0000
0001
,
0000
0010
0000
0100
,
0000
0010
0000
1000
,
0000
0001
0000
0000
,
0000
1000
1000
1000
,
0010
0010
0010
0100
,
0100
0001
0001
0010
,
0010
1000
0000
0000
,
0000
0000
0000
0100
,
1000
0100
1000
0100
,
0000
0001
0010
0001
,
0010
0001
0010
0001
,
0000
0100
0010
0100
,
0010
0100
1000
0100
,
0000
0010
0100
0001
,
0010
1000
0100
0010
,
0000
0000
0001
1000
,
0010
0100
0001
1000
,
0100
0010
0001
1000
,
0100
0010
0001
1000
,
0100
0010
0001
1000
,
0010
0100
0001
0010
,
0100
1000
0010
0100
,
0001
1000
0000
0100
,
0000
1000
0000
0000
,
0000
0000
0000
0000
,
0000
0001
0000
0000
,
0000
0000
0000
0000
,
0000
0100
0000
0000
,
0000
0000
0000
0000
,
0000
0010
0000
0000
,
0000
0000
0000
0000
,
0000
1000
0000
0000
,
0001
1000
0000
0000
,
0010
0100
0000
0000
,
0001
1000
0000
0000
,
0100
0001
0000
0000
,
0010
0100
0000
0000
,
1000
0001
0000
0000
,
0100
0000
0001
0000
,
1000
0000
0000
0000
,
1000
0001
0000
0000
,
0010
0100
0000
0000
,
1000
0001
0000
0000
,
0010
0000
0000
0000
,
1000
0100
0000
0000
,
0001
0010
0000
0000
,
0100
0010
0000
0000
,
1000
0000
0000
0000
,
0000
1001
0000
0000
,
0000
0110
0000
0000
,
0000
0101
0000
0000
,
0000
1001
0000
0000
,
0000
1000
0100
1000
,
0100
1000
0010
1000
,
0010
1000
1000
0100
,
0100
0010
0000
0000
,
0001
1001
0001
1000
,
0100
0010
0001
1000
,
0100
0010
0001
0100
,
0010
1000
0100
0010
,
0001
1001
0001
0100
,
0001
0100
0010
1000
,
0010
1000
0000
0001
,
0000
0000
0100
0000
0000
0001
0000
0000
0100
0000
0000
1000
0000
0000
0000
0000
,
0000
0000
0001
1000
,
0001
1000
0001
1000
,
0010
0100
0010
0100
,
0010
1000
0100
1000
,
0001
1010
0100
1000
,
0100
1000
0100
1000
,
0100
1000
0000
0010
,
0000
0000
0000
0000
0100
0000
0000
0001
0000
0000
0100
0000
0000
0000
0000
0000
,
0000
1001
0000
0100
,
0000
0000
0000
0000
0001
0000
0000
0010
,
0000
0100
0000
0000
,
0000
1000
0000
0000
0100
0000
0000
0010
,
0000
0001
0000
1000
,
0000
0000
0000
0000
0010
0000
0000
0100
,
0000
0010
0000
0000
,
0000
0000
1000
0000
0000
0010
0000
0000
0100
0000
0000
0001
0000
0000
0000
0000
;

//--------------- dance-single - B. M'Rey ----------------
#NOTEDATA:;
#STEPSTYPE:dance-single;
#DESCRIPTION:B. M'Rey;
#CREDIT:B. M'Rey;
#DIFFICULTY:Easy;
#METER:9;
#RADARVALUES:0,0,0,0,0;
#NOTES:
0000
0000
0000
0000
2020
0000
0000
0000
0000
0000
0000
3030
0200
0000
0000
0000
,
0000
0000
0000
0000
0310
0000
0000
0100
,
0000
0000
0002
0000
0000
0003
0100
0000
,
1000
0000
0200
0000
0000
0000
0000
0000
2300
0000
0000
0000
3001
0000
0000
0010
,
0000
0200
0000
0320
,
0000
0000
0000
0000
1030
0000
0000
0001
,
0000
0200
0000
0300
,
0000
0000
0001
0000
0000
0010
0000
0000
0100
0000
0000
2000
0000
0000
0000
0000
,
0000
3001
0100
0110
,
0100
0000
0000
0000
0011
0000
0000
0000
0010
0000
0000
0000
0001
0000
0000
0010
,
0000
0100
0100
0000
1000
0000
0110
0000
,
0100
0110
0100
0000
,
0000
0001
0100
0010
,
1000
0010
1000
0100
,
0010
0000
0001
0100
0001
0100
0001
0010
,
0100
1000
0100
0000
0000
0000
0000
0000
,
1000
0000
0000
0001
,
1000
0001
0100
0010
,
2000
3010
1000
0010
,
0100
0001
0010
0200
,
1300
0000
0001
0010
1000
0000
0010
0000
,
1000
0000
0010
0001
0100
0000
0010
0000
,
0100
0000
0001
0100
1000
0000
0010
0001
,
0100
0000
0000
0000
0010
0000
0000
0100
0000
0000
0010
0000
0000
0100
0000
0000
,
1000
0000
0001
0000
1000
0100
0001
0000
,
0010
0000
0001
0000
0010
0000
0100
0001
,
0010
0000
0001
0000
0100
0000
0010
0100
,
1000
0000
0000
0000
0001
0000
0000
0000
1000
0000
0000
0100
0000
0000
0010
0000
,
0000
1000
0000
0000
0010
0000
0000
0000
0100
0000
0000
0000
0010
0000
0001
0000
,
0100
0000
0001
0000
1000
0000
0100
0001
,
0010
0000
0001
0000
0010
0000
0001
1000
,
0100
0000
0000
0000
0010
0000
0000
1000
0000
0100
0000
0002
0000
0000
0000
0000
,
0000
2003
0000
0000
,
0000
0000
0000
0000
,
0000
3020
0000
0000
,
0000
0000
0000
0000
,
0000
0230
0000
0000
,
0000
0000
0000
0000
,
0000
0302
0000
0000
,
0000
0003
0000
0000
,
0000
0010
1000
0100
,
0010
0100
0010
0100
,
1000
0010
1000
0100
,
0010
0001
0100
0010
,
1000
0100
1000
0100
,
1000
0001
0100
0010
,
1000
0001
0010
0001
,
1000
0010
1000
0001
,
0100
0000
0020
0000
0030
0110
0000
0000
,
1000
0100
1000
0100
,
0010
0000
0000
0000
0001
0000
0000
0100
0000
0000
0010
0000
0000
0000
0000
0000
,
1000
0000
0000
0000
0100
0000
0000
0010
0000
0000
0100
0000
0000
0000
0000
0000
,
1000
0100
0010
0001
,
0100
0010
1000
0010
,
1000
0000
0000
0000
0010
0000
0000
0100
0000
0000
0001
0000
0000
0000
0000
0000
,
0010
0000
0000
0000
0001
0000
0000
0010
0000
0000
0002
0000
0000
0000
0000
0000
,
0000
0003
0000
0000
,
0000
1010
1000
0001
,
0010
1001
1000
0100
,
0010
0011
0010
0100
,
0010
0100
1000
0100
,
0010
0000
0001
1000
0010
0000
0100
0001
,
0010
0000
0001
0010
1000
0000
0001
1000
,
0100
0000
0001
0001
0010
0010
0100
0100
,
0010
0010
0001
0000
1000
0000
0100
0000
,
0010
0000
0100
0000
1000
0100
0010
0000
,
1000
0001
0010
0000
0100
0000
0010
0001
,
1000
0000
0001
0000
0010
0000
0001
0010
,
0100
0000
0001
0000
1000
0000
0100
0001
,
0010
0000
0110
0000
1000
0010
0100
0000
,
1000
0010
0001
0000
1000
0100
0001
0000
,
0100
0000
1001
0000
1000
0001
0100
0000
,
0010
0000
0100
0000
0000
0100
0000
0000
1000
0000
0000
0200
0000
0000
0000
0000
,
0020
0000
0330
0000
0001
0000
0001
1000
,
0001
0000
0010
1000
0010
0000
0010
0000
,
0001
0000
0100
0000
0001
0100
0010
0000
,
0010
0100
0001
0000
0100
1000
0100
0000
,
0010
0000
0101
0000
0001
0100
0010
0000
,
0010
1000
0010
0000
0001
0100
0001
0000
,
0010
0000
0000
0000
1000
0000
0000
0100
0000
0000
0000
0000
0001
0000
0000
0010
,
0000
0000
0000
0000
0100
0000
0000
1000
0000
0000
0002
0000
0000
0000
0000
0000
,
0000
0000
0000
0000
2023
0000
0000
0000
0000
0000
0000
3030
0200
0000
0000
0000
,
0000
0000
0000
0000
0310
0000
0000
0100
,
0000
0000
0002
0000
0000
0003
0100
0000
,
1000
0000
0200
0000
0000
0000
0000
0000
2300
0000
0000
0000
3001
0000
0000
0010
,
0000
0200
0000
0320
,
0000
0000
0000
0000
1030
0000
0000
0001
,
0000
0200
0000
0300
,
0000
0000
0001
0000
0000
0010
0000
0000
0100
0000
0000
2000
0000
0000
0000
0000
,
0000
0000
0000
0000
,
0000
3000
0000
0000
;

//--------------- dance-single - B. M'Rey ----------------
#NOTEDATA:;
#STEPSTYPE:dance-single;
#DESCRIPTION:B. M'Rey;
#CREDIT:B. M'Rey;
#DIFFICULTY:Medium;
#METER:13;
#RADARVALUES:0,0,0,0,0;
#NOTES:
0000
0000
2002
0000
0000
0000
3103
1000
,
0100
1000
0100
1000
0001
0000
0010
0100
,
0000
1000
0020
0000
0000
0030
0001
1000
,
0001
0000
0010
0000
0000
0000
1000
0000
0001
0000
0000
0000
0001
0000
0000
0100
,
0000
0000
0100
0000
0202
0000
0000
0000
0000
0000
0000
0303
0010
0000
1000
0000
,
0100
1000
0100
0010
0001
0000
0010
1000
,
0000
1000
0020
0000
0000
0130
0010
0000
,
0001
0000
1100
0000
0000
0011
0000
0000
1001
0000
0000
0022
0000
0000
0000
0000
,
0000
0000
0000
0033
0110
0000
0000
0000
0001
0000
0010
0000
1100
0000
0000
0000
,
0100
0000
0010
0000
1001
0000
0000
0000
0001
0000
0010
0000
0110
0000
0000
0011
,
0000
0010
0011
0000
0100
1000
0110
0000
,
0001
1000
0110
0000
0001
0000
1000
0000
,
0001
0000
0001
1000
0100
0010
0100
1000
,
0100
1000
0001
1000
0010
1000
0001
0010
,
0100
0010
0001
1000
0001
1000
0001
0100
,
0010
1000
0010
0000
0001
0000
1000
0000
,
0101
0000
1001
0000
0010
1000
0001
0000
,
0001
0100
0001
0000
0010
1000
0010
0000
,
0001
0000
0100
1000
0100
0000
0010
0100
,
0010
0000
0010
1000
0100
0000
0001
0100
,
0010
0100
0001
0100
0001
0100
0001
0100
,
0001
1000
0001
1000
0010
1000
0001
0100
,
0001
0100
0001
0000
0100
0010
0100
0000
,
0010
0000
0100
0000
0001
0000
0000
0010
0000
0000
0100
0000
0010
0000
0010
0000
,
0100
0000
0100
1000
1001
0010
1000
0010
,
0100
0001
0100
0001
0100
0010
0100
0010
,
0100
0010
1000
0010
1000
0010
1000
0001
,
1000
0000
0001
0000
0010
0000
0100
0000
0010
0000
0001
0010
0000
0000
1000
0000
,
0000
0010
0000
0000
0001
0000
1000
0000
0001
0000
1000
0000
0001
0000
1000
0000
,
0010
0100
0010
0100
0010
0100
0010
0100
,
0010
0100
0001
0010
0001
0010
0001
0010
,
0001
0000
0010
0000
0100
0000
0000
1000
0000
0100
0000
0001
0000
0000
0100
0000
,
0010
1000
0200
0000
0000
0000
0000
0000
,
0000
0000
0000
0000
,
0000
0320
0000
0000
,
0000
0000
0000
0000
,
0000
0031
0100
0001
,
2000
0000
0000
0000
,
0000
3100
1000
0001
,
0010
0000
0000
0000
,
0000
0000
0001
0010
0001
0000
0100
0010
,
0100
0000
0001
0100
0001
0000
0100
0010
,
0100
0000
0100
1000
0010
0000
0001
1000
,
0001
0000
0010
1000
0001
0000
0010
0100
,
0010
0000
0100
0010
0001
0000
0010
1000
,
0010
0000
0100
0010
0100
0000
0100
0010
,
0001
0000
0001
0100
0001
0000
0001
0100
,
0010
0000
0001
0100
0010
0000
0100
1000
,
0001
0000
0001
1000
0010
0000
0010
0100
,
0001
0000
0001
0010
0001
0000
0001
1000
,
0010
0010
0010
0001
,
0100
0010
0100
0000
0100
0000
0010
0000
,
0010
0100
0010
0000
0010
1000
0001
0000
,
0001
0100
0001
0000
0001
0010
0100
0000
,
0100
0010
0001
0000
0100
0000
0001
0000
,
0001
0010
0100
0000
0010
0000
0010
0000
,
0002
0003
0000
0000
,
0000
0000
0000
0000
0011
0000
0000
0000
0100
0000
0000
1000
0000
0000
0001
0000
,
0001
0000
0010
0000
0100
0000
0000
0000
1000
0000
0000
1000
0000
0000
0010
0000
,
0001
0000
1000
0000
0001
0000
0000
0000
0001
0000
0000
0100
0000
0000
0100
0000
,
0010
0100
0010
0000
1000
0000
0001
0000
,
0100
0000
0100
1000
0010
1000
0100
0010
,
0001
0010
0001
0100
0010
0100
0001
0100
,
0001
1000
0001
0100
0010
1000
0100
0010
,
0100
0010
0001
0000
0001
0000
0010
0000
,
0002
0000
0013
1000
0010
1000
0010
0100
,
0001
0100
0001
1000
0001
1000
0100
1000
,
0010
0100
0010
0100
0010
1000
0100
1000
,
0100
1000
0001
0100
0001
1000
0001
1000
,
0100
0000
1000
0000
2002
0000
0000
3003
0001
0000
1000
0000
0001
0000
1000
0000
,
0001
0010
0100
0010
0100
0010
0001
1000
,
0010
1000
0200
0000
0310
0001
0010
0100
,
0010
0000
1010
0000
0000
1010
0000
0000
0101
0000
0000
0202
0000
0000
0000
0000
,
0000
0000
0000
0303
0001
0000
0010
0000
0001
0000
0010
0000
0100
0000
0010
0000
,
0001
1000
0100
1000
0100
1000
0100
0010
,
0001
1000
0100
1000
0001
1000
0001
0010
,
0001
0010
0100
0010
0001
1000
0010
1000
,
0010
0000
1000
0000
0220
0000
0000
0330
0001
0000
0010
0000
0001
0000
0010
0000
,
0001
0010
0100
1000
0100
1000
0100
0010
,
0001
0000
0100
0000
1001
0000
0000
1001
0000
0000
0010
0000
0110
0000
0000
0110
,
0000
0000
1000
0000
1010
0000
0000
0110
0000
0000
0202
0000
0000
0000
0000
0000
,
0000
0000
0000
0303
2002
0000
0000
0000
0000
0000
0000
0000
3103
0000
1000
0000
,
0100
1000
0100
1000
0001
0000
0010
0100
,
0000
1000
0020
0000
0000
0030
0001
1000
,
0001
0000
0010
0000
0000
0000
1000
0000
0001
0000
0000
0000
0001
0000
0000
0100
,
0000
0000
0100
0000
0202
0000
0000
0000
0000
0000
0000
0303
0010
0000
1000
0000
,
0100
1000
0100
0010
0001
0000
0010
1000
,
0000
1000
0020
0000
0000
0130
0010
0000
,
0001
0000
1100
0000
0000
0011
0000
0000
1001
0000
0000
0022
0000
0000
0000
0000
,
0000
0000
0000
0000
,
0000
0033
0000
0000
;

//--------------- dance-single - B. M'Rey ----------------
#NOTEDATA:;
#STEPSTYPE:dance-single;
#DESCRIPTION:B. M'Rey;
#CREDIT:B. M'Rey;
#DIFFICULTY:Hard;
#METER:15;
#RADARVALUES:0,0,0,0,0;
#NOTES:
0000
0000
0000
0000
2002
0000
0000
0000
3003
0000
0010
0000
0001
0010
0001
0010
,
0001
0010
0001
0010
0001
0000
0010
0000
0100
0000
0000
0000
1000
0000
0110
0000
,
0000
0001
0022
0000
0033
0000
0100
0001
,
0100
1000
0100
0000
0000
0000
0010
0000
0001
0000
0000
0000
0010
0000
0000
0100
,
0000
0000
1000
0000
0220
0000
0000
0000
0000
0000
1330
0000
0001
1000
0001
1000
,
0001
1000
0001
1000
0001
0010
0100
0000
1000
0000
0000
0000
0100
0000
0010
0000
,
0000
0001
0020
0000
0000
0000
0130
1000
,
0000
0000
0110
0000
0000
0011
0000
0000
1001
0000
0000
0220
0000
0000
0000
0000
,
0000
0000
0330
0000
0001
0000
0000
0000
0100
0000
0010
0100
0010
0000
0000
0000
,
0100
0000
0010
0100
0010
0000
0000
0000
1000
0000
0000
0000
0010
0000
0000
1000
,
0000
0000
0001
0000
0010
0000
0000
0000
1000
0000
0001
1000
0001
0000
0000
0000
,
1000
0000
0100
0010
0200
0000
0000
0000
0000
0000
0000
0000
0000
0000
0000
0000
,
0300
0000
0100
1000
0100
1000
0001
1000
,
0100
1000
0100
0010
0100
0010
0100
0010
,
0001
0000
0010
0000
0010
1000
0010
1000
0010
1000
0010
1000
0100
0010
0100
0010
,
0001
0010
0001
0010
0001
0000
0000
0000
1000
0000
0000
0000
0010
0000
0000
0000
,
0100
0000
0000
0000
0001
0000
0000
0000
1000
0000
0000
0000
0001
0000
1000
0010
,
0000
0001
0100
0000
0010
0000
1000
0000
0010
0000
0100
0000
0010
0000
1000
0100
,
0000
0100
1000
0000
0010
0000
0100
0000
0010
0000
1000
0000
0010
0000
1000
0001
,
0000
0001
0100
0000
0001
0000
0100
0000
0010
0000
0100
0000
0010
0100
0010
0000
,
0010
0000
1000
0001
1000
0000
1000
0001
1000
0000
1000
0000
0010
0000
0100
0000
,
0010
0000
1000
0000
0010
0000
1000
0100
1000
0000
0010
0100
0010
0000
0010
0000
,
0001
0000
1000
0000
0100
0010
0100
0000
0001
0000
0010
0001
0010
0000
0010
0000
,
0100
0000
1000
0000
0010
0001
0000
0100
1000
0000
0010
0100
0000
0011
0000
2200
,
0000
0000
3310
0000
0010
1000
0010
1000
,
0001
0010
0001
0010
0001
0010
0001
1000
,
0010
1000
0010
1000
0010
1000
0010
0100
,
0001
0000
1000
0000
0001
0000
1000
0000
0001
0000
1000
0001
0000
0001
1000
0000
,
0100
0010
0000
0010
0100
0000
0010
0000
0100
0000
1000
0000
0100
0000
1000
0000
,
0010
1000
0001
1000
0100
0010
0100
0010
,
0100
1000
0100
1000
0001
0100
0001
0100
,
0001
0000
1000
0000
0001
1000
0000
1000
0100
0000
1000
0100
0000
0100
1000
0000
,
0100
0000
0010
0001
0020
0000
M000
0000
0M00
0000
000M
0000
0M00
0000
000M
0000
,
M000
000M
0M00
000M
M000
0M00
M000
000M
,
0M00
000M
2030
0M00
00M0
0M00
000M
00M0
,
0M00
000M
00M0
0M00
000M
00M0
0M00
000M
,
0M00
000M
3M20
000M
0M00
M000
023M
00M0
,
M000
0000
00M0
0000
M002
0300
00M0
0000
0M00
0000
M000
0000
0M23
0000
M000
0000
,
000M
0M00
203M
0M00
30M2
M000
0M23
M000
,
023M
0000
M000
0000
032M
0030
MMMM
0000
MMMM
0000
MMMM
0000
MMMM
0000
MMMM
0000
,
MMMM
MMMM
0001
1000
0001
1000
0001
1000
,
0001
0000
0001
1000
0010
0100
0010
0100
,
0010
1000
0010
1000
0010
0000
1000
0000
0010
0000
1000
0000
0100
0000
0010
0000
,
0100
0000
0001
0010
0001
1000
0001
1000
,
0001
0100
0001
0100
0001
0000
0100
0000
0010
0000
0100
0000
0010
0000
0100
0000
,
0001
0000
0001
1000
0001
1000
0001
1000
,
0010
0000
0000
0000
0100
0000
0000
0010
0000
0000
0001
0000
1000
0000
0010
0000
,
0100
0000
0001
0000
1000
0001
0000
1000
0001
0000
1000
0001
0000
1000
0001
0000
,
1000
0010
0200
0000
0000
0310
0000
0001
,
1000
0001
1000
0001
1000
0001
1000
0001
,
1000
0000
0100
0000
1010
0000
0000
0110
0000
0000
0011
0000
0000
0000
0010
0000
,
0100
0000
0010
0000
1100
0000
0000
0110
0000
0000
0011
0000
0000
0000
0010
0000
,
1000
0010
1000
0100
1000
0001
0100
0010
,
1000
0100
1000
0100
0010
0001
0100
0001
,
0100
0000
0010
0000
0101
0000
0000
0110
0000
0000
1010
0000
0000
0000
0100
0000
,
0010
0000
0100
0000
0010
0100
0000
0100
0001
0000
0100
0001
0000
0001
0100
0000
,
0001
0100
0020
0000
0000
0000
0000
0000
,
0000
0000
0000
0000
0130
0000
1000
0000
0100
1000
0000
1000
0100
0000
0010
0100
,
0000
0100
1000
0000
1010
0000
1000
0000
0001
0010
0000
0010
0001
0000
0100
0010
,
0000
0010
0100
0000
1010
0000
1000
0000
0001
0010
0000
0010
0001
0000
0010
0100
,
0000
0100
0010
0000
0001
0000
1000
0000
0100
0000
0000
0000
0001
0000
0000
0000
,
0010
0000
0000
0000
0010
0000
1000
0000
0100
0010
0000
0010
0001
0000
0010
0000
,
0100
0010
0000
0010
0001
0000
1000
0000
0001
0100
0000
0100
0001
0000
0100
0000
,
0010
0100
0000
0100
0001
0010
0001
1000
0001
0010
0001
0010
0001
0010
0100
1000
,
0100
1000
0100
1000
0100
0000
0010
0000
0100
0000
0010
0000
1010
0000
0000
0000
,
0001
0100
0001
0100
0001
0000
0000
0000
0001
1000
0001
0010
0001
0000
0001
0000
,
0100
0010
0100
1000
0100
0000
0100
0000
0010
0000
1000
0000
0010
0000
1000
0000
,
0010
0000
1000
0000
0002
0000
0000
0000
0013
1000
0001
1000
0010
0000
0010
1000
,
0010
0000
0010
0100
0001
0000
0001
1000
0001
0000
0001
1000
0010
0000
0010
0100
,
0010
0000
0010
0100
0002
0000
0000
0000
0013
1000
0010
1000
0010
0000
0010
0000
,
0001
0100
0001
0100
0001
0000
0001
0000
0001
0000
0010
0000
0001
0000
0100
0000
,
0001
0000
0100
0000
0002
0000
0000
0000
0103
0000
0001
0100
0000
0100
0001
0000
,
0001
1000
0110
0000
0000
0110
0000
0000
0110
0000
0000
0022
0000
0000
0000
0000
,
0233
0000
0000
0000
1300
0000
0100
0010
0001
0000
0010
0100
0001
0000
0100
0010
,
0001
0000
0010
0100
0010
0000
0010
0100
0001
0000
0100
0000
1000
0000
0100
0000
,
0010
0000
0001
0000
1000
0000
0001
0100
0010
0000
0010
0100
0001
0000
0010
0100
,
0010
0000
0010
1000
0001
0000
0001
1000
0001
0000
0001
0010
0100
0000
0001
0100
,
0010
0000
0001
0100
0002
0000
0000
0000
0103
0000
0010
0100
0001
0000
0100
1000
,
0001
0000
0001
1000
0100
0000
0001
0100
0010
0000
0010
0000
0100
0000
0001
0000
,
0010
0000
0100
0000
1001
0000
0000
0110
0000
0000
0000
0000
0011
0000
0000
0110
,
0000
0000
0001
1000
0001
0000
0000
0110
0000
0000
0022
0000
0000
0000
0000
0000
,
0033
0000
0000
0000
2002
0000
0000
0000
3003
0000
0010
0000
0001
0010
0001
0010
,
0001
0010
0001
0010
0001
0000
0010
0000
0100
0000
0000
0000
1000
0000
0110
0000
,
0000
0001
0022
0000
0033
0000
0100
0001
,
0100
1000
0100
0000
0000
0000
0010
0000
0001
0000
0000
0000
0010
0000
0000
0100
,
0000
0000
1000
0000
0220
0000
0000
0000
0000
0000
1330
0000
0001
1000
0001
1000
,
0001
1000
0001
1000
0001
0010
0100
0000
1000
0000
0000
0000
0100
0000
0010
0000
,
0000
0001
0020
0000
0000
0000
0130
1000
,
0000
0000
0110
0000
0000
0011
0000
0000
1001
0000
0000
0220
0000
0000
0000
0000
,
0000
0000
0000
0000
,
0000
0330
0000
0000
;

//--------------- dance-single - B. M'Rey ----------------
#NOTEDATA:;
#STEPSTYPE:dance-single;
#DESCRIPTION:B. M'Rey;
#CREDIT:B. M'Rey;
#DIFFICULTY:Challenge;
#METER:17;
#RADARVALUES:0,0,0,0,0;
#NOTES:
0000
0000
0000
0000
2002
0000
0000
0000
0000
3003
0010
0000
0100
0010
0100
0010
,
0100
0000
0000
0010
0000
0000
0100
0000
0000
0010
0000
0000
0100
0000
0000
0010
0000
0000
0100
0000
0010
0000
0100
0000
0010
0000
0000
0000
0000
0000
0000
0000
0000
0000
0000
0000
0001
0000
0000
1000
0000
0000
0002
0000
0000
0000
0000
0000
,
0000
0000
0013
0100
2000
0000
0000
0000
0000
0000
0000
0000
3010
0000
0100
0000
,
0001
1000
0010
0000
0000
0000
0001
0000
0100
0000
0000
0000
1000
0100
0000
0001
,
0010
0000
0000
0000
0000
0000
1000
0000
0001
0000
1000
0000
0002
0000
0000
0000
0000
0000
0000
0000
0000
0000
0000
0000
0000
0000
0000
0000
0000
0000
1003
0000
0000
0000
0000
0000
0010
0000
0000
1000
0000
0000
0010
0000
0000
1000
0000
0000
,
0010
0000
0000
1000
0000
0000
0010
0000
0000
1000
0000
0000
0010
0000
0000
1000
0000
0000
0010
0000
1000
0000
0010
0000
2000
0000
0000
0000
0000
0000
0000
0000
0000
0000
0000
0000
3001
0000
0000
0000
0000
0000
0020
0000
0000
0000
0000
0000
,
0000
0000
0000
1030
0100
0010
0002
0000
0000
0000
0000
0000
0000
0000
0000
1003
0000
0000
0001
0010
0100
1000
0001
0010
,
0100
0000
1000
0000
0000
0000
1001
0000
0000
0000
0000
0000
0000
0000
0000
0110
0000
0000
0000
0000
0000
0000
0000
0000
0101
0000
0000
0000
0000
0000
0000
0000
0000
2002
0000
0000
0000
0000
0000
0000
0000
0000
0000
0000
0000
0000
0000
0000
,
0000
0000
0000
3003
0110
0000
0000
0000
1000
0000
0001
1000
0001
0000
0000
0000
,
0001
0000
0010
1000
0010
0000
0000
0000
0001
0000
0001
1000
0101
0000
0000
0011
,
0000
0000
1010
0000
1010
0000
0000
0000
0001
0010
0001
0100
0010
0000
0000
0000
,
0010
0100
0001
1000
0001
0000
0010
0010
0010
0000
1000
0100
0000
0010
0001
0000
,
0100
0000
0000
0010
0000
0000
0001
0000
0000
0100
0000
0000
0001
0000
0000
0100
0000
0000
0001
1000
0001
1000
0001
1000
,
0010
0000
0000
1000
0000
0000
0010
1000
0010
1000
0010
1000
0100
0000
0000
0010
0000
0000
0100
1000
0100
1000
0100
1000
,
0100
0000
0000
1000
0000
0000
0010
0100
0000
1000
0001
0000
0100
0001
0000
0010
1000
0000
0100
0001
0000
0010
1000
0000
,
0100
0001
0000
1000
0100
0000
1001
0000
0000
0000
0000
0000
0110
0000
0000
0000
0000
0000
0101
0000
0000
0000
0000
0000
,
0220
0000
0000
0000
0331
0000
0000
0000
1000
0000
0010
0000
0100
0000
0100
0010
,
0001
0000
0100
1000
0001
0000
0010
1000
0001
0000
0001
0010
0100
0000
1000
0001
,
0010
0000
0000
0000
0100
0000
0001
1000
0100
0000
0001
1000
0001
0000
0001
0010
,
0100
0000
0000
0000
0000
0000
0100
0000
0000
1000
0000
0000
0100
0000
0000
0000
0000
0000
0010
0000
0000
1000
0000
0000
0100
0000
0000
0000
0000
0000
0100
0000
0000
0010
0000
0000
0001
0000
1000
0000
0001
0000
1000
0000
0000
0000
0000
0000
,
0010
0000
0100
0010
0001
1000
0001
1000
0001
0010
0100
0010
0100
0010
0001
1000
,
0001
0100
0001
1000
0010
1000
0010
1000
0001
0010
0100
0010
0100
1000
0100
0010
,
0001
0000
0000
1000
0000
0000
0100
0000
0000
1000
0000
0000
0100
0000
0000
1000
0000
0000
0001
0000
0000
0010
0000
0000
0001
0000
0000
0100
0000
0000
0001
0000
0101
0000
0100
0000
0001
0000
0000
0100
0000
0000
0010
0000
0000
1000
0000
0000
,
0010
0100
0001
0100
1001
0000
0000
0110
0000
0000
0100
0100
0010
0000
0001
0000
,
1000
0000
0100
0000
0010
0000
0001
0000
1000
0000
0100
0000
0020
0000
0000
0000
0000
0000
0000
0000
0000
0000
0000
0000
0031
0000
0000
0000
0000
0000
1000
0000
0000
0000
0000
0000
0010
0000
0000
1000
0000
0000
0010
0000
0000
1000
0000
0000
,
0010
0100
0001
0100
0001
0000
0010
0000
0100
0000
0100
1000
0100
1000
0010
0100
,
0010
1000
0010
1000
0001
0000
0010
0000
0100
0000
0100
0010
0001
1000
0100
0010
,
0100
0000
0000
0010
0000
0000
0100
0000
0000
1000
0000
0000
0001
0000
0000
0000
0000
0000
0100
0000
0000
0000
0000
0000
0010
0000
0001
0000
0010
0000
0001
0000
0000
1100
0000
0000
0000
0000
0000
0000
0000
0000
0110
0000
0000
0000
0000
0000
,
0000
0011
0000
0000
1100
0000
0010
0000
0100
0000
0001
0010
0100
1000
0100
1000
,
0100
0010
0001
0010
0001
0000
0100
0000
1000
0000
0100
0010
0001
0100
0001
1000
,
0001
0010
0100
1000
0100
0000
0001
0000
0010
0000
0001
0100
0001
0010
0100
0010
,
0100
1000
0100
1000
0011
0000
0000
0101
0000
0101
0000
0110
0000
0000
0001
0010
,
0100
0010
0100
0010
2002
0000
00M0
0000
0000
0000
0M00
0000
0000
0000
00M0
0000
,
0000
0M00
0000
00M0
0000
0M00
0000
00M0
,
0000
0M00
3020
M000
0000
0M00
0000
M000
,
0000
0M00
0000
M000
0000
0M00
0000
M000
,
0000
0M00
M233
00M0
M00M
00M0
2300
00M0
,
0000
0M00
3020
000M
0000
M000
0230
000M
,
0000
00M0
0302
0M00
0023
M000
0230
000M
,
2300
00M0
3100
0000
0000
0000
0000
0000
,
0000
0000
0000
0000
0001
0000
1000
0000
0001
0010
0001
0010
0100
0000
0010
0000
,
0001
0000
0100
0000
0001
0000
0010
0000
0100
1000
0100
1000
0100
0000
0010
0000
,
0001
0010
0100
1000
0010
0000
1000
0000
0100
0010
0100
0010
0100
0000
0010
0000
,
0100
0000
1000
0000
0010
0000
0100
0000
0010
0100
0010
0100
0001
0000
0010
0000
,
0100
0010
0100
0010
0001
0000
1000
0000
0100
0010
0100
0010
0001
0000
1000
0000
,
0001
0000
0100
0000
0001
0000
0010
0000
0100
0010
0100
0010
0100
0000
1000
0000
,
0010
0100
0010
0100
0010
0000
1000
0000
0001
0010
0001
0010
0001
0000
0100
0000
,
0010
0000
1000
0000
0001
0000
0010
0000
0100
1000
0100
1000
0010
0000
0100
0000
,
0001
0100
0001
0100
0002
0000
0000
0000
0000
0000
0013
0000
0100
0000
0001
0010
,
0001
0000
0010
0000
1000
0100
0010
0000
1000
0000
0100
0010
1000
0000
0010
0000
,
0100
0001
0100
0001
2000
0000
0000
3020
0000
0000
0230
0000
1300
0000
0100
0000
,
0010
0000
0001
0000
0020
0000
0000
0032
0000
0000
2003
0000
3010
0100
0000
0001
,
0010
0001
0010
0001
0100
0000
0001
0000
0010
0100
0010
0000
1000
0000
0010
0100
,
0010
0000
0001
0000
0010
0001
0010
0000
0010
0000
0001
0010
0100
0000
0010
0000
,
1000
0100
1000
0100
0010
0000
0000
0001
0000
0000
0100
0000
0010
0000
0100
0000
,
1000
0000
0010
0000
0100
0001
0000
0001
0010
0000
0001
1000
0000
1000
0100
0000
,
1000
0010
2000
0000
0000
0000
0000
0000
,
0000
0000
0000
3000
0101
0000
0000
0000
0001
0000
0010
0001
0000
0001
0100
0000
,
0010
0000
1000
0000
0110
0000
0000
0000
0001
0000
1000
0010
0000
0010
0100
0000
,
0001
0000
0100
0000
1010
0000
0000
0000
0100
0000
0010
0100
0000
0100
1000
0000
,
0100
0010
0001
0100
0010
0100
0001
0010
,
0100
0000
0000
1000
0000
0000
0001
0000
0000
0100
0000
0000
0001
0000
0000
0100
0000
0000
0001
1000
0001
1000
0001
1000
,
0010
0000
0000
1000
0000
0000
0010
1000
0010
1000
0010
1000
0100
0000
0000
0010
0000
0000
0100
1000
0100
1000
0100
1000
,
0100
0000
0000
1000
0000
0000
0010
0100
0000
1000
0001
0000
0100
0001
0000
0010
1000
0000
0100
0001
0000
0010
1000
0000
,
0100
0000
0001
0000
0000
0000
1000
0000
0100
0000
0000
0000
0001
0000
0000
1000
0000
0000
0001
0000
0000
1000
0000
0000
0001
0000
0000
0000
0000
0000
0100
0000
0000
0000
0000
0000
0010
0000
0000
0000
0000
0000
0000
0000
0000
0000
0000
0000
,
1001
0000
0000
0000
2002
0000
0000
3003
0001
0010
0001
0010
0001
0000
1000
0000
,
0010
0100
0010
0100
0010
0000
0001
0000
1000
0000
0010
1000
0010
1000
0010
0100
,
0001
0010
0100
0010
0002
0000
0000
0000
0103
0010
0100
0010
0100
0000
0010
1000
,
0001
1000
0001
0100
0001
0010
0100
1000
0001
0010
0001
0010
0001
0100
0010
0100
,
0010
0100
0001
0000
2002
0000
0000
3003
0010
0100
0001
1000
0100
0000
1000
0000
,
0001
0100
0001
0100
0001
0000
0100
0000
0001
0010
0001
1000
0001
1000
0010
0100
,
0010
0100
0010
1000
0002
0000
0000
0000
0013
0100
0001
0100
0001
0100
0010
1000
,
0010
0000
1001
0000
0000
0101
0000
0000
0110
0000
0000
2020
0000
0000
0000
0000
,
3232
0303
0000
0000
0010
0000
0002
1003
0001
1000
0002
0013
0100
0010
0200
0310
,
0001
0100
0002
0103
0001
0010
0200
0310
0100
0010
0002
0103
0001
0100
0002
1003
,
0010
1000
0200
1300
0100
0010
0200
1300
0001
1000
0002
0013
0001
0010
0200
1300
,
0100
1000
0200
0310
0001
0010
0002
0013
0100
1000
0200
1300
0100
0010
0002
0013
,
0001
0100
0002
0103
0010
0100
0020
1030
0010
1000
0002
1003
0001
0100
0002
0103
,
0010
0100
0020
1030
0010
0100
0002
0103
0001
0100
0020
1030
0010
1000
0002
1003
,
0001
0010
0002
0003
1001
0000
0000
0110
0000
0000
0001
0100
0101
0000
0000
1001
,
0000
0000
0000
0000
0000
0000
0010
0000
0100
0000
0010
0000
0100
0000
0000
0000
0000
0000
0000
0000
0000
0101
0000
0000
0000
0000
0000
0000
0000
0000
0220
0000
0000
0000
0000
0000
0000
0000
0000
0000
0000
0000
0000
0000
0000
0000
0000
0000
,
0000
0000
0000
0330
2002
0000
0000
0000
0000
3003
0010
0000
0100
0010
0100
0010
,
0100
0000
0000
0010
0000
0000
0100
0000
0000
0010
0000
0000
0100
0000
0000
0010
0000
0000
0100
0000
0010
0000
0100
0000
0010
0000
0000
0000
0000
0000
0000
0000
0000
0000
0000
0000
0001
0000
0000
1000
0000
0000
0002
0000
0000
0000
0000
0000
,
0000
0000
0013
0100
2000
0000
0000
0000
0000
0000
0000
0000
3010
0000
0100
0000
,
0001
1000
0010
0000
0000
0000
0001
0000
0100
0000
0000
0000
1000
0100
0000
0001
,
0010
0000
0000
0000
0000
0000
1000
0000
0001
0000
1000
0000
0002
0000
0000
0000
0000
0000
0000
0000
0000
0000
0000
0000
0000
0000
0000
0000
0000
0000
1003
0000
0000
0000
0000
0000
0010
0000
0000
1000
0000
0000
0010
0000
0000
1000
0000
0000
,
0010
0000
0000
1000
0000
0000
0010
0000
0000
1000
0000
0000
0010
0000
0000
1000
0000
0000
0010
0000
1000
0000
0010
0000
2000
0000
0000
0000
0000
0000
0000
0000
0000
0000
0000
0000
3001
0000
0000
0000
0000
0000
0020
0000
0000
0000
0000
0000
,
0000
0000
0000
1030
0100
0010
0002
0000
0000
0000
0000
0000
0000
0000
0000
1003
0000
0000
0001
0010
0100
1000
0001
0010
,
0100
0000
1000
0000
0000
0000
1001
0000
0000
0000
0000
0000
0000
0000
0000
0110
0000
0000
0000
0000
0000
0000
0000
0000
0101
0000
0000
0000
0000
0000
0000
0000
0000
2002
0000
0000
0000
0000
0000
0000
0000
0000
0000
0000
0000
0000
0000
0000
,
0000
0000
0010
0010
0100
0100
0010
0010
,
0100
0100
3223
M00M
M00M
M00M
M33M
0000
;
