#TITLE:Supermodel;
#ARTIST:Bambee;
#GENRE:BUBBLEGUM DANCE;
#MUSIC:Supermodel.ogg;
#BANNER:Supermodel-bn.png;
#BACKGROUND:Supermodel-bg.png;
#CDTITLE:./CDTITLES/Dancemania Happy Paradise 3.PNG;
#SAMPLESTART:65.556;
#SAMPLELENGTH:12;
#OFFSET:-0.036;
#BPMS:0=137,184=68.5,192=137;

//--------------- dance-single - B. M'Rey ----------------
#NOTES:
     dance-single:
     B. M'Rey:
     Beginner:
     1:
     0,0,0,0,0:
0000
0000
0000
0000
,
0000
0000
0000
0000
,
0000
0000
0000
0000
,
0000
0000
0000
0000
,
0000
0000
0000
0000
,
0000
0000
0000
0000
,
0000
0000
0000
0000
,
0000
0000
0000
0000
,
0000
0000
0000
0000
,
0000
0000
0000
0000
,
0000
0000
0000
0000
,
0000
0000
0000
0000
,
0000
0000
0000
0000
,
1001
0000
0000
0000
,
0010
0000
1000
0000
,
0100
0000
0000
0000
,
0010
0000
0001
0000
,
0100
0000
0000
0000
,
0001
0000
0001
0000
,
1000
0000
1000
0000
,
0010
0000
0010
0000
,
1001
0000
0000
0000
,
1000
0000
0100
0000
,
1000
0000
0100
0000
,
0001
0000
0000
0000
,
0001
0000
1000
0000
,
0001
0000
0100
0000
,
0001
0000
0100
0000
,
1000
0000
0000
0000
,
0001
0000
1000
0000
,
0010
0010
0000
0000
,
1000
0000
0100
0000
,
0010
0010
0000
0000
,
0001
0000
0100
0000
,
0001
0000
0001
0000
,
1000
0000
1000
0000
,
0010
0010
0010
0000
,
1001
0000
0000
0000
,
1000
0000
1000
0000
,
1000
0000
0000
0000
,
0001
0000
0001
0000
,
0001
0000
0000
0000
,
0100
0000
0000
0000
,
1000
0000
0000
0000
,
0010
0000
0000
0000
,
0001
0000
0000
0000
,
0210
0000
0000
0000
,
0320
0000
0000
0000
,
1030
0000
1000
0000
,
0001
0000
0001
0000
,
1000
0000
0001
0000
,
0200
0000
0000
0000
,
0310
0000
1000
0000
,
0100
0000
0000
0000
,
0010
0000
0001
0000
,
0100
0000
0000
0000
,
0001
0000
0001
0000
,
1000
0000
1000
0000
,
0010
0000
0010
0000
,
1001
0000
0100
0000
,
1000
0000
1000
0000
,
1000
0000
0000
0000
,
0001
0000
0001
0000
,
0001
0000
0000
0000
,
0100
0000
0000
0000
,
1000
0000
0000
0000
,
0010
0000
0000
0000
,
0001
0000
0000
0000
,
0220
0000
0000
0000
,
0000
0000
0000
0000
,
0330
0000
0000
0000
;

//--------------- dance-single - B. M'Rey ----------------
#NOTES:
     dance-single:
     B. M'Rey:
     Easy:
     3:
     0,0,0,0,0:
0000
0000
0000
0000
,
0000
0000
0000
0000
,
0000
0000
0000
0000
,
0000
0000
0000
0000
,
0000
0000
0000
0000
,
0010
0100
0010
0100
,
0001
0000
0100
0000
,
0100
1000
0001
1000
,
0001
0000
0001
1000
,
0010
0000
0010
0000
,
0100
0000
0100
0000
,
0001
0000
0010
0000
,
0100
0000
0000
0000
,
1001
0000
0000
0000
,
0001
0010
0100
0010
,
0001
1000
0001
0100
,
0001
0100
0010
1000
,
0010
0100
0001
0010
,
0001
0100
0010
0100
,
0010
0100
0001
1000
,
0001
0010
0100
0010
,
0101
0000
0000
0000
,
0001
0100
0010
0100
,
0010
1000
0100
0010
,
0001
0000
0100
0010
,
0100
0000
0100
0000
,
0001
0010
0100
1000
,
0100
1000
0001
1000
,
0002
0000
0003
0000
,
0100
0000
0001
0000
,
0100
0010
0100
0010
,
0001
0100
0010
0000
,
0001
0010
0100
1000
,
0001
1000
0001
0000
,
0100
1000
0001
0100
,
0010
1000
0001
0000
,
0001
0100
0010
1000
,
1010
0000
0000
0000
,
0100
0010
0001
0100
,
0010
0000
0001
0000
,
0001
1000
0010
0100
,
1000
0000
1000
0000
,
0010
1000
0001
0100
,
0001
0100
0010
1000
,
0100
0010
0001
1000
,
0200
0000
0300
0010
,
0100
1000
0020
0000
,
0130
0001
0200
0000
,
0310
1000
0010
1000
,
0100
0010
0100
1000
,
0010
0100
0001
1000
,
1001
0000
0000
0000
,
0100
0010
0100
1000
,
0001
0010
0001
1000
,
0100
0010
0001
0010
,
0100
0010
0001
0100
,
0001
0100
0010
1000
,
0010
0100
0001
0010
,
0100
0010
0001
0010
,
0100
0000
0100
0000
,
0100
0010
0001
0100
,
0010
0000
0001
0000
,
0001
1000
0010
0100
,
1000
0000
1000
0000
,
0010
1000
0001
0100
,
0001
0100
0010
1000
,
0100
0010
0001
1000
,
0200
0000
0300
0010
,
0220
0000
0000
0000
,
0000
0000
0000
0000
,
0330
0000
0000
0000
;

//--------------- dance-single - B. M'Rey ----------------
#NOTES:
     dance-single:
     B. M'Rey:
     Medium:
     6:
     0,0,0,0,0:
0000
0000
0000
0000
,
0000
0000
0000
0000
,
0000
0000
0000
0000
,
0000
0000
0000
0000
,
0000
0000
0000
0100
0010
0000
0010
0000
,
0100
0010
0100
0000
1000
0001
0020
0000
,
0000
0000
0000
0030
0010
0000
1000
0000
,
0010
0001
1000
0000
0010
0100
0020
0000
,
0000
0000
0000
0030
0100
0000
0010
0000
,
1000
0000
1000
0002
0000
1003
0010
0000
,
1000
0000
1000
0020
0000
0130
1000
0000
,
0010
0000
0010
0001
0000
0100
0010
0001
,
0000
0200
0000
0000
0000
0000
0000
0000
,
2000
0000
0000
3300
,
1000
0000
0100
0001
0100
0000
0010
0100
,
0010
0000
0100
0000
1000
0000
0010
0001
,
1000
0000
0010
0100
0010
0000
1000
0010
,
1000
0000
0010
0000
1000
0000
1000
0100
,
1000
0000
0010
0001
0010
0000
1000
0010
,
0100
0000
1000
0010
1000
0000
0100
0010
,
1000
0000
1000
0001
0010
0000
0100
0001
,
1100
0000
0000
0000
,
0100
0010
0000
0001
0000
0010
0000
0100
,
0000
0010
1000
0000
0100
0001
0000
0001
,
1000
0000
1000
0010
0100
0000
1100
0000
,
0011
0010
0110
1000
,
1000
0100
0000
0001
0000
0100
0000
0010
,
0000
0001
0100
0000
1000
0000
1000
0010
,
1000
0000
0010
0001
1000
0000
0100
0010
,
1000
0000
1000
0010
1000
0000
0010
0000
,
0010
0001
0000
0100
0000
0010
0000
0100
,
0100
0010
0000
0001
0000
0100
0000
0010
,
0100
0010
0000
0100
0000
1000
0000
0100
,
0010
0001
0000
1000
0000
0010
0000
0010
,
0100
0010
0000
0100
0000
0100
0010
0100
,
0000
0010
0000
0010
1000
0100
0000
0001
,
1000
0100
1000
0001
0000
0010
0100
0200
,
0000
0000
0000
0300
0010
0000
1000
0000
,
1000
0010
0100
0000
0100
0010
0100
0000
,
1000
0000
0100
0000
1000
0001
0010
0000
,
0010
0100
1000
0000
0100
0001
0100
0000
,
1000
0000
1000
0001
1000
0100
0010
0000
,
1001
0000
0010
0001
0010
0000
0010
0000
,
1001
0000
0100
0001
1000
0000
1000
0000
,
0010
0000
0010
0100
0000
0001
1000
0010
,
0000
0100
0000
0001
1000
0000
0010
0100
,
1000
0100
0010
0001
2000
0000
0000
0000
,
3010
0001
1000
0100
0020
0000
0000
0030
,
0010
0100
0001
1000
,
0001
0100
0010
0100
,
0010
1000
0001
1000
,
1001
0000
0000
0000
,
1000
0000
0100
0001
0100
0000
0010
0100
,
0010
0000
0100
0000
1000
0000
0010
0001
,
1000
0000
0010
0100
0010
0000
1000
0010
,
1000
0000
0010
0000
1000
0000
1000
0100
,
1000
0000
0010
0001
0010
0000
1000
0010
,
0100
0000
1000
0010
1000
0000
0100
0010
,
1000
0000
1000
0001
0010
0000
0100
0001
,
1100
0000
0010
1000
,
1000
0010
0100
0000
0100
0010
0100
0000
,
1000
0000
0100
0000
1000
0001
0010
0000
,
0010
0100
1000
0000
0100
0001
0100
0000
,
1000
0000
1000
0001
1000
0100
0010
0000
,
1001
0000
0010
0001
0010
0000
0010
0000
,
1001
0000
0100
0001
1000
0000
1000
0000
,
0010
0000
0010
0100
0000
0001
1000
0010
,
0000
0100
0000
0001
1000
0000
0010
0000
,
2200
0000
0000
0000
,
0000
0000
0000
0000
,
3300
0000
0000
0000
;

//--------------- dance-single - B. M'Rey ----------------
#NOTES:
     dance-single:
     B. M'Rey:
     Hard:
     7:
     0,0,0,0,0:
0000
0000
0000
0000
,
0000
0000
0000
0000
,
0000
0000
0000
0000
,
0000
0000
0000
0000
,
0000
0000
0000
1000
0001
0100
0010
0000
,
0010
1000
0010
0000
0001
0100
0001
0000
,
0000
0000
0000
0010
0001
1000
0100
0000
,
0100
0010
0001
0000
0010
0100
0010
0000
,
0000
0000
0010
0100
0010
0100
0010
1000
,
0200
0000
0301
0020
0000
0030
0100
1000
,
0002
0000
0013
2000
0000
3000
0010
0100
,
0001
0000
0010
1000
0000
0010
0001
0010
,
0000
0100
0000
1000
0100
1000
0001
0010
,
0202
0000
0000
0000
0000
0303
0000
0000
,
0010
0100
0001
1000
0010
0100
0010
0100
,
0001
0100
0001
0010
0001
0100
0010
1000
,
0100
1000
0010
1000
0010
0100
0010
0100
,
0001
1000
0001
1000
0001
0010
0100
0010
,
1001
0000
0001
0100
0010
0000
0100
0010
,
0001
0000
0100
0010
0001
0000
0001
0100
,
0110
0000
0001
1000
0010
1000
0100
0001
,
0020
0100
0100
0130
,
0001
1000
0010
1000
0001
0100
0010
1000
,
0001
0000
0001
1000
0100
1000
0000
1000
,
0001
0000
0100
0010
0100
1000
0110
0000
,
0101
0000
0001
0010
0011
0000
0100
0000
,
0100
1000
0100
0010
0001
0100
0010
0100
,
0010
0000
0010
1000
0001
0000
0100
0010
,
0100
0000
0001
0100
0001
0000
0001
0100
,
0010
0000
0000
0000
0010
0000
1000
0000
0110
0000
0000
0101
0000
0000
0100
0000
,
0010
1000
0010
1000
0001
0010
0100
0010
,
0001
1000
0100
0010
0100
1000
0100
0000
,
0001
0010
0100
1000
0001
1000
0001
0100
,
0010
0100
0010
0100
0001
0010
0000
0010
,
0100
0010
0001
1000
0001
1000
0010
0100
,
0001
0010
0100
1000
0000
0100
0000
0000
,
0010
0100
0001
1000
0100
1000
0010
1000
,
0110
0000
0000
1000
0001
0100
0010
0000
,
0001
1000
0010
1000
0010
1000
0100
0010
,
0100
0010
0100
1000
0001
1000
0001
1000
,
0100
0010
0100
0010
0100
1000
0001
1000
,
0001
1000
0100
0010
0100
1000
0001
0010
,
0001
0010
0001
1000
0100
1000
0010
1000
,
0010
0100
0010
0100
0001
0100
0001
1000
,
0001
1000
0010
1000
0010
0100
0001
0100
,
0001
0100
0010
1000
0010
1000
0010
0100
,
0001
1000
0100
1000
0100
1000
0001
0010
0001
0000
0001
0000
0010
0000
0010
0000
,
0001
1000
0100
1000
0010
1000
0010
0100
0010
0000
0001
0000
0001
0000
0001
0000
,
0010
1000
0001
0010
,
0001
1000
0001
0010
,
0100
1000
0001
1000
,
0202
0000
0000
0000
0000
0000
0000
0303
,
0001
0100
0001
1000
0010
1000
0100
0010
,
0100
0010
0001
0010
0001
1000
0010
1000
,
0100
0010
0001
1000
0010
0100
0001
1000
,
0010
1000
0001
1000
0100
0010
0100
0010
,
0101
0000
0010
0100
0010
0000
0100
1000
,
0010
0000
0001
0010
0001
0000
0001
1000
,
0100
0000
0100
1000
0010
0100
0001
0010
,
0100
0000
0001
1000
0001
0100
0010
0000
,
0001
1000
0010
1000
0010
1000
0100
0010
,
0100
0010
0100
1000
0001
1000
0001
1000
,
0100
0010
0100
0010
0100
1000
0001
1000
,
0001
1000
0100
0010
0100
1000
0001
0010
,
0001
0010
0001
1000
0100
1000
0010
1000
,
0010
0100
0010
0100
0001
0100
0001
1000
,
0001
1000
0010
1000
0010
0100
0001
0100
,
0001
0100
0010
1000
0010
1000
0010
0000
,
2002
0000
0000
0000
,
0000
0000
0000
0000
,
3003
0000
0000
0000
;

//--------------- dance-single - B. M'Rey ----------------
#NOTES:
     dance-single:
     B. M'Rey:
     Challenge:
     9:
     0,0,0,0,0:
0000
0000
0000
0000
,
0000
0000
0000
0000
,
0000
0000
0000
0000
,
0000
0000
0000
0000
,
0000
0000
0000
0100
1000
0100
0010
0001
,
1000
0100
1000
0001
1000
0001
0100
0010
,
0100
000M
0100
00M0
1000
0010
1000
0100
,
0010
0100
0010
0001
0100
0010
1000
0100
,
0010
0M00
0010
0M00
1000
0001
0010
0001
,
0010
0100
1000
0010
1000
0001
0100
0001
,
1000
0010
1000
0010
0100
0001
0010
0001
,
0010
0001
0100
0010
1000
0001
0010
0100
,
1000
0010
1000
0010
1000
0100
0010
0100
,
1100
0000
2200
0000
0000
0000
0000
0000
3300
0000
0001
0100
0001
1000
0001
1000
,
0100
0000
0001
0010
0001
0000
0100
1000
0001
0000
0001
0100
0001
0000
0100
1000
,
0100
0000
0001
0100
0010
0000
0001
0100
0001
0000
0001
0010
0100
0010
0100
1000
,
0100
0000
0001
1000
0001
0000
0001
0010
0100
0000
0100
1000
0100
0000
0010
1000
,
0010
0000
0010
0100
0001
0000
0010
1000
0100
0000
0100
1000
0001
0100
0001
1000
,
0001
0000
0010
1000
0010
0000
0010
0100
0001
0000
0001
1000
0001
0000
0100
1000
,
0100
0000
0001
0010
0001
0000
0010
0100
0010
0000
0001
0010
0100
1000
0100
1000
,
0001
0000
0001
0100
0010
0000
0010
0100
0001
0000
0001
0010
0001
0000
0010
0100
,
0010
0001
1000
0001
1000
0000
0110
0000
,
1000
0001
0100
0010
1000
0001
0100
0001
,
1000
0001
0010
0100
0010
0100
0010
0001
,
0100
0000
0010
0000
0100
0000
0001
0000
1000
0000
0100
0001
1000
0000
0010
1000
,
0100
0000
0001
0000
0100
0000
0001
0010
1000
0000
0100
0000
0010
0000
0100
0000
,
1100
0100
0010
0001
0010
0100
1000
0001
,
0010
0001
0100
0010
1000
0100
0010
0001
,
1000
0001
0010
0100
0010
0100
0010
0001
,
1000
0000
0100
0000
1000
0000
0001
0000
0110
0000
0000
1100
0000
0000
1100
0000
,
1000
0100
0010
0001
0100
0010
1000
0010
,
0100
0010
0100
0001
0100
0010
1000
0001
,
1000
0001
0010
0100
0010
0100
1000
0001
,
0100
0010
1000
0010
1000
0100
0010
0001
,
1000
0001
0100
0001
1000
0010
1000
0001
,
1000
0001
0100
0010
0100
0001
0010
0001
,
0001
1000
0001
0100
0001
0100
0010
0100
0010
1000
0010
1000
0100
1000
0100
0010
,
0200
0000
0000
0301
1000
0100
1000
0001
,
0010
0001
1000
0001
0010
0100
1000
0001
,
1000
0100
0010
0001
0100
0001
0100
0001
,
1000
0100
0010
0100
1000
0100
1000
0001
,
1000
0100
0010
0100
1000
0100
0010
0001
,
0100
0001
0100
0010
0100
0001
1000
0100
,
0010
0100
0010
0001
1000
0001
0010
0100
,
0010
0100
0010
0001
1000
0010
0100
0010
,
1000
0010
0100
0001
0100
0010
1000
0001
,
0001
1000
0001
1000
0001
0010
0100
0010
0100
0000
0001
0000
0001
0000
0001
0000
,
0100
1000
0100
1000
0001
0010
0001
0010
0100
0000
0100
0000
0100
0000
0001
0000
,
0100
0010
0100
0010
1000
0010
1000
0001
,
0100
0010
1000
0010
0100
0010
0100
0001
,
0010
0100
1000
0010
1000
0001
0100
0010
,
0101
0000
0101
0000
0100
0000
0000
0000
1000
0000
0001
0100
0001
0100
0010
1000
,
0010
0000
0010
0100
0001
0000
0001
0100
0010
0000
0010
1000
0010
0000
0001
0010
,
0001
0000
0001
0100
0010
0000
0010
1000
0010
0000
0100
0010
0001
0010
0100
1000
,
0010
0000
0100
1000
0100
0000
0100
0010
0001
0000
0001
1000
0010
0000
0100
1000
,
0100
0000
0100
0010
0001
0000
0001
0100
0001
0000
0010
0100
0001
1000
0100
1000
,
0100
0000
0010
0100
0010
0000
0001
0010
0001
0000
0001
0100
0010
0000
0010
1000
,
0001
0000
0010
1000
0010
0000
0010
0100
0001
0000
0001
1000
0001
0010
0100
0010
,
0100
0000
0001
1000
0001
0000
0001
0010
0100
0000
0100
1000
0100
1000
0001
1000
,
0001
0000
0010
0100
0010
0000
0001
1000
0010
0000
0010
1000
0001
0000
0001
0100
,
0010
0001
0010
0100
0010
0001
0100
0001
,
0010
0100
1000
0001
0010
0001
0100
0001
,
1000
0010
0100
0001
0100
0001
1000
0010
,
0100
0001
0010
0100
0010
0100
0010
0001
,
1000
0010
1000
0001
0100
0010
0100
0010
,
0100
0001
1000
0010
0100
0001
1000
0010
,
0001
1000
0010
1000
0010
0100
0010
0100
0001
0100
0001
1000
0001
0100
0010
0100
,
0010
0100
0001
1000
0001
1000
0100
1000
0100
0010
0100
0010
0001
0010
0001
1000
,
0202
00M0
M000
00M0
,
M000
00M0
M000
00M0
,
M303
0000
0000
0000
;
