
//----- song ID: spotlightmotoblancoradioedit -----//
#VERSION:0.83;
#TITLE:SPOTLIGHT (Moto Blanco Radio Edit);
#ARTIST:JENNIFER HUDSON;
#GENRE:HOUSE;
#ORIGIN:DWI Extreme T-8;
#CREDIT:B. M'Rey/DWI Extreme T-8;
#BANNER:SPOTLIGHT (Moto Blanco Radio Edit).PNG;
#BACKGROUND:SPOTLIGHT (Moto Blanco Radio Edit)-bg.png;
#JACKET:SPOTLIGHT (Moto Blanco Radio Edit)-jacket.png;
#CDTITLE:./CDTITLES/Licensed Music.png;
#MUSIC:SPOTLIGHT (Moto Blanco Radio Edit).ogg;
#OFFSET:-0.130;
#SAMPLESTART:45.54;
#SAMPLELENGTH:15;
#BPMS:0=126.851;
#BGCHANGES:14.500=SPOTLIGHT (Moto Blanco Radio Edit).avi=1.000=1=0=1===CrossFade==,
229.000=SPOTLIGHT (Moto Blanco Radio Edit)-bg.png=1.000=1=0=1===CrossFade==,
99999.000=-nosongbg-=1.000=0=0=0=StretchNoLoop====;

//---------------dance-single - B. M'Rey----------------
#NOTEDATA:;
#CHARTNAME:;
#CHARTHASH:64213246;
#STEPSTYPE:dance-single;
#BANNER:;
#DESCRIPTION:B. M'Rey;
#CHARTSTYLE:;
#DIFFICULTY:Beginner;
#METER:4;
#METERF:0.000000;
#LASTSECONDHINT:107.499222;
#RADARVALUES:0.157384,0.203319,0.008957,0.035827,0.000000,123.000000,122.000000,1.000000,4.000000,0.000000,0.000000,0.000000,0.000000,0.000000,0.157384,0.203319,0.008957,0.035827,0.000000,123.000000,122.000000,1.000000,4.000000,0.000000,0.000000,0.000000,0.000000,0.000000;
#CREDIT:B. M'Rey;
#NOTES:
0000
0000
0000
0000
,
0000
0000
0000
0000
,
0000
0000
0000
0000
,
0000
0000
0000
0000
,
1000
0010
0000
0100
,
0000
0010
0000
0001
,
0000
1000
0000
0020
,
0000
0130
0000
0000
,
0000
0000
0000
0001
,
0000
0010
0000
0001
,
0000
1000
0000
0010
,
0010
0100
0100
0010
,
0010
1000
0000
0010
,
0000
0100
0000
0001
,
0000
1000
0000
1000
,
1000
0001
0001
1000
,
1000
0010
0000
0001
,
0000
0100
0000
0001
,
0000
0100
0000
0010
,
0010
0001
0001
0010
,
0010
0001
0000
1000
,
0000
0010
0000
0100
,
0000
0010
0000
1000
,
1000
0100
0100
1000
,
1000
0000
0010
0100
,
0000
0001
0000
0001
,
0000
1000
0010
0100
,
0000
0010
0000
0001
,
0000
0100
0010
1000
,
0000
0100
0000
0001
,
0000
0010
0000
0001
,
0000
0100
0000
0010
,
0000
1000
0010
0100
,
0000
0001
0000
0010
,
0000
0001
0100
1000
,
0000
0010
0000
0100
,
0000
0010
1000
0100
,
0000
0010
0000
0001
,
0000
0100
0000
0010
,
0000
0100
0000
1000
,
0000
0000
0001
1000
,
0000
0010
0000
0100
,
0000
0010
0100
0001
,
0000
0010
0000
0100
,
0000
0010
0000
1000
,
0000
0100
0000
1000
,
0000
0010
0000
0100
,
0000
0001
0000
0010
,
0000
0001
0100
1000
,
0000
0010
0000
0100
,
0000
0010
1000
0100
,
0000
0001
0000
0010
,
0000
0100
0000
0001
,
0000
0010
0000
0002
,
0000
0000
0000
0023
,
0000
0000
0000
0230
,
0000
0000
0000
0000
0000
0300
1001
0000
;

//---------------dance-single - DWI Extreme T-8----------------
#NOTEDATA:;
#CHARTNAME:;
#CHARTHASH:944298119;
#STEPSTYPE:dance-single;
#BANNER:;
#DESCRIPTION:DWI Extreme T-8;
#CHARTSTYLE:;
#DIFFICULTY:Easy;
#METER:6;
#METERF:0.000000;
#LASTSECONDHINT:108.445206;
#RADARVALUES:0.236715,0.282027,0.035827,0.026870,0.000000,185.000000,181.000000,4.000000,3.000000,0.000000,0.000000,0.000000,0.000000,0.000000,0.236715,0.282027,0.035827,0.026870,0.000000,185.000000,181.000000,4.000000,3.000000,0.000000,0.000000,0.000000,0.000000,0.000000;
#CREDIT:DWI Extreme T-8;
#NOTES:
0000
0000
0000
0000
,
0000
0000
0000
0000
,
0000
0000
0000
0000
,
0000
0000
0000
1000
,
0001
0100
0001
1000
,
1000
0000
0010
0100
,
0001
1000
0100
0010
,
0010
0000
0001
0000
,
1000
1000
0000
0010
,
1000
0001
0010
1000
,
0010
0001
0001
0000
,
1000
0000
0100
0000
,
0010
0001
0100
0010
,
1000
0001
0010
0100
,
1000
0010
0010
0000
,
1000
0000
0001
0000
,
0100
0001
1000
0010
,
1000
0001
0100
0010
,
1000
0100
0100
0000
,
0010
0000
1000
0000
,
0001
0100
0001
1000
,
0100
0010
0001
1000
,
0010
0100
0100
0000
,
0010
0000
0100
0000
,
1000
0001
1000
0001
,
0001
0000
0100
0001
,
1000
0010
1000
0100
,
0100
0000
1000
0010
,
0100
0001
0100
1000
,
1000
0000
0001
0010
,
0100
1000
0100
0020
,
0000
0031
0000
0002
,
0000
1000
1003
0100
,
0100
0000
0010
0001
,
1000
0010
0100
0001
,
0001
0000
0010
0001
,
1000
0001
0010
0100
,
0100
0000
0010
0001
,
1000
0001
0100
0010
,
0010
0000
0100
0000
,
0001
0001
0000
1000
,
0100
1000
0100
0010
,
0001
1000
0001
0100
,
0001
0100
0001
1000
,
0100
1000
0010
1000
,
0101
0000
0001
1000
,
0100
0010
0001
0010
,
1100
0000
1000
0001
,
0100
0010
1000
0100
,
0100
0000
1000
0001
,
1000
0100
0010
0001
,
0001
0000
0100
0001
,
1000
0100
0010
0100
,
1100
1000
1000
0010
,
1000
0001
1000
0001
,
0101
0100
0100
0001
,
1000
0010
1000
0002
,
0000
0003
0000
0000
;

//---------------dance-single - DWI Extreme T-8----------------
#NOTEDATA:;
#CHARTNAME:;
#CHARTHASH:614041182;
#STEPSTYPE:dance-single;
#BANNER:;
#DESCRIPTION:DWI Extreme T-8;
#CHARTSTYLE:;
#DIFFICULTY:Medium;
#METER:7;
#METERF:0.000000;
#LASTSECONDHINT:108.445206;
#RADARVALUES:0.294295,0.307666,0.134352,0.107482,0.000000,230.000000,215.000000,15.000000,12.000000,0.000000,0.000000,0.000000,0.000000,0.000000,0.294295,0.307666,0.134352,0.107482,0.000000,230.000000,215.000000,15.000000,12.000000,0.000000,0.000000,0.000000,0.000000,0.000000;
#CREDIT:DWI Extreme T-8;
#NOTES:
0000
0000
0000
0000
,
0000
0000
0000
0000
,
0000
0000
0000
0000
,
0000
0000
0000
1000
,
0100
0001
0010
1000
,
0110
1000
1000
0002
,
0013
2000
3010
0001
,
0110
0001
0001
1000
,
0001
1000
0001
1100
,
0001
1000
0100
0010
,
0001
1000
0010
1000
,
0001
0001
0000
0000
0100
0100
0000
0000
,
0001
0001
0000
0000
1000
0000
0010
0000
,
1000
0001
0010
0100
,
1000
0010
0100
0010
,
1000
1000
0000
0000
0010
0010
0000
0000
,
1000
1000
0000
0000
0001
0000
1000
0000
,
0100
0010
0001
0100
,
0001
1000
0100
0010
,
1000
1000
0000
0000
0001
0001
0000
0000
,
1000
1000
0000
0000
0010
0000
0100
0000
,
0001
1000
0001
0010
,
0100
1000
0010
0100
,
0001
0001
0000
0000
0010
0010
0000
0000
,
0001
1000
0010
1001
,
1100
0000
0001
0000
0100
0000
0001
1000
,
0010
1000
1000
0010
,
0110
0000
0001
0000
0010
0000
0100
1000
,
0010
0100
0100
0001
,
0101
1000
0100
0020
,
0031
0200
0310
1000
,
1001
0010
0100
0002
,
0010
1000
0013
1000
,
0110
0000
1000
0000
0100
0000
0010
0100
,
1000
0001
0100
0001
,
0110
0000
0001
0000
0100
0000
0010
0100
,
0001
1000
0001
0010
,
1001
1000
0010
0200
,
0301
2000
3100
0010
,
0001
1000
0010
0100
,
0001
1000
0001
0100
,
0110
0001
1000
0100
,
0010
0001
0010
0100
,
1100
0001
0100
0010
,
1000
0001
0100
0010
,
0110
0100
0001
1000
,
0100
0010
0001
1000
,
1001
0010
0100
0010
,
0001
1000
0010
0100
,
0200
0000
0000
0001
0000
0301
0000
0000
,
1000
0100
0010
0001
,
0002
0000
0000
1000
0000
1003
0000
0000
,
0010
1000
0001
0010
,
0020
0000
0000
0100
0000
0130
0000
0000
,
1000
0001
0100
1000
,
2000
0000
0000
0010
0000
3010
0000
0100
,
0001
0000
0100
0001
0000
1000
0200
0000
,
0000
0300
0000
0000
;

//---------------dance-single - DWI Extreme T-8----------------
#NOTEDATA:;
#CHARTNAME:;
#CHARTHASH:2129027622;
#STEPSTYPE:dance-single;
#BANNER:;
#DESCRIPTION:DWI Extreme T-8;
#CHARTSTYLE:;
#DIFFICULTY:Hard;
#METER:11;
#METERF:0.000000;
#LASTSECONDHINT:108.445206;
#RADARVALUES:0.470872,0.487138,0.161222,0.179136,0.080611,368.000000,350.000000,18.000000,20.000000,0.000000,0.000000,0.000000,0.000000,0.000000,0.470872,0.487138,0.161222,0.179136,0.080611,368.000000,350.000000,18.000000,20.000000,0.000000,0.000000,0.000000,0.000000,0.000000;
#CREDIT:DWI Extreme T-8;
#NOTES:
0000
0000
0000
0000
,
0000
0000
0000
0000
,
0000
0000
0000
0000
,
0000
0000
0000
0000
0000
1001
0000
0001
,
1000
0001
0200
0000
0301
0010
0100
0000
,
1001
0000
0001
0100
1000
0010
0200
0000
,
0301
0010
0200
0000
1300
0010
0200
0000
,
0301
0000
1000
0000
0001
0000
0010
0000
0100
0000
1000
0000
0000
0000
0010
0100
,
0010
0100
0000
0000
0001
1000
0001
1000
0000
0000
0001
0010
0100
0000
0000
0000
,
1000
0001
0100
0000
0001
0010
0100
0000
,
1000
0100
0010
0001
0100
0001
0000
0010
,
0100
1000
0000
0010
0100
1000
0000
0001
,
0100
0010
1000
0001
0100
0002
0000
0013
,
0100
1000
0100
0000
1000
0010
0000
0100
,
0001
1000
0001
0100
0010
1000
0000
0001
,
0010
0100
0000
0001
0010
0100
0000
0010
,
0001
1000
0010
0100
0001
0100
0000
0001
,
0010
0100
1000
0000
0010
0100
0000
0010
,
1000
0000
0100
0000
0010
0000
0000
0001
0000
0000
0100
0000
0000
0000
0001
0000
,
1000
0100
0000
0001
1000
0100
0000
0001
,
0100
0010
1000
0001
0010
0001
1000
0000
,
0010
1000
0010
0000
1000
0100
0010
0001
,
1000
0000
0010
0000
1000
0000
0000
0001
0000
0000
0100
0000
0000
0000
0001
0000
,
0100
1000
0000
0001
0100
1000
0000
0001
,
0100
0000
0010
0000
1000
0000
0100
0000
0010
0000
0001
1000
0001
0000
0000
0000
,
1010
1000
0100
0010
0001
0200
0000
0301
,
0010
0100
0010
0001
0010
0100
1000
0000
,
0101
0001
1000
0010
0100
0002
0000
1003
,
0100
0010
0100
1000
0100
0010
0100
0000
,
0011
0010
0100
1000
0010
0100
0002
0100
,
0103
0000
2000
0010
3010
0100
0000
0001
,
1000
0001
0000
1000
0100
0010
0001
1000
,
0010
0000
0100
0000
0002
0000
0010
0000
0000
0013
0000
0000
1001
0000
0000
0000
,
1010
0010
0100
0001
0010
0200
0000
0310
,
0001
1000
0001
0100
0010
1000
0010
0000
,
0101
0100
0010
1000
0100
0020
0000
0130
,
1000
0001
0100
0001
1000
0100
0010
0000
,
1100
1000
0001
0100
0010
1000
0200
0000
,
0310
0000
0002
0000
1003
1000
0020
0000
,
1000
0000
0000
0000
0100
0000
0000
0000
1030
0000
0000
0000
0001
0000
0100
0010
,
0100
0010
0000
0000
1000
0100
1000
0100
0000
0000
0010
0100
1000
0000
0000
0000
,
1001
1000
0001
0100
0001
2000
0000
3100
,
0010
0100
0010
0000
0001
0100
0001
0000
,
0110
0010
1000
0100
0010
0002
0000
0100
,
0103
0000
0001
0010
0100
0000
1000
0000
,
1010
0000
0100
0001
0100
0000
0010
1000
,
0100
0010
0001
0000
1010
0000
0001
0000
,
0101
0100
0010
0100
0001
0020
0000
0100
,
0130
0000
1000
0010
1000
0000
0100
0000
,
0101
0000
1000
0100
0010
0002
0000
0103
,
0010
1000
0100
0000
1000
0010
1000
0000
,
0110
0000
0010
1000
0100
0010
0000
0001
,
1000
0001
0100
0000
0010
1000
0010
0000
,
1100
0000
0010
0100
1000
0100
0000
0010
,
0001
0010
0100
0000
1000
0001
1000
0000
,
0101
0000
0000
0000
0010
0000
0100
0000
1000
0000
0010
0000
0000
0000
1000
0001
,
1000
0001
0000
0000
0010
0100
0010
0100
0000
0000
1000
0000
0020
0000
0000
0000
,
0000
0030
0000
0000
;

//---------------dance-single - B. M'Rey----------------
#NOTEDATA:;
#CHARTNAME:;
#CHARTHASH:2182164158;
#STEPSTYPE:dance-single;
#BANNER:;
#DESCRIPTION:B. M'Rey;
#CHARTSTYLE:;
#DIFFICULTY:Challenge;
#METER:13;
#METERF:0.000000;
#LASTSECONDHINT:108.445206;
#RADARVALUES:0.618019,0.666610,0.134352,0.071654,0.344837,483.000000,468.000000,15.000000,8.000000,0.000000,0.000000,0.000000,0.000000,0.000000,0.618019,0.666610,0.134352,0.071654,0.344837,483.000000,468.000000,15.000000,8.000000,0.000000,0.000000,0.000000,0.000000,0.000000;
#CREDIT:B. M'Rey;
#NOTES:
// measure 0
0000
0000
0000
0000
,  // measure 1
0000
0000
0000
0000
,  // measure 2
0000
0000
0000
0000
,  // measure 3
0000
0000
0000
0000
0000
1001
0000
0010
,  // measure 4
0100
0001
0010
0000
1010
0000
0101
0000
,  // measure 5
0010
0100
0010
0000
1000
0100
1001
0000
,  // measure 6
0110
0000
0001
0010
1000
0000
1010
0000
,  // measure 7
0110
0000
0000
0000
0001
0000
0010
0000
0100
0000
0001
0000
1000
0000
0001
1000
,  // measure 8
0001
1000
0001
0000
0010
0100
0010
0100
0010
0000
0001
0000
1000
0000
0000
0000
,  // measure 9
0010
0100
0010
0000
0001
1000
0010
0000
,  // measure 10
0100
0000
0010
0000
1000
0000
0000
0100
0000
0000
0001
0000
0000
0000
0001
0000
,  // measure 11
1000
0001
0010
0000
0100
1000
0001
0000
1000
0010
0100
0000
0001
1000
0010
0000
,  // measure 12
0001
1000
0010
0000
0010
0000
1000
0000
0100
0000
1000
0000
0200
0000
0000
0000
,  // measure 13
0301
0010
0110
0000
0100
1000
0000
0100
,  // measure 14
0010
0000
1000
0000
0100
0000
0000
0000
0001
0000
0100
0000
0100
0010
0001
0000
,  // measure 15
0010
1000
0100
0000
0100
1000
0100
0000
0001
0010
0001
0000
0100
1000
0010
0000
,  // measure 16
0001
0010
0100
0000
0001
0000
0100
0000
0010
0000
1000
0000
0001
0000
0010
0000
,  // measure 17
0100
0010
0100
0000
0001
0010
0100
0000
,  // measure 18
0001
0000
1000
0000
0010
0000
0000
0100
0000
0000
0010
0000
0001
0100
0010
0000
,  // measure 19
0010
1000
0001
0000
0100
1000
0100
0000
0100
0010
0001
0000
0001
1000
0100
0000
,  // measure 20
0001
0010
0100
0000
0100
0000
0010
0000
0001
0000
0010
0000
0200
0000
0000
0000
,  // measure 21
0310
0100
0002
0000
0013
1000
0010
1000
,  // measure 22
0100
0000
0010
0000
0100
0000
0010
0000
0001
0000
0100
0000
0100
1000
0100
0000
,  // measure 23
0010
0100
0001
0000
0100
1000
0001
0000
0001
1000
0100
0000
0010
0000
0010
0000
,  // measure 24
0100
0000
0100
0000
0010
0000
0010
0000
0100
0000
0100
0001
0100
0000
1000
0010
,  // measure 25
0001
0100
0010
1000
0001
0020
0000
0130
,  // measure 26
0010
0000
1000
0000
0001
0000
0100
0010
0100
0000
1000
0010
1000
0000
0100
0000
,  // measure 27
0010
0100
0002
0010
0103
1010
0000
1000
,  // measure 28
0100
0000
0010
0000
0001
0010
0001
0000
0100
1000
0100
0000
0110
0000
0000
0000
,  // measure 29
0001
0000
1000
0000
0010
0000
1000
0000
0100
0000
0010
0000
0001
1000
0001
0000
,  // measure 30
0010
0100
0010
0000
0001
1000
0001
0000
0100
0010
0100
0000
0001
0000
0100
0000
,  // measure 31
0001
0010
0100
0010
0100
0010
0001
1000
,  // measure 32
0001
0000
0010
0000
0001
0000
0100
0010
0000
0010
0100
0000
1010
0000
1000
0000
,  // measure 33
0100
1000
0010
1000
0001
0010
0100
1000
,  // measure 34
0100
0000
0010
0000
0100
0000
0010
0000
0001
0100
0001
0100
0001
0000
1000
0010
,  // measure 35
0100
0010
0001
0100
0010
0200
0000
1300
,  // measure 36
0010
0000
0100
0000
0001
0010
0001
0000
0001
0010
0001
0000
0001
1000
0001
0000
,  // measure 37
0010
0000
0100
0000
0001
0010
1000
0000
0100
0000
0010
0000
0001
0010
0001
0000
,  // measure 38
0100
0010
0100
0000
0100
1000
0100
0000
0001
0100
0001
0000
0001
0000
1000
0000
,  // measure 39
0001
0000
1000
0000
0010
0000
0100
0000
0010
0000
1000
0000
0001
0000
1000
0001
,  // measure 40
1000
0001
1000
0000
0010
0100
0010
0100
0010
0000
0001
0000
1001
0000
0000
0000
,  // measure 41
0110
0000
0100
1000
0100
0010
0100
1000
,  // measure 42
0001
0000
1000
0000
0010
0000
1000
0100
1000
0000
0010
0001
0010
0000
0010
0000
,  // measure 43
0100
1000
0001
0010
0100
1000
0001
1000
,  // measure 44
0100
0000
0010
0000
0001
0100
0001
0000
0010
0100
0010
0000
0001
0000
0100
0000
,  // measure 45
0010
1000
0100
1000
0010
1000
0100
0010
,  // measure 46
0001
0000
1000
0000
0010
0000
0100
0000
0001
0000
0010
0000
0100
1000
0100
0000
,  // measure 47
0001
1000
0001
0000
0100
0010
0100
0000
0001
0100
0001
0000
0001
0010
0001
0000
,  // measure 48
0001
1000
0010
0100
0001
0010
1100
0000
,  // measure 49
1100
0000
0010
0100
0001
0010
0001
1000
,  // measure 50
0010
0000
0100
0000
0010
0000
0100
0000
0001
0100
0001
0000
0010
1000
0010
0000
,  // measure 51
0100
0010
0100
0010
0001
1000
0001
0100
,  // measure 52
0001
0000
1000
0000
0100
1000
0100
0000
0100
0010
0100
0000
0001
0000
1000
0000
,  // measure 53
0001
0010
0100
1000
0001
0100
0010
0100
,  // measure 54
0010
0000
1000
0000
0010
0000
1000
0000
0100
0000
1000
0000
0001
0010
0001
0000
,  // measure 55
0001
1000
0001
0000
0001
0100
0001
0000
0010
0100
0010
0000
0010
0100
0010
0100
,  // measure 56
0010
0000
0100
0000
0001
0100
0001
0100
0001
0000
0100
0010
0002
0000
0000
2000
,  // measure 57
0000
3003
0000
0000
;
