#VERSION:0.83;
#TITLE:Parle à ta tête;
#ARTIST:Indila;
#TITLETRANSLIT:Parle a ta tete;
#GENRE:CHANSON;
#CREDIT:B. M'Rey;
#MUSIC:Parle a ta tete.ogg;
#BANNER:Parle a ta tete-BN.png;
#BACKGROUND:Parle a ta tete-bg.png;
#CDTITLE:./CDTITLES/LICENSED MUSIC.png;
#SAMPLESTART:31.790;
#SAMPLELENGTH:15;
#OFFSET:-0.154;
#BPMS:0.000=128.018;

//--------------- dance-single - B. M'Rey ----------------
#NOTEDATA:;
#STEPSTYPE:dance-single;
#DESCRIPTION:B. M'Rey;
#CREDIT:B. M'Rey;
#DIFFICULTY:Beginner;
#METER:3;
#RADARVALUES:0,0,0,0,0;
#NOTES:
0000
0000
0000
0000
,
0000
0000
0000
0000
,
0000
0000
0000
1000
,
0001
0000
0000
0000
,
0000
0000
0000
0010
,
0100
0000
0000
0000
,
0000
0000
0000
0001
,
1000
0000
0000
0000
,
0000
0000
0000
0100
,
0010
0000
0001
0000
,
1000
0000
0010
0000
,
0100
0001
0100
0000
,
0010
1000
0010
0000
,
0100
0000
0010
0000
,
1000
0000
0001
0000
,
0010
0000
0001
0000
,
1000
0000
0000
0000
,
0001
0000
0000
0000
,
0100
0000
0000
0000
,
0010
0000
0000
0000
,
1000
0000
0000
0000
,
0001
0000
1000
0000
,
0010
0000
0100
0000
,
0001
0000
0010
0000
,
0001
0000
0100
0000
,
0110
0000
0000
0000
,
0000
0000
0000
0000
,
0000
0000
0000
0000
,
0000
0000
0000
0000
,
0001
0000
1000
0000
,
0010
0000
0100
0010
,
0110
0000
0000
0001
,
0011
0000
0000
0000
,
1000
0000
0010
0000
,
0100
0000
0001
0000
,
0010
0000
0001
0000
,
0100
0000
0010
0000
,
1000
0000
0010
0000
,
0100
0000
0001
0000
,
0010
0000
0001
0000
,
0100
0000
0010
0000
,
1000
0000
0000
0000
,
0000
0000
0000
0000
,
0001
0000
0000
0000
,
0000
0000
0000
0000
,
0100
0000
0000
0000
,
0010
0000
0000
0000
,
1000
0000
0000
0000
,
0001
0000
0000
0000
;

//--------------- dance-single - B. M'Rey ----------------
#NOTEDATA:;
#STEPSTYPE:dance-single;
#DESCRIPTION:B. M'Rey;
#CREDIT:B. M'Rey;
#DIFFICULTY:Easy;
#METER:5;
#RADARVALUES:0,0,0,0,0;
#NOTES:
0000
0000
0000
0000
,
0010
0100
0010
0001
,
0100
0010
1000
0100
,
0010
0000
0000
0010
,
0100
0001
0000
0000
,
0100
0001
1000
0010
,
0100
0001
0010
0100
,
1000
0000
0000
0001
,
1000
0000
0000
0010
,
1000
0000
0010
0000
,
0100
0000
0001
0000
,
1000
1000
0001
0001
,
0100
0100
0010
0010
,
1000
0001
1000
0001
,
1000
0100
0010
0100
,
0010
0100
1000
0001
,
1000
0000
0000
0000
,
0001
0000
0100
0000
,
0010
0100
0010
0000
,
0100
0010
0100
0000
,
0010
0100
0010
0000
,
1000
0000
0001
0000
,
0100
0001
0100
0000
,
0001
0100
0001
0000
,
0100
0001
0100
0000
,
0010
0000
1000
0000
,
0100
0000
0001
0000
,
0010
0000
0001
0000
,
0100
0000
0010
0000
,
1000
0001
1000
0001
,
1000
0010
0100
0010
,
1001
0000
0000
0001
,
0101
0000
0010
1000
,
0100
0000
0001
0000
,
0001
0100
0001
0000
,
0100
0001
0100
0000
,
0001
0100
0001
0000
,
0010
0000
1000
0000
,
0010
1000
0010
0000
,
1000
0010
1000
0000
,
0010
1000
0010
0000
,
0100
0000
0001
0000
,
1000
0000
0010
0000
,
0100
0000
0001
0000
,
0010
0000
0001
0000
,
1000
0000
0001
0000
,
0100
0000
0010
0000
,
1000
0000
0001
0000
,
0100
0000
0000
0000
;

//--------------- dance-single - B. M'Rey ----------------
#NOTEDATA:;
#STEPSTYPE:dance-single;
#DESCRIPTION:B. M'Rey;
#CREDIT:B. M'Rey;
#DIFFICULTY:Medium;
#METER:9;
#RADARVALUES:0,0,0,0,0;
#NOTES:
0000
0000
0000
0000
,
0000
0001
0010
0001
0010
0100
1000
0100
,
1000
0000
0010
0001
0000
0001
0010
0000
,
1000
0000
0000
0000
0000
0001
0010
0001
,
0000
1000
0000
0010
0000
0000
0000
0000
,
0101
0000
0100
0001
0010
0001
0010
0100
,
0010
0000
1000
0000
1000
0001
0010
0001
,
0010
0000
0000
0000
0000
0010
1000
0010
,
1000
0000
0000
0000
0000
0010
0100
0010
,
0100
0001
0010
1000
,
0010
0100
0001
0010
,
1000
0001
1000
0010
1000
0010
0100
0010
,
0100
0001
1000
0001
1000
0001
1000
0010
,
1000
0100
0010
0001
0100
0010
0100
0001
,
1000
0010
0100
0010
1000
0100
0010
0001
,
0010
0000
1000
0000
0100
0010
1000
0100
,
1000
0001
0010
0100
,
0001
1000
0001
1000
0001
0000
0100
0000
,
0010
0100
0010
0100
0010
0000
0001
0000
,
1000
0001
1000
0001
1000
0000
0010
0000
,
1000
0010
1000
0010
1000
0000
0100
0000
,
0100
0001
0100
0001
0100
0000
0010
0000
,
1000
0010
1000
0010
1000
0000
0100
0000
,
0010
0100
0010
0100
0010
0000
0001
0000
,
1000
0001
1000
0001
1000
0000
0010
0000
,
1000
0001
1000
0100
,
0010
0100
0010
0100
,
1000
0001
1000
0100
,
1000
0100
0010
0100
,
0100
0010
1000
0100
0010
0001
0100
0010
,
1000
0100
0010
0001
0100
0010
1000
0010
,
1010
0000
0100
0000
0010
0001
0100
0010
,
1100
0000
0010
0000
0100
0010
1000
0010
,
0001
0000
0100
0001
0100
0000
0001
0000
,
1000
0010
1000
0010
1000
0000
0100
0000
,
0010
0100
0010
0100
0010
0000
0001
0000
,
0100
0001
0100
0001
0100
0000
0010
0000
,
1000
0010
1000
0010
1000
0000
0100
0000
,
0010
0100
0010
0100
0010
0000
0001
0000
,
1000
0001
1000
0001
1000
0000
0010
0000
,
0100
0010
0100
0010
0100
0000
0001
0000
,
0100
0010
0100
0001
,
0100
0001
0010
0001
,
0100
0010
0100
0001
,
1000
0001
0100
0010
,
0010
0001
0100
0010
0100
0001
0010
0100
,
0010
0001
0100
0001
0010
0001
0100
0010
,
1000
0001
0100
0010
,
2000
0000
0000
0000
0000
0000
0000
3000
;

//--------------- dance-single - B. M'Rey ----------------
#NOTEDATA:;
#STEPSTYPE:dance-single;
#DESCRIPTION:B. M'Rey;
#CREDIT:B. M'Rey;
#DIFFICULTY:Hard;
#METER:11;
#RADARVALUES:0,0,0,0,0;
#NOTES:
0000
0000
0000
0000
,
0000
1000
0001
1000
0001
1000
0100
0010
0100
0010
0100
1000
,
0001
0000
0000
1000
0010
0000
0100
0000
0001
0100
0001
0010
,
0001
1000
0000
0000
0000
0000
0000
0010
0001
1000
0000
0100
,
0000
1000
0000
0010
0001
0000
0000
0000
0000
1100
0000
0000
,
0110
0000
0001
0010
0001
0000
0001
0100
0000
0100
0010
0000
,
0100
0000
1000
0000
0001
0010
0001
0000
0001
1000
0010
0000
,
1100
0000
0000
0000
0000
0000
0000
1000
0001
1000
0000
0000
,
0110
0000
0000
0000
0000
0000
0000
0100
0010
1000
0100
0000
,
0011
0100
1000
0010
,
0100
0001
0100
0010
,
1000
0001
1000
0010
1000
0010
0100
0010
,
0100
0000
0001
0000
0100
0000
0001
0000
0010
0000
0100
0000
1000
0000
0001
0010
,
0001
0000
0100
0000
0010
0000
0100
0010
0100
0000
0001
0000
0100
0001
0100
0000
,
0100
0000
0001
0100
0010
0000
0100
1000
0010
0000
0100
0001
0010
0000
0001
0010
,
0100
0000
0001
0000
1000
0000
0001
0000
1000
0000
0010
1000
0010
0000
0010
0000
,
0100
0001
0010
1000
,
0001
0000
0100
0000
0001
0000
0010
0000
0100
0000
0000
0010
0000
0000
1000
0000
,
0100
0000
1000
0000
0001
0000
0010
0000
0100
0000
0000
0001
0000
0000
1000
0000
,
0100
0000
1000
0000
0010
0000
0100
0000
0001
0000
0000
0010
0000
0000
0100
0000
,
0001
0000
0010
0000
0100
0000
1000
0000
0010
0000
0000
0100
0000
0000
1000
0000
,
0001
0000
0100
0000
0001
0000
0010
0000
0001
0000
0000
0100
0000
0000
1000
0000
,
0001
0000
0100
0000
0010
0000
1000
0000
0100
0000
0000
0010
0000
0000
0100
0000
,
0010
0000
1000
0000
0100
0000
0010
0000
0001
0000
0000
0010
0000
0000
1000
0000
,
0100
0000
0010
0000
0100
0000
1000
0000
0010
0000
0000
0100
0000
0000
0010
0000
,
0001
0100
0010
1000
,
0100
0010
0001
0100
,
0010
0100
0010
1000
,
0100
1000
0100
0010
,
0100
0000
0000
0001
0000
0000
0010
0000
1000
0000
0010
0000
1000
0000
0010
0000
0100
0000
0001
0000
0100
0000
0001
0000
,
0100
0000
0000
0000
0000
0000
0010
0000
0000
0000
0001
0000
0100
0000
0000
1000
0000
0000
0100
0000
0000
0010
0000
0000
,
0011
0000
0110
0000
0100
1000
0100
1000
,
1001
0000
0011
0000
0001
0010
0100
1000
,
0100
0001
1000
0010
,
0100
0010
0001
1000
,
0010
0100
0001
0010
,
0001
0100
0010
1000
,
0001
0000
0010
0000
0001
0000
0100
0000
0001
0000
0000
0010
0000
0000
0100
0000
,
0001
0000
0010
0000
0100
0000
1000
0000
0010
0000
0000
0001
0000
0000
0010
0000
,
0001
0000
0010
0000
0100
0000
0010
0000
0001
0000
0000
0010
0000
0000
1000
0000
,
0010
0000
0100
0000
0001
0000
1000
0000
0100
0000
0000
0001
0000
0000
0100
0000
,
0000
1100
0110
0011
,
1001
0110
0110
0011
,
0101
0110
1001
0110
,
0110
1010
0011
1100
,
0010
0100
0001
0100
0001
1000
0100
1000
,
0001
1000
0001
0010
0001
0010
0100
1000
,
0001
1000
0001
1000
,
0002
0000
0000
0000
0000
0000
0000
0003
;

//--------------- dance-single - B. M'Rey ----------------
#NOTEDATA:;
#STEPSTYPE:dance-single;
#DESCRIPTION:B. M'Rey;
#CREDIT:B. M'Rey;
#DIFFICULTY:Challenge;
#METER:13;
#RADARVALUES:0,0,0,0,0;
#NOTES:
0000
0000
0000
0000
,
0000
0000
0000
0100
0000
1000
0000
0100
0000
0010
0000
0100
0000
0010
0000
0001
0000
1000
0000
0010
0000
1000
0000
0100
,
0000
1000
0000
0010
0000
0000
0000
0010
0000
0100
0000
0000
0000
1000
0000
0001
0000
0100
0000
0010
0000
1000
0000
0001
,
0000
0010
0000
0000
0000
0000
0000
0000
0000
0000
0000
0000
0000
0000
0000
0100
0000
0010
0000
0001
0000
0000
0000
0100
,
0000
0000
1000
0010
0000
0000
0000
0000
0000
0101
0000
0000
,
1010
0000
0000
0010
0000
1000
0000
0010
0000
1000
0000
0010
0000
0000
0000
0100
0000
1000
0000
0001
0000
0100
0000
0000
,
0010
0000
0000
0000
0100
0000
0000
0001
0000
0010
0000
0001
0000
0000
0000
0010
0000
0100
0000
0001
0000
0000
0000
0000
,
0110
0000
0000
0000
0000
0000
0000
0000
0000
0000
0000
0000
0000
1000
0000
0100
0000
0010
0000
0000
0000
0000
1000
0000
,
0010
0000
0000
0000
0000
0000
0000
0000
0000
0000
0000
0000
0000
0010
0000
0100
0000
1000
0000
0001
0000
0100
0000
0000
,
0010
0100
0010
0100
0010
1000
0001
0010
,
0001
0010
0001
0100
0010
0100
0010
1000
,
0001
0000
0001
0100
0001
0000
0100
1000
0001
0000
0010
1000
0100
0000
0001
0010
,
0001
0000
0100
0010
0001
0000
0010
0100
0001
0000
1000
0000
0001
0010
0001
0000
,
0100
0000
0010
1000
0001
0010
0100
0000
1000
0000
0001
0010
0100
0000
0010
1000
,
0010
0000
0001
0010
0100
0000
0100
0010
0001
0000
0010
1000
0001
0000
0100
0010
,
0100
0000
1000
0000
0001
0000
0010
0000
0100
0000
0001
0100
0010
0000
0001
0100
,
0002
0000
2003
0000
3020
0000
0230
0301
,
1100
0000
1100
0000
1010
0000
0110
0000
0101
0000
0000
1001
0000
0000
0100
0000
,
0110
0000
0110
0000
1001
0000
0101
0000
1010
0000
0000
1001
0000
0000
0001
0000
,
0110
0000
1100
0000
1100
0000
0101
0000
0101
0000
0000
0110
0000
0000
0001
0000
,
0110
0000
1010
0000
0101
0000
1010
0000
1010
0000
0000
0110
0000
0000
0100
0010
,
0001
0000
0100
0010
0100
0000
0100
1000
0001
0000
0001
1000
0100
0000
0100
1000
,
0001
0000
0100
1000
0100
0000
0001
0100
0010
0000
0001
0100
0010
0000
0001
1000
,
0001
0000
0100
0010
0100
0000
0100
1000
0010
0000
0010
0100
0001
0000
0010
0100
,
0010
0000
0100
0010
0100
0000
0100
1000
0010
0000
0001
1000
0010
0000
0100
0000
,
0001
0000
0001
0100
0010
1000
0100
0000
0100
0010
0100
1000
,
0001
0000
0010
1000
0000
0010
0001
0000
0100
0010
0001
0100
,
0010
0000
0000
0100
0000
0000
0010
0000
0001
0100
0000
0000
,
0010
1000
0001
1000
,
0100
0000
0000
0000
0001
0000
1000
0000
0100
0000
1000
0000
0100
0000
0000
0010
0000
0000
1000
0000
0001
0000
0010
0000
,
0100
0000
0000
0000
0000
0000
0001
0000
0000
0000
0000
0000
0100
0000
0000
0000
0010
0000
0000
0000
0100
0000
0000
0000
0001
0000
0000
0000
0000
0000
0010
0000
0000
0100
0000
0000
1000
0000
0000
0000
0000
0000
0001
0000
0000
0010
0000
0000
,
0100
0000
0001
0000
0010
0000
0001
0000
0010
1000
0001
0100
0001
0000
0001
0010
,
0100
0000
0010
0000
0001
0000
1000
0000
0100
0000
0010
1000
0100
0000
0001
0000
,
1010
0000
1010
0000
1100
0000
0110
0000
0011
0000
0000
1001
0000
0000
0010
0000
,
0110
0000
0110
0000
1001
0000
0011
0000
1100
0000
0000
1001
0000
0000
0001
0000
,
0110
0000
1010
0000
1010
0000
0011
0000
0011
0000
0000
0110
0000
0000
0001
0000
,
0110
0000
1100
0000
0011
0000
1100
0000
1100
0000
0000
0110
0000
0000
0010
0001
,
1000
0000
0010
0100
1000
0000
0010
0001
0100
0000
0100
0001
1000
0000
1000
0100
,
0010
0000
0100
0001
0010
0000
0100
0010
1000
0000
0010
0001
0100
0000
0010
0001
,
1000
0000
1000
0100
0010
0000
0100
0001
0010
0000
0100
0010
1000
0000
0100
0001
,
1000
0000
0010
0100
1000
0000
0100
0001
0010
0000
0100
0001
0010
0000
0001
0000
,
1000
0100
0001
1000
,
0100
1000
0100
0010
,
0100
0010
0001
0100
,
0010
1000
0010
1000
,
0001
1000
0001
1000
0001
0010
0100
0010
0100
0010
0001
1000
0001
1000
0001
0010
,
0100
0010
0100
0010
0001
0100
0001
1000
0001
0000
0000
1000
0001
0000
0010
0000
,
0100
1000
0010
0100
,
0001
0000
1000
0000
0020
0000
0000
0030
;
