#VERSION:0.83;
#TITLE:One More Night (Poison Beat Remix);
#ARTIST:Cascada;
#GENRE:EURODANCE;
#MUSIC:One More Night (Poison Beat Remix).ogg;
#BANNER:One More Night (Poison Beat Remix).png;
#BACKGROUND:One More Night (Poison Beat Remix)-bg.png;
#CDTITLE:./CDTITLES/TechPara International Vol. 2.png;
#SAMPLESTART:72.222;
#SAMPLELENGTH:15;
#OFFSET:-0.406;
#BPMS:0=142.029;

//--------------- dance-single - B. M'Rey ----------------
#NOTEDATA:;
#STEPSTYPE:dance-single;
#DESCRIPTION:B. M'Rey;
#CREDIT:B. M'Rey;
#DIFFICULTY:Beginner;
#METER:4;
#RADARVALUES:0,0,0,0,0;
#NOTES:
0000
0000
0000
0000
,
0000
0000
0000
0000
,
0000
0000
0000
0000
,
0000
0000
0000
0000
,
0000
0000
0000
0000
,
0000
0000
0000
0000
,
0000
0000
0000
0000
,
0000
0000
0000
0000
,
1001
0000
0000
0000
,
1000
0000
0010
0000
,
0100
0100
0100
0000
,
0001
0000
0010
0000
,
0001
0001
0001
0000
,
0100
0000
0010
0000
,
1000
1000
1000
0000
,
0100
0000
0010
0000
,
0001
0001
0001
0000
,
1000
0000
0010
0000
,
0100
0100
0100
0000
,
0010
0000
0001
0000
,
1000
1000
1000
0000
,
0010
0000
0100
0000
,
0001
0001
0001
0000
,
0100
0000
0010
0000
,
1000
1000
1000
0000
,
1001
0000
0000
0000
,
1001
0000
0000
0000
,
1000
0000
0000
0000
,
0010
0000
0100
0000
,
0001
0000
0000
0000
,
0010
0000
0100
0000
,
0001
0000
0000
0000
,
1000
0000
0010
0000
,
0100
0000
0000
0000
,
0000
0000
0001
0000
,
0010
0000
0000
0000
,
0100
0000
0010
0000
,
1000
0000
0000
0000
,
0010
0000
0100
0000
,
0000
0001
0000
0000
,
0010
0000
0001
0000
,
0100
0000
0000
0000
,
1001
0000
1000
0001
,
0010
0000
0001
0000
,
0010
0000
1000
0000
,
0010
0000
0100
0000
,
0001
0000
0010
0000
,
0100
0000
1000
0010
,
1000
0000
0100
0000
,
0100
0000
0010
0000
,
1000
0000
0100
0010
,
0100
0000
0001
0000
,
1000
0000
0100
0000
,
0010
0000
0001
0000
,
1000
0000
0010
0001
,
0100
0000
0001
0000
,
0010
0000
0100
0000
,
0010
0000
0100
0000
,
0001
0000
1000
0000
,
1001
0000
0000
0000
;

//--------------- dance-single - B. M'Rey ----------------
#NOTEDATA:;
#STEPSTYPE:dance-single;
#DESCRIPTION:B. M'Rey;
#CREDIT:B. M'Rey;
#DIFFICULTY:Easy;
#METER:6;
#RADARVALUES:0,0,0,0,0;
#NOTES:
0000
0000
0000
0000
,
0000
0000
0000
0000
,
0000
0000
0000
0000
,
0000
0000
0000
0000
,
0000
0000
0000
0000
,
1000
0000
0010
0100
,
0001
0000
0000
0000
,
1000
0000
0010
0000
,
0110
0000
0001
0010
,
1001
0001
0010
0001
,
0010
0100
0010
0100
,
1000
0100
1000
0001
,
1000
0001
0100
0001
,
0100
0010
0100
0010
,
1000
0010
1000
0001
,
1000
0001
0010
0001
,
0010
0100
0010
0100
,
1100
0100
1000
0010
,
1000
0010
0100
0010
,
0100
0001
0100
0001
,
0010
0001
0010
0100
,
1000
0100
0010
0100
,
0010
0001
1000
0001
,
0010
0001
1000
0010
,
1000
0010
1000
0100
,
0010
0000
0001
0000
,
1000
0000
0010
0000
,
1000
0000
0001
0000
,
0010
0100
0001
1000
,
0010
0000
0100
0000
,
0010
1000
0100
0001
,
0010
0000
0100
0000
,
0001
0010
0001
0100
,
0010
0000
1000
0000
,
0100
0000
0001
0010
,
1000
0000
0010
0000
,
0100
0010
0001
0010
,
1000
0100
0000
0010
,
1000
0001
0010
0100
,
0000
0010
0000
0001
,
0010
1000
0100
0010
,
0001
0000
1000
0000
,
1001
0000
0001
1000
,
0010
0000
0100
0010
,
0100
0000
0001
0010
,
0001
0010
0100
0010
,
1000
0100
1000
0010
,
0100
0000
0001
0010
,
1000
0000
0100
0010
,
0100
0010
0001
0010
,
0001
0100
0010
1000
,
1001
0000
0010
0100
,
0101
0000
0010
1000
,
0100
0010
0001
0010
,
0100
1000
0100
0010
,
1001
0000
0010
0100
,
0101
0000
0010
1000
,
0100
0010
0001
0010
,
0100
0001
1000
0001
,
1001
0000
0000
0000
;

//--------------- dance-single - B. M'Rey ----------------
#NOTEDATA:;
#STEPSTYPE:dance-single;
#DESCRIPTION:B. M'Rey;
#CREDIT:B. M'Rey;
#DIFFICULTY:Medium;
#METER:9;
#RADARVALUES:0,0,0,0,0;
#NOTES:
0000
0000
0000
0000
,
1001
0000
1000
0001
,
0010
0000
0000
0000
,
0100
0000
0000
0000
,
0010
0000
0001
1000
,
0010
0000
0100
0010
,
1000
0000
0000
0000
,
0001
0000
0010
0000
,
0110
0000
0001
1000
,
0010
0001
0010
0000
1000
0000
0100
1000
,
0000
0010
0000
0100
0001
0000
0010
0000
,
0001
0010
0001
0000
0100
0000
0010
1000
,
0000
0100
0000
0010
0000
0001
1000
0000
,
0010
0100
0010
0000
1000
0000
0100
1000
,
0000
0010
0000
0001
0010
0000
0100
0000
,
0010
0100
0010
0000
0001
0000
0010
1000
,
0000
0100
0000
0001
0010
0000
0001
0000
,
0110
0000
0100
0000
1000
0000
0100
1000
,
0000
0010
0000
0001
0010
0000
0100
0000
,
0010
0100
0010
0000
0001
0000
1000
0010
,
0000
0100
0000
0001
0000
0010
1000
0010
,
0100
0000
0001
0000
1000
0000
0010
0100
,
0000
0001
0000
0010
0001
0000
1000
0000
,
0010
1000
0010
0000
0100
0000
0010
0100
,
0000
0001
0000
0010
0000
0001
0010
0001
,
0100
0010
1000
0100
,
0001
0000
0100
0000
,
0010
0000
0001
0000
0010
0000
1000
0100
,
1000
0000
0010
0100
0000
0001
0000
0010
,
0000
0100
0000
0001
0000
0000
0010
1000
,
0010
0000
0100
0001
0000
0010
0000
1000
,
0000
0100
0000
1000
0000
0000
0000
0010
,
0100
0000
0001
0010
0000
1000
0000
0200
,
0000
0010
0010
0301
,
0001
0010
0010
0100
,
1000
0100
1000
0010
,
0001
0010
0001
0000
0100
0000
0010
1000
,
0000
0100
0000
0010
0000
0000
0001
0010
,
1000
0000
0100
1000
0000
0020
0000
0000
,
0000
0130
0000
0001
1000
0000
0100
0000
,
0010
0000
1000
0010
0000
0100
0000
0001
,
0000
1000
0010
0000
0100
0010
0100
0000
,
1001
0000
0100
0010
,
0001
0000
0000
0001
0010
0000
0001
1000
,
0010
0000
0000
0100
0010
0100
0010
2000
,
0000
3000
0001
1000
0000
0000
0010
0100
,
0000
0011
0000
0110
0000
0000
0001
1000
,
0000
0010
0000
0100
0001
0100
0001
0100
,
0001
0000
0000
0010
1000
0100
1000
0010
,
0000
0100
0000
0010
0000
0000
0001
0010
,
0000
1000
0000
0010
0000
0001
1000
0010
,
1001
0000
1001
0000
0010
0100
0010
0100
,
0001
0000
0010
0000
1000
0100
1000
0100
,
0000
0000
0001
0010
0000
0100
0000
0010
,
0000
0001
0000
1000
0000
0000
0001
1000
,
0010
0000
0100
0000
0010
0001
0010
0001
,
0010
0000
1000
0000
0010
0100
0001
0100
,
0000
0010
0000
1000
0000
0000
0010
1000
,
0000
0100
0000
0010
0001
0000
1000
0000
,
1001
0000
0000
0000
;

//--------------- dance-single - B. M'Rey ----------------
#NOTEDATA:;
#STEPSTYPE:dance-single;
#DESCRIPTION:B. M'Rey;
#CREDIT:B. M'Rey;
#DIFFICULTY:Hard;
#METER:11;
#RADARVALUES:0,0,0,0,0;
#NOTES:
0000
0000
0000
0000
,
1001
0000
0001
0010
,
0100
0000
0100
0000
,
0010
0000
0010
0000
,
0001
0000
1000
0100
,
0010
0000
0001
0010
,
0100
0000
0100
0000
,
0001
0000
0001
0000
,
1001
0000
0110
0101
,
0001
0100
0001
1000
0010
1000
0010
1000
,
0000
0010
0000
0010
0100
0000
0010
0000
,
0001
0100
0001
0100
0010
1000
0010
1000
,
0000
0100
0000
0010
0000
1000
0010
1000
,
0010
0100
0001
0100
0001
0100
0010
1000
,
0000
0010
0000
0100
0001
0000
0110
0000
,
0010
1000
0010
1000
0001
1000
0001
0100
,
0001
1000
0010
1000
0000
1000
0001
0010
,
0011
0000
0101
0000
0010
0100
0010
0100
,
0000
0010
0000
1000
0010
1000
0001
0000
,
1001
0000
0110
0000
0010
1000
0010
0100
,
0000
0100
0010
0100
0000
1000
0010
1000
,
1001
0000
0011
0000
0001
0010
0100
0010
,
0000
1000
0100
1000
0001
0000
0011
0000
,
0110
0000
1100
0000
0100
1000
0010
1000
,
0000
0100
0001
1000
0000
1000
0010
1000
,
0100
0010
0001
0010
,
0100
0000
0000
0000
1000
0000
0000
0000
0100
0010
0000
0001
1000
0000
0001
0000
,
0100
0000
0100
0010
0001
0000
0100
1000
,
0001
0000
0010
0200
0000
0000
0301
0100
,
0000
1000
0000
0001
0000
0100
0010
0100
,
0001
0000
0001
1000
0000
0100
0000
1000
,
0010
0000
0001
0000
0100
1000
0100
0000
,
0100
0000
0001
0010
0000
0010
0001
1000
,
0100
0010
0100
0000
0001
0100
0001
0000
,
0010
1000
0010
0000
0100
0000
1000
0000
,
0100
1000
0001
1000
0010
1000
0010
0100
,
0010
0100
0001
1000
0100
1000
0100
1000
,
0010
0100
0010
1000
0010
1000
0100
1000
,
0100
0010
0100
0010
0001
0020
0000
0100
,
0000
0130
0000
0100
0010
1000
0010
1000
,
0100
1000
0100
0010
0100
0010
0001
1000
,
0001
1000
0001
0100
0010
1000
0010
1000
,
1001
0110
0011
1100
,
1100
0000
0100
1000
0100
0010
0001
0010
,
1001
0000
1001
0000
0100
1000
0100
0010
,
0001
0010
0000
0011
0000
1001
0000
1000
,
0010
1000
0010
0100
0000
0100
0001
1000
,
1001
0000
1001
0000
0010
0100
0010
0100
,
0011
0000
1100
0000
0100
1000
0100
0010
,
0000
0010
0001
0010
0000
1000
0001
1000
,
0000
1100
0000
0110
0000
0010
0100
1000
,
1001
0000
1100
0000
0100
0010
0100
0010
,
0011
0000
1001
0000
0001
1000
0100
1000
,
0100
0000
0100
0010
0000
0001
0000
0100
,
0001
1000
0000
0010
0000
1000
0001
0010
,
0011
0000
1001
0000
0010
1000
0010
1000
,
0101
0000
1010
0000
0001
1000
0010
1000
,
0000
1000
0100
0010
0000
0010
0100
1000
,
0000
1001
0000
1000
0110
0000
0110
0000
,
0110
0000
0000
0000
;
