#VERSION:0.83;
#TITLE:ONLY IF I;
#ARTIST:KATE RYAN;
#GENRE:TRANCE;
#MUSIC:Only If I.ogg;
#BANNER:Only If I.png;
#BACKGROUND:Only If I-bg.png;
#CDTITLE:./CDTITLES/Dancemania EX7.PNG;
#SAMPLESTART:34;
#SAMPLELENGTH:15;
#OFFSET:-0.114;
#BPMS:0=70,40=140;

//--------------- dance-single - B. M'Rey ----------------
#NOTEDATA:;
#STEPSTYPE:dance-single;
#DESCRIPTION:B. M'Rey;
#CREDIT:B. M'Rey;
#DIFFICULTY:Beginner;
#METER:3;
#RADARVALUES:0,0,0,0,0;
#NOTES:
0000
0000
0000
0000
,
0000
0000
0000
0000
,
0000
1000
0000
0010
,
0200
0000
0300
0000
,
0000
0001
0000
0010
,
1000
0000
0000
0000
,
0100
0000
0010
0000
,
1000
0000
0001
0000
,
2000
3000
0002
0003
,
1000
0000
0000
0000
,
1001
0000
0010
0000
,
0100
0010
1000
0000
,
0010
0000
0100
0000
,
0010
0000
0001
1000
,
0000
0010
0000
0100
,
0000
0000
0010
0000
0000
0000
0000
0002
,
0000
0000
0000
0000
,
0000
0000
0000
0003
1000
0000
0001
0000
,
0000
0000
0100
0000
,
0010
0001
1000
0000
,
0010
0000
0100
0000
,
0010
0000
1000
0001
,
0000
0010
0000
0100
,
0000
0000
0010
0000
0000
0000
0000
2000
,
0000
0000
0000
0000
,
0000
0000
0000
3000
0001
0000
0010
0000
,
0000
0000
0100
0000
,
0010
0000
1000
0000
,
0001
0000
0000
0000
,
0000
0000
0000
0000
,
0000
0000
0100
0000
,
0010
0000
1000
0000
,
0010
0000
0100
0000
,
0001
0000
0000
0000
,
1000
0000
0010
0000
,
0100
0000
0010
0000
,
1000
0000
0001
0000
,
0100
0000
0010
0000
,
1000
1000
1000
0000
,
0001
0001
0001
0000
,
0100
0000
0010
0000
,
1000
0000
0001
0000
,
1001
0000
0010
0000
,
0100
0010
1000
0000
,
0010
0000
0100
0000
,
0010
0000
0001
1000
,
0000
0010
0000
0100
,
0000
0000
0010
0000
0000
0000
0000
0002
,
0000
0000
0000
0000
,
0000
0000
0000
0003
1000
0000
0001
0000
,
0000
0000
0100
0000
,
0010
0001
1000
0000
,
0010
0000
0100
0000
,
0010
0000
1000
0001
,
0000
0010
0000
0100
,
0000
0000
0010
0000
0000
0000
0000
2000
,
0000
0000
0000
0000
,
0000
0000
0000
3000
0001
0000
0010
0000
;

//--------------- dance-single - B. M'Rey ----------------
#NOTEDATA:;
#STEPSTYPE:dance-single;
#DESCRIPTION:B. M'Rey;
#CREDIT:B. M'Rey;
#DIFFICULTY:Easy;
#METER:6;
#RADARVALUES:0,0,0,0,0;
#NOTES:
0000
0000
0000
0000
,
0000
0000
0000
0000
,
0000
0010
0100
0010
,
0200
0000
0000
0000
,
0300
1000
0100
1000
,
0100
0010
0100
0000
,
0001
0100
0001
0100
,
0001
0010
0100
0010
,
0100
0010
0001
0100
,
0002
0000
0000
1003
,
0010
1000
0010
1000
,
0001
0100
0001
0100
,
1001
0000
1100
0000
,
1100
0000
0000
0000
0101
0000
0100
0010
,
0000
0100
0010
0100
,
0001
0010
0100
0010
,
0002
0000
0000
0000
,
0000
0000
0000
0003
0010
0000
0100
0000
,
0010
0000
0001
1000
,
0001
1000
0001
0100
,
1010
0000
1001
0000
,
1001
0000
0000
0000
0110
0000
0100
1000
,
0000
1000
0100
0010
,
0001
0010
0001
0010
,
0200
0000
0000
0000
,
0000
0310
0001
1000
,
0001
0000
0001
0000
,
0010
0100
0010
0100
,
0001
0000
0100
0000
,
0001
0000
0010
0000
,
0001
0000
0010
1000
,
0010
0100
0010
0100
,
0001
0100
0010
1000
,
0010
0000
0010
0000
,
0001
1000
0001
1000
,
0001
0100
0010
0000
,
0010
0100
0001
0010
,
0001
0010
0000
1000
,
0010
1000
0001
0010
,
0001
0010
0001
1000
,
0100
0000
0100
0000
,
0100
0000
0100
0000
,
0100
0010
0100
0010
,
0001
0010
0001
0100
,
0101
0000
0110
0000
,
1010
0000
0000
0000
1010
0000
1000
0100
,
0000
1000
0100
0010
,
0100
0010
0001
0010
,
0002
0000
0000
0000
,
0000
0003
0100
0010
,
0100
0000
0001
0010
,
0001
1000
0001
0100
,
1010
0000
0110
0000
,
0110
0000
0000
0000
0011
0000
0010
0001
,
0000
0010
0100
0010
,
0100
1000
0100
1000
,
0002
0000
0000
0000
,
0000
0003
0010
0100
,
0010
0000
0000
0000
;

//--------------- dance-single - B. M'Rey ----------------
#NOTEDATA:;
#STEPSTYPE:dance-single;
#DESCRIPTION:B. M'Rey;
#CREDIT:B. M'Rey;
#DIFFICULTY:Medium;
#METER:7;
#RADARVALUES:0,0,0,0,0;
#NOTES:
0000
0000
0000
0000
,
0000
0000
0000
0000
,
0000
0000
1000
0001
0010
0001
0010
0001
,
0200
0000
0000
0000
,
0300
0000
1000
0000
0100
0001
1000
0000
,
0010
0000
0001
0000
0100
0000
0000
0010
0000
0000
0000
0000
0000
0000
0000
0000
,
0100
0000
0020
0000
0000
0000
0130
0000
1000
0000
0000
0100
0000
0000
0000
0000
,
0010
0000
0200
0000
0000
0000
0310
0000
0100
0000
0000
1000
0000
0000
0000
0000
,
1000
0001
0100
0001
1000
0010
0100
0010
,
0100
1000
0100
1000
,
1001
0000
0100
0001
0100
0000
0100
0001
,
0000
0100
0000
0010
0000
0100
0000
0001
,
0000
0010
1000
0000
0101
0000
0000
0002
,
0000
0013
0000
0100
0010
0000
1000
0010
,
0000
0000
1000
0100
1000
0000
0100
0002
,
0000
0003
0100
0010
0000
0100
0000
0200
,
0000
1000
0010
0000
,
0010
0300
1000
0000
0010
0000
0100
0000
,
0000
0000
1000
0100
0010
0000
0010
0001
,
0000
0100
0000
0001
0000
0010
0000
0100
,
0000
0001
0010
0000
0110
0000
0000
0001
,
0000
0001
0100
0000
0100
0000
1000
0001
,
0000
0000
0100
0010
1000
0000
0100
0001
,
0000
0010
0000
1000
0000
0100
0000
0200
,
0000
0010
0010
0000
,
1000
0000
1300
0000
0100
0000
1000
0010
,
0000
0000
1000
0000
0010
0000
1000
0010
,
0100
0000
0100
0001
0000
0010
1000
0001
,
0000
0010
0000
0001
0000
1000
0000
0001
,
0000
1000
0000
0010
0000
1000
0000
0100
,
0010
0000
0000
0001
0100
0000
0100
0010
,
0000
0001
0010
0100
0000
0100
1000
0001
,
0000
0010
0100
0010
0000
0000
1000
0001
,
0000
0000
0100
0010
0000
0000
0001
0000
,
1000
0000
1000
0010
0000
0000
0100
0001
,
0000
0010
1000
0010
0000
0000
0010
0000
,
1000
0001
1000
0010
0000
0000
0100
0010
,
0000
0000
0100
0001
0000
0000
0100
0000
,
1000
0100
1000
0100
,
0010
0001
0100
0001
,
2000
0000
3200
0000
,
0320
0000
0000
0000
0032
0000
0000
0003
,
1001
0000
0100
0001
0100
0000
0100
0001
,
0000
0100
0000
0010
0000
0100
0000
0001
,
0000
0010
1000
0000
0101
0000
0000
0002
,
0000
0013
0000
0100
0010
0000
1000
0010
,
0000
0000
1000
0100
1000
0000
0100
0002
,
0000
0003
0100
0010
0000
0100
0000
0200
,
0000
1000
0010
0000
,
0010
0300
1000
0000
0010
0000
0100
0000
,
0000
0000
1000
0100
0010
0000
0010
0001
,
0000
0100
0000
0001
0000
0010
0000
0100
,
0000
0001
0010
0000
0110
0000
0000
0001
,
0000
0001
0100
0000
0100
0000
1000
0001
,
0000
0000
0100
0010
1000
0000
0100
0001
,
0000
0010
0000
1000
0000
0100
0000
0200
,
0000
0010
0010
0000
,
1000
0000
1300
0000
0100
0000
1000
0010
;

//--------------- dance-single - B. M'Rey ----------------
#NOTEDATA:;
#STEPSTYPE:dance-single;
#DESCRIPTION:B. M'Rey;
#CREDIT:B. M'Rey;
#DIFFICULTY:Hard;
#METER:10;
#RADARVALUES:0,0,0,0,0;
#NOTES:
0000
0000
0000
0000
,
0000
0000
0000
0000
,
1000
0000
0010
0000
0100
0000
1000
0010
0000
0001
0100
0001
0000
0100
0000
1000
,
0000
0001
0010
0100
0000
0100
0001
0010
0000
0010
0001
0000
0010
0000
0100
0000
,
1000
0000
0000
0100
0010
0000
0100
0001
0000
0001
0010
0100
0000
1000
0000
0000
,
0100
0000
0010
0100
0000
0100
0010
0002
0000
0000
1003
0000
0010
0000
0000
0100
,
1000
0100
1000
0020
0000
0030
0100
0002
0000
0000
0013
0200
0000
0300
0010
0000
,
0100
0001
0010
0002
0000
0013
1000
0002
0000
0103
1000
0002
0000
0003
0000
0000
,
1000
0010
0100
0010
1000
0001
1000
0100
,
0200
2300
3020
0032
,
1003
0001
1000
0010
1000
0001
0100
0001
,
0100
0011
0000
1100
0000
1100
0000
0200
,
0000
0301
0010
0000
0101
0000
0010
0200
,
0000
1300
0010
0001
0100
0000
0200
0320
,
0030
0000
0010
0001
2000
0000
3001
0020
,
0000
0000
0130
0010
0000
0001
0000
0002
,
1000
1000
1000
0100
,
0103
0000
0100
0000
1000
0010
1000
0010
,
0000
0001
0100
0001
0100
0000
1000
0010
,
0000
0110
0000
0101
0000
0110
0000
0001
,
1000
0010
1000
0000
1010
0000
0100
0010
,
0000
0010
1000
0100
1000
0000
2000
3002
,
0003
0000
0010
0001
0100
0000
1000
0020
,
0000
0030
0100
0001
0000
0100
0000
0020
,
1000
1000
0100
0100
,
0100
0030
1000
0000
1000
0010
0100
0001
,
1001
0000
0100
0000
0020
0000
0030
0100
,
1000
0000
1000
0001
0000
0010
0100
0001
,
0000
0001
0100
0010
0000
0100
0000
0001
,
1000
0001
0000
0001
0000
0010
0000
0001
,
1000
0000
0010
0000
0100
0000
0010
0001
,
0000
0001
1000
0002
0000
0000
0103
0002
,
0000
0000
0013
0200
0000
0000
1300
0100
,
0000
0001
0000
0001
0100
0001
0000
0100
,
1000
0100
1000
0002
0000
0013
1000
0020
,
0000
0030
0100
0002
0000
0003
0010
0000
,
0010
0100
0010
0200
0000
0300
1000
0002
,
0000
0000
0103
0001
0000
0001
1000
0000
,
0010
0100
0010
0100
1000
0010
1000
0010
,
0100
0010
0100
0001
0100
0001
0010
0001
,
1200
1300
1020
1030
,
0011
0000
0011
0000
,
1000
0001
1000
0001
0010
0001
0010
0100
,
0000
1100
0000
1100
0000
0101
0000
0002
,
0000
0013
1000
0000
1001
0000
0010
0002
,
0000
0013
0100
0010
0100
0000
0100
0001
,
0000
0001
1000
0001
0010
0000
0010
0100
,
0000
0001
0100
0001
0000
0010
0000
0020
,
1000
1000
1000
0100
,
0130
0000
0100
0000
1000
0010
1000
0001
,
0000
0001
0010
0001
0010
0000
1000
0100
,
0000
0110
0000
0011
0000
0011
0000
0100
,
1000
0100
0010
0000
1001
0000
0100
0002
,
0000
0103
0010
0100
0010
0000
0020
0032
,
0003
0000
1000
0001
0010
0000
0100
0020
,
0000
0031
0100
0010
0000
0100
0000
0002
,
1000
1000
1000
1000
,
0010
0000
0013
0000
0010
0001
1000
0010
,
0100
0000
0000
0000
;
