#VERSION:0.83;
#TITLE:ONLY GIRL (IN THE WORLD) (Bimbo Jones Radio Edit);
#ARTIST:RIHANNA;
#GENRE:POP;
#MUSIC:ONLY GIRL (IN THE WORLD) (Bimbo Jones Radio Edit).ogg;
#BANNER:ONLY GIRL (IN THE WORLD) (Bimbo Jones Radio Edit)-bn.png;
#BACKGROUND:ONLY GIRL (IN THE WORLD) (Bimbo Jones Radio Edit)-BG.png;
#CDTITLE:./CDTITLES/CLUBLAND 18.PNG;
#SAMPLESTART:75.846;
#SAMPLELENGTH:15;
#OFFSET:-0.080;
#BPMS:0.000=127.894;

//--------------- dance-single - B. M'Rey ----------------
#NOTEDATA:;
#STEPSTYPE:dance-single;
#DESCRIPTION:B. M'Rey;
#CREDIT:B. M'Rey;
#DIFFICULTY:Beginner;
#METER:2;
#RADARVALUES:0,0,0,0,0;
#NOTES:
0000
0000
0000
0000
,
0000
0000
0000
0000
,
0000
0000
0000
0000
,
0000
0000
0000
0000
,
0000
0000
0000
0010
,
0000
0000
0000
0000
,
0000
0000
0000
1000
,
0000
0000
0000
0000
,
0000
0000
0000
1001
,
0000
0000
0000
0000
,
1000
0000
0010
0000
,
0000
0000
0000
0000
,
0000
0000
0000
1000
,
0000
0000
0000
0000
,
0001
0000
0100
0000
,
0000
0000
0000
0000
,
0000
1000
0000
0100
,
0000
0001
0000
1000
,
0000
0001
0000
0100
,
0000
0000
0000
0000
,
0000
0001
0000
1000
,
0000
0010
0000
0001
,
0000
0010
0000
0100
,
0000
0000
0000
0010
,
0000
0000
0000
0001
,
0001
0001
0000
1000
,
0000
0010
0000
0200
,
0000
0300
0000
0000
0000
0000
0010
0000
,
0000
0001
0000
2000
,
0000
3000
0000
0000
0000
0000
0100
0000
,
0000
0010
0000
0002
,
0000
0000
0003
1000
,
0000
0001
0000
0010
,
0000
0000
1000
0000
,
1000
0000
0100
0010
,
0000
0000
0001
0000
,
0010
0000
0100
1000
,
0000
0000
0010
0000
,
0100
0000
1000
0200
,
0000
0000
0000
0300
0000
0000
0002
0000
,
0000
0000
0000
0003
0000
0000
0100
0000
,
0000
0100
0000
0001
,
0000
1000
0000
0010
,
0000
0000
1000
0000
,
0001
0000
0010
0000
,
0000
0000
0100
0000
,
0010
0000
0001
0020
,
0000
0000
0030
1000
,
0000
0001
0000
0010
,
0000
0000
0100
0000
,
0010
0000
0001
0000
,
0000
0000
1000
0000
,
0001
0000
0010
0000
,
0000
0000
0100
0000
,
0010
0000
0002
0000
,
0000
0003
0000
1000
,
0000
0010
0000
0200
,
0000
0000
0000
0000
,
0300
0001
0000
0020
,
0000
0000
0030
1000
,
0000
0010
0000
0200
,
0000
0000
0000
0000
,
0300
0001
0000
0020
,
0000
0000
0000
0000
,
0000
0000
0000
0030
;

//--------------- dance-single - B. M'Rey ----------------
#NOTEDATA:;
#STEPSTYPE:dance-single;
#DESCRIPTION:B. M'Rey;
#CREDIT:B. M'Rey;
#DIFFICULTY:Easy;
#METER:4;
#RADARVALUES:0,0,0,0,0;
#NOTES:
0000
0000
0000
0000
,
0000
0000
0000
0000
,
0000
0000
0000
0000
,
0000
0000
0000
0000
,
0000
0000
0000
0001
,
0010
0100
0010
1000
,
0000
0010
0000
0100
,
0001
0010
1000
0100
,
0000
0010
0100
1001
,
0000
0010
0000
0100
,
0010
1000
0010
0000
,
0100
0000
0010
0000
,
0001
0000
0001
0010
,
1000
0000
0100
0000
,
0010
1000
0100
0000
,
0001
0000
0010
0000
,
0001
0000
1000
0010
,
0100
0010
0000
0001
,
1000
0010
0000
0100
,
0000
1000
0000
0010
,
0000
0100
0001
0010
,
1000
0100
0000
0010
,
0000
0001
0000
1000
,
0000
0010
0000
0100
,
0000
0001
1000
0010
,
0010
0010
0000
0100
,
0000
0001
1000
0010
,
0000
0000
0100
0010
,
1000
0001
0100
0010
,
0000
0000
1000
0010
,
0100
0001
0010
2000
,
0000
0000
3000
0001
,
0000
0100
0000
1001
,
0000
0010
0100
0010
,
0100
0010
0100
0010
,
0000
0000
0001
1000
,
0001
1000
0001
1000
,
0000
0000
0010
1000
,
0010
1000
0010
1000
,
0000
0100
0000
0001
,
0000
0100
0001
1000
,
0001
1000
0000
0010
,
0100
0010
0100
0010
,
0000
0000
0001
0100
,
0001
0100
0001
0100
,
0000
0000
0001
0010
,
0001
0010
0001
1000
,
0000
0010
0000
0100
,
0000
0010
0000
1000
,
0100
0010
0001
0010
,
0100
1000
0010
1001
,
0000
0000
0010
0100
,
0010
0001
1000
1010
,
0000
0000
0100
0010
,
1000
0010
0100
0001
,
0000
1000
0000
0010
,
0100
0010
0100
2002
,
0000
0000
0000
0000
,
3003
0010
0100
0020
,
0000
0000
0030
1000
,
0100
0010
0001
0220
,
0000
0000
0000
0000
,
0330
1000
0001
0200
,
0000
0000
0000
0000
,
0000
0000
0000
0300
;

//--------------- dance-single - B. M'Rey ----------------
#NOTEDATA:;
#STEPSTYPE:dance-single;
#DESCRIPTION:B. M'Rey;
#CREDIT:B. M'Rey;
#DIFFICULTY:Medium;
#METER:7;
#RADARVALUES:0,0,0,0,0;
#NOTES:
0000
0000
0000
0000
,
0000
0000
0000
0000
,
0000
0000
0000
0000
,
0000
0000
0000
0000
,
0000
0000
0000
1001
,
0010
0100
0000
0010
0000
1000
0000
0001
,
1000
0010
0100
0010
,
0001
1000
0000
0010
0000
0100
0000
0010
,
1000
0000
0001
0000
0010
0000
0100
0010
,
0000
1000
0010
0000
0001
0000
0100
0000
,
0010
0000
1000
0000
0001
0000
0010
0100
,
0010
0000
0001
0000
1000
0000
0010
1000
,
0100
0000
0010
0000
0100
0000
0001
1000
,
0000
0010
0100
0000
0001
0000
1000
0000
,
0010
0000
1000
0010
1000
0000
0010
0000
,
0100
0000
0001
0000
0010
1000
0100
0000
,
0010
0001
0010
1000
,
0001
1000
0010
0000
0010
0000
0100
0010
,
0100
0001
1000
0010
,
0100
0000
0001
0000
0010
1000
0000
0010
,
0100
0000
0001
0010
1000
0000
0010
0000
,
0100
0000
1001
0000
0010
0100
0010
0000
,
0001
0000
1000
0000
0010
0100
0001
0000
,
0010
0000
1000
0000
0001
0200
0000
0000
,
0310
0000
0000
0001
1000
0010
0100
0000
,
0010
0000
0010
0000
0000
0001
0010
0000
,
1000
0100
0010
0000
0001
1000
0020
0000
,
0000
0030
0000
0001
1000
0010
0100
0000
,
0001
0010
0100
0000
0010
1000
0020
0000
,
0000
0030
0000
0010
0100
0010
0100
0000
,
0001
0010
0001
0000
1000
0010
0200
0000
,
0320
0000
0032
0000
0003
0010
0000
0000
,
1000
0000
0010
0100
0010
0100
0001
0000
,
0010
0000
1000
0000
0010
1000
0010
0000
,
0001
0100
0010
0000
0010
0100
0010
0000
,
1000
0000
0001
0000
0010
0100
0001
0000
,
0010
1000
0010
0000
0100
0010
0100
0000
,
0001
0000
0010
0000
1000
0100
1000
0000
,
0010
0100
0010
0000
0001
0000
1000
0000
,
0010
0000
0100
0000
0001
1000
0010
0000
,
0100
0000
0010
0000
0001
0010
0100
0000
,
0010
0000
2002
0000
3003
0001
0100
0001
,
0100
0000
0010
1000
0010
0000
0100
0000
,
0010
0000
0001
0000
0010
1000
0010
0000
,
0100
0001
0100
0000
0010
0100
0010
0000
,
1000
0000
0100
0000
0001
0010
0001
0000
,
0010
0100
0010
0000
1000
0100
1000
0000
,
0001
0000
0010
0000
0100
0001
0100
0000
,
0010
0000
0010
1000
0100
1000
0010
0000
,
0100
0000
0001
0000
0010
0100
0001
0000
,
0010
1000
0010
0000
0100
0000
0010
0000
,
0001
0000
0010
0000
0001
1000
0001
0000
,
0010
0100
0010
0000
1000
0100
1000
0000
,
0010
0000
0100
0000
0001
0010
0001
0000
,
0010
0100
0010
0000
1000
0000
0010
0000
,
0100
0010
0001
1000
,
0010
0000
0001
1000
0010
0100
0002
0000
,
0000
0000
0000
0000
,
0003
0000
1000
0010
1000
0010
2000
0000
,
0020
0000
0000
0000
3030
0200
0000
0000
,
0301
0000
0001
0010
0001
0010
0002
0000
,
0000
0000
0000
0000
,
0000
0000
1003
0100
0010
0100
2000
0000
,
0000
0000
0000
0000
,
0000
0000
0000
3000
;

//--------------- dance-single - B. M'Rey ----------------
#NOTEDATA:;
#STEPSTYPE:dance-single;
#DESCRIPTION:B. M'Rey;
#CREDIT:B. M'Rey;
#DIFFICULTY:Hard;
#METER:11;
#RADARVALUES:0,0,0,0,0;
#NOTES:
0000
0000
0000
0000
,
0000
0000
0000
0000
,
0000
0000
0000
0000
,
0000
0000
0000
0000
,
0000
0000
0000
0000
,
0001
0010
0000
0100
0000
0010
0000
0000
,
0000
1000
0010
0100
,
0001
1000
0000
0010
0000
0100
0000
0000
,
0000
0000
0000
0010
0100
0001
1000
0010
,
0000
0001
0000
0100
1000
0001
0000
0100
,
0010
0001
0101
0000
1100
0000
1000
0100
,
0010
0000
1000
0001
1000
0000
0010
0001
,
0100
0000
1000
0001
0010
0100
1000
0001
,
0000
1000
0000
0001
0010
0100
0000
0001
,
0100
0010
1000
0001
0100
0000
1000
0010
,
1000
0000
1000
0001
0010
0000
1000
0001
,
0100
0000
0100
0001
1000
0100
1000
0000
,
0010
0100
0010
0000
0100
0010
0100
0001
,
0010
0000
1000
0010
0100
0001
1000
1000
,
0100
0000
0010
0001
1000
0100
0000
0010
,
1000
0000
0100
0001
0010
0100
0010
0100
,
0010
0000
0100
0000
0000
0010
1000
0100
,
0010
0001
1000
0000
1000
0001
1000
0000
,
0010
0100
0010
0001
0100
0010
0000
0001
,
0100
0000
0100
0010
1000
0100
2000
0000
,
3002
0000
0023
0000
0030
0010
0100
0001
,
1000
0010
0100
0001
1000
0010
0100
0000
,
1000
0000
0010
0100
0001
1000
0001
0010
,
0001
0100
0010
0100
0001
0010
0100
0000
,
0010
0000
0001
0100
0010
0100
0010
1000
,
0001
0100
0010
0100
0001
1000
0200
0000
,
0302
0000
0203
0000
0000
0320
0000
0000
,
1030
0000
0001
0010
0100
0010
1001
0000
,
0110
0000
1010
0100
1000
0010
1000
0001
,
1000
0001
0100
0010
0100
0010
1001
0000
,
0101
0000
0110
0001
0100
0001
0100
0001
,
0010
0100
0010
0100
0010
0001
1010
0000
,
0110
0000
0101
0000
0100
1000
0100
0010
,
0100
1000
0001
0010
0001
0010
2000
0000
,
0001
0000
3010
0000
0100
0001
0200
0000
,
0010
0000
1300
0100
0010
1000
1001
0000
,
0110
0000
0101
0000
0001
0100
0001
0100
,
0001
0010
0100
0010
0100
0010
1001
0000
,
1010
0000
0110
0001
1000
0001
1000
0001
,
0010
0100
0010
0100
0010
0001
1001
0000
,
0110
0000
0101
0001
1000
0100
1000
0100
,
1000
0001
0100
0001
0010
0001
0200
0000
,
0001
0000
0310
0000
0100
0001
2000
0000
,
3020
0000
0130
0010
1000
0001
1001
0000
,
0110
0000
0101
0001
1000
0001
1000
0001
,
0100
0010
0100
0010
0100
0001
1001
0000
,
0101
0000
0110
0001
1000
0001
1000
0001
,
0100
0010
1000
0010
1000
0010
1001
0000
,
0110
0000
1010
0000
0001
1000
0001
1000
,
0001
0010
0100
1000
0100
1000
0200
0000
,
0001
0000
0310
0100
0001
1000
0100
0000
,
0010
0000
0100
0010
1000
0001
2000
0000
,
0001
0001
0001
0001
,
3001
0000
0010
0100
0001
1000
0020
0000
,
0100
0000
0100
0000
0130
0001
0000
0010
,
1000
0000
0010
0100
0001
0100
0020
0000
,
0100
0100
0100
0100
,
0130
0000
1000
0010
0100
0001
2000
0000
,
0001
0001
3001
0010
,
0100
0000
0001
1000
0010
0000
1001
0000
;
