#TITLE:ONE LAST TIME;
#SUBTITLE:(BFX Garage Remix);
#ARTIST:ARIANA GRANDE;
#GENRE:FUTURE GARAGE;
#CREDIT:B. M'Rey;
#MUSIC:ONE LAST TIME (BFX Garage Remix).ogg;
#BANNER:ONE LAST TIME (BFX Garage Remix).png;
#BACKGROUND:ONE LAST TIME (BFX Garage Remix)-bg.png;
#CDTITLE:./CDTITLES/Licensed Music.png;
#SAMPLESTART:42.989;
#SAMPLELENGTH:12;
#OFFSET:-0.021;
#BPMS:0.000=133.018;

//--------------- dance-single - B. M'Rey ----------------
#NOTES:
     dance-single:
     B. M'Rey:
     Beginner:
     1:
     0,0,0,0,0:
0000
0000
0000
0000
,
0000
0000
0000
0000
,
0000
0000
0000
0000
,
0000
0000
0000
0000
,
1000
0000
0000
0000
,
0001
0000
0000
0000
,
0100
0000
0000
0000
,
0010
0000
0000
1001
,
0100
0000
0010
0000
,
0001
0000
1000
0000
,
0010
0000
0100
0000
,
0001
0000
0000
0000
,
0010
0000
0100
0000
,
0001
0000
1000
0000
,
0010
0000
0100
0000
,
0001
0000
0000
0000
,
2000
0000
3000
0000
,
0010
0000
0100
0000
,
0001
0000
0000
0000
,
0100
0000
0000
0000
,
0002
0000
0003
0000
,
0100
0000
0010
0000
,
1000
0000
0000
0000
,
0010
0000
0000
0000
,
0100
0000
0001
0000
,
1000
0000
0000
0000
,
0010
0000
0100
0000
,
0001
0000
0000
0000
,
0010
0000
0100
0000
,
0001
0000
0000
0000
,
1000
0000
0010
0000
,
0100
0000
0000
0000
,
0001
0000
1000
0000
,
0200
0000
0300
0000
,
0010
0000
0001
0000
,
2000
0000
3000
0000
,
0010
0000
0100
0000
,
0001
0000
0000
0000
,
1000
0000
0000
0000
,
0010
0000
0000
0000
,
0100
0000
0000
0000
,
0010
0000
0000
0000
,
1000
0000
0010
0000
,
0100
0000
0000
0000
,
0001
0000
1000
0000
,
0010
0000
0100
0000
,
0010
0000
1000
0000
,
0001
0000
0000
0000
,
0020
0000
0030
0000
,
0001
0000
1000
0000
,
0100
0000
0000
0000
,
0001
0000
0000
0000
,
2000
0000
3000
0000
,
0010
0000
0100
0000
,
0001
0000
0000
0000
,
0010
0000
0000
0000
,
1000
0000
0001
0000
,
0100
0000
0000
0000
,
0010
0000
0100
0000
,
0001
0000
0000
0000
,
1000
0000
0010
0000
,
0100
0000
0000
0000
,
0001
0000
0010
0000
,
0100
0000
0000
0000
,
1000
0000
0000
0000
,
0001
0000
0000
0000
,
0100
0000
0000
0000
,
0010
0000
0000
0000
,
1000
0000
0000
0000
,
0001
0000
0000
0000
,
0100
0000
0000
0000
,
0010
0000
0000
0000
;

//--------------- dance-single - B. M'Rey ----------------
#NOTES:
     dance-single:
     B. M'Rey:
     Easy:
     4:
     0,0,0,0,0:
0000
0000
0000
0000
,
0000
0000
0000
0000
,
0000
0000
0000
0000
,
0000
0000
0000
0000
,
1000
0010
0001
0000
,
0010
0100
0010
0000
,
0100
0010
0001
0010
,
0002
0000
0000
1003
,
0100
0000
0000
0000
1000
0000
0000
0000
0001
0000
0000
0010
0000
0000
0000
0000
,
0010
0000
0000
0000
0100
0000
0000
0000
0010
0000
0000
0010
0000
0000
0000
0000
,
0001
0000
0000
0000
0010
0000
0000
0000
0100
0000
0000
0100
0000
0000
0000
0000
,
0010
0000
0000
0000
0100
0000
0000
0000
0001
0000
0000
1000
0000
0000
0000
0000
,
0010
0000
0000
0000
1000
0000
0000
0000
0001
0000
0000
0100
0000
0000
0000
0000
,
0001
0000
0000
0000
0100
0000
0000
0000
0001
0000
0000
0001
0000
0000
0000
0000
,
0100
0000
0000
0000
1000
0000
0000
0000
0100
0000
0000
0010
0000
0000
0000
0000
,
0001
0000
0000
0000
0010
0000
0000
0000
0100
0000
0000
0010
0000
0000
0000
0000
,
0011
0110
1100
0001
,
0010
0001
0100
0010
,
0100
0000
0001
0000
0000
0001
0000
0000
,
0010
0000
0000
0000
0000
0000
0000
1000
0000
0000
0000
0000
0000
0000
0000
0000
,
0101
0110
1010
0010
,
0100
0010
1000
0100
,
0010
0000
0001
0000
0000
0100
0000
0000
,
0010
0000
0000
0000
0000
0000
0000
0010
,
0200
0000
0320
0000
,
1030
0000
0000
0100
0000
0100
0000
0020
,
0000
0030
0000
0000
0001
0000
0000
0000
,
0010
0000
0000
0100
0000
0000
2000
0000
0000
0000
0000
0000
3000
0000
0000
0000
,
0002
0000
0023
0000
,
1030
0000
0000
0100
0000
0001
0000
0010
,
0000
0000
0100
0000
,
0001
0000
0000
0100
0000
0000
2000
0000
0000
0000
0000
0000
3000
0000
0000
0000
,
0001
0000
0010
0000
0100
0000
0001
0010
,
0100
0000
0010
0000
2000
0000
0000
3000
,
0100
0000
0001
0000
0100
0000
0100
0010
,
0001
0000
0001
0000
0200
0000
0000
0300
,
0002
0000
0023
0000
,
0130
0000
0000
0001
0000
0010
0000
0100
,
0000
0000
0011
0000
,
0010
0000
0000
0100
0000
0000
2000
0000
0000
0000
0000
0000
3000
0000
0000
0000
,
0010
0010
0010
0000
,
0001
0100
0001
0000
,
0010
0000
0000
0000
1000
0000
0000
0000
0100
0000
0000
0010
0000
0000
0000
0000
,
0100
1000
0001
0000
,
0010
0000
0000
0000
1000
0000
0000
0000
0100
0000
0000
0001
0000
0000
0000
0000
,
0001
0000
0000
0000
0010
0000
0000
0000
0100
0000
0000
0010
0000
0000
0000
0000
,
0010
0000
0000
0000
0100
0000
0000
0000
0010
0000
0000
0010
0000
0000
0000
0000
,
0010
0000
0000
0000
0100
0000
0000
0000
0010
0000
0000
0010
0000
0000
0000
0000
,
0011
0110
1100
0001
,
0010
0001
0100
0010
,
0100
0000
0001
0000
0000
0001
0000
0000
,
0010
0000
0000
0000
0000
0000
0000
1000
0000
0000
0000
0000
0000
0000
0000
0000
,
0101
0110
1010
0010
,
0100
0010
1000
0100
,
0010
0000
0001
0000
0000
0100
0000
0000
,
0010
0000
0000
0000
0000
0000
0000
0010
,
0200
0000
0320
0000
,
1030
0000
0010
0000
0010
0000
0000
0010
,
0002
0000
0023
0000
,
1030
0000
0000
0100
0000
0000
2000
0000
0000
0000
0000
0000
3000
0000
0000
0000
,
0002
0000
0023
0000
,
1030
0000
0000
0100
0001
0000
0000
0000
,
0020
0000
0000
0031
0100
0000
0000
0000
,
0001
0000
0000
0100
0000
0000
2000
0000
0000
0000
0000
0000
3000
0000
0000
0000
,
1000
0000
0000
0000
,
0001
0000
0000
0000
,
0100
0000
0000
0000
,
0010
0000
0000
0000
,
1000
0000
0000
0000
,
0001
0000
0000
0000
,
0100
0000
0000
0000
,
0010
0000
0000
0000
,
1000
0000
0000
0000
,
0001
0000
0000
0000
,
0100
0000
0000
0000
,
0010
0000
0000
0000
;

//--------------- dance-single - B. M'Rey ----------------
#NOTES:
     dance-single:
     B. M'Rey:
     Medium:
     7:
     0,0,0,0,0:
0000
0000
0000
0000
,
0000
0000
0000
0000
,
0000
0000
0000
0000
,
0000
0000
0000
0000
,
0010
0100
0001
1000
,
0001
0010
0001
1000
,
0001
1000
0001
1000
0100
0010
0100
1000
,
0022
0000
0000
1033
,
0100
0000
1000
0000
0001
0000
0100
0000
0001
0000
0000
0010
0000
0000
0010
0000
,
0100
0000
0010
0000
0100
0000
1000
0000
0100
0000
0000
0010
0000
0000
0100
0000
,
0010
0000
1000
0000
0010
0000
0100
0000
0001
0000
0000
0100
0000
0000
0010
0000
,
0001
0000
0100
0000
0001
0000
0100
0000
0010
0000
0000
1000
0000
0000
0000
0000
,
0010
0000
0100
0000
0001
0000
0100
0000
0010
0000
0000
0100
0000
0000
1000
0000
,
0100
0000
0010
0000
0001
0000
1000
0000
0010
0000
0000
0001
0000
0000
0100
0000
,
0001
0000
1000
0000
0100
0000
1000
0000
0100
0000
0000
0010
0000
0000
0010
0000
,
0001
0000
0100
0000
0010
0000
1000
0000
0100
0000
0000
0010
0000
0000
0010
0000
,
0001
0000
0000
0010
0100
0000
0000
1000
0100
0000
0010
0000
0100
0000
1000
0000
,
0001
0010
0001
0010
0001
1000
0100
1000
,
0100
0010
0001
0000
0001
0010
0000
1000
,
0010
0000
0000
0000
0001
0000
0000
1000
0000
0000
0010
0000
0001
0000
0010
0000
,
0100
0000
0000
0010
0100
0000
0000
1000
0010
0000
1000
0000
0001
0000
1000
0000
,
0010
0100
0001
1000
0010
0100
0001
0100
,
0010
0000
0100
0000
0001
0000
0000
0100
0000
0000
1000
0000
0000
0000
1000
0000
,
0010
0000
0100
0000
0001
0000
1000
0010
,
0200
0302
0023
0230
,
1300
0000
0000
0000
0010
0000
0100
0000
0010
0000
0000
0100
0000
0000
0020
0000
,
0000
0000
0030
0000
0001
0000
0010
0000
0002
0000
0000
0003
0010
0000
0100
0000
,
0010
0000
0000
0100
0000
0000
2000
0000
0000
0000
0000
0000
3001
0000
0000
0000
,
0002
0203
0320
2030
,
3001
0000
0000
0000
0000
0000
0100
0000
0001
0000
0000
0100
0000
0000
0020
0000
,
0000
0000
0000
0030
0100
0000
0010
0000
0200
0000
0000
0300
0001
0000
1000
0000
,
0001
0000
0000
0100
0000
0000
2000
0000
0000
0000
0000
0000
3010
0000
0000
0000
,
0001
0100
0010
0000
0100
0000
0001
0010
,
0100
0000
1010
0000
2020
0000
0000
3030
,
0100
1000
0001
0000
0100
0000
0100
0010
,
0001
0000
0101
0000
0202
0000
0000
0303
,
0002
0203
0320
2030
,
3100
0000
0000
0000
0000
0000
0001
0000
0010
0000
0000
1000
0000
0000
0200
0000
,
0000
0000
0300
0001
0020
0000
0030
1000
,
0010
0000
0000
0100
0000
0000
2000
0000
0000
0000
0000
0000
3000
0000
0000
0000
,
0010
0000
1000
0000
0010
0000
1000
0000
0010
0000
0000
0100
0000
0000
1000
0000
,
0001
0000
1000
0000
0100
0000
1000
0000
0001
0000
0000
0100
0000
0000
0100
0000
,
0010
0000
1000
0000
0001
0000
0010
0000
0100
0000
0000
0010
0000
0000
1000
0000
,
0010
0000
1000
0000
0100
0000
1000
0000
0010
0000
0000
0100
0000
0000
0000
0000
,
0010
0000
1000
0000
0100
0000
1000
0000
0001
0000
0000
0001
0000
0000
0100
0000
,
0010
0000
1000
0000
0100
0000
1000
0000
0010
0000
0000
0010
0000
0000
0100
0000
,
0001
0000
1000
0000
0001
0000
1000
0000
0100
0000
0000
0010
0000
0000
1000
0000
,
0001
0000
1000
0000
0100
0000
0010
0000
0001
0000
0000
0010
0000
0000
0100
0000
,
0001
0000
0000
0100
0010
0000
0000
1000
0010
0000
0100
0000
0010
0000
1000
0000
,
0001
0100
0001
0100
0001
1000
0010
1000
,
0010
0100
0001
0000
0001
0100
0000
1000
,
0100
0000
0000
0000
0001
0000
0000
1000
0000
0000
0100
0000
0001
0000
0100
0000
,
0010
0000
0000
0100
0010
0000
0000
1000
0100
0000
1000
0000
0001
0000
1000
0000
,
0100
0010
0001
1000
0100
0010
0001
0010
,
0100
0000
0010
0000
0001
0000
0000
0010
0000
0000
1000
0000
0000
0000
1000
0000
,
0100
0000
0010
0000
0001
0000
1000
0100
,
0020
0032
0203
0320
,
1030
0000
0000
0000
0100
0000
0010
0000
0100
0000
0000
0010
0000
0000
0200
0000
,
0000
0000
0300
0000
0001
0000
0100
0000
0002
0000
0000
0003
0100
0000
0010
0000
,
0100
0000
0000
0010
0000
0000
2000
0000
0000
0000
0000
0000
3001
0000
0000
0000
,
0002
0023
0230
2300
,
3001
0000
0000
0000
0000
0000
0010
0000
0001
0000
0000
0010
0000
0000
0200
0000
,
0000
0000
0000
0300
0010
0000
0100
0000
0020
0000
0000
0030
0001
0000
1000
0000
,
0001
0000
0000
0010
0000
0000
2000
0000
0000
0000
0000
0000
3100
0000
0000
0000
,
0001
0010
0100
0000
0010
0000
0001
0100
,
0010
0000
1100
0000
2200
0000
0000
3300
,
0010
1000
0001
0000
0010
0000
0010
0100
,
0001
0000
0011
0000
0022
0000
0000
0033
,
0002
0023
0230
2300
,
3010
0000
0000
0000
0000
0000
0001
0000
0100
0000
0000
1000
0000
0000
0020
0000
,
0000
0000
0030
0001
0200
0000
0300
1000
,
0100
0000
0000
0010
0000
0000
2000
0000
0000
0000
0000
0000
3000
0000
0000
0000
,
0020
0000
0032
0000
,
0203
0000
0000
0000
0300
0000
0000
1000
,
0010
0000
0000
1000
0000
0000
0010
0000
0000
0000
0000
0000
0100
0000
0000
0000
,
0002
0000
0003
0000
;

//--------------- dance-single - B. M'Rey ----------------
#NOTES:
     dance-single:
     B. M'Rey:
     Hard:
     9:
     0,0,0,0,0:
0000
0000
0000
0000
,
0000
0000
0000
0000
,
0000
0000
0000
0000
,
0000
0000
0000
0000
,
0010
1000
0010
1000
,
0100
1000
0001
0010
,
0001
1000
0100
0010
0100
1000
0010
0100
,
0001
0010
0100
0010
0100
1000
0010
0100
0010
0100
0010
0000
0101
0000
0000
0000
,
0001
0000
1000
0010
1000
0000
0100
0010
0100
0000
1000
0000
0100
0000
0010
0000
,
0001
0000
0100
0001
0100
0000
0100
0010
0100
0000
0100
0000
0001
0000
1000
0000
,
0001
0010
0001
0000
0100
0000
0010
0000
0001
0100
0001
0000
0001
0000
0100
0000
,
0001
1000
0001
0000
0100
0000
1000
0000
0100
1000
0100
0000
0010
0000
0000
0000
,
0010
0000
0100
0000
0010
0000
1000
0001
1000
0000
1000
0001
1000
0000
0010
0000
,
0001
0000
1000
0000
0100
0000
1000
0001
1000
0000
0100
0001
0100
0000
0010
0000
,
0001
1000
0001
0000
0010
0000
1000
0000
0001
0100
0001
0000
0001
0000
0100
0000
,
0001
1000
0001
0000
0100
0000
0010
0000
0100
1000
0100
0000
0001
0000
0100
0001
,
0100
0000
0100
0001
0100
0000
0010
0100
0010
0000
0010
0000
0100
0000
0010
0000
,
0001
0100
0010
0100
0010
0100
0001
0010
,
0100
0010
0001
0010
0100
1000
0100
1000
,
0001
0000
0000
0000
1000
0000
0000
0001
0000
0000
0100
0000
0010
0000
1000
0100
,
1000
0000
1000
0010
1000
0000
1000
0100
1000
0000
0010
0000
0100
0000
1000
0000
,
0100
1000
0010
0100
0010
1000
0100
0010
,
0001
0000
1000
0000
0001
0000
0000
0100
0000
0000
0100
0000
0010
0000
1000
0000
,
0100
0000
0000
0000
0001
0000
0000
1000
0001
0000
0010
0000
0100
0000
0010
0000
,
0001
0010
0001
0000
0001
0000
0100
0000
0001
0100
0001
0000
0010
0000
1000
0001
,
1000
0000
0100
0000
0001
0000
0100
0000
0001
0010
0000
0010
0100
0000
0010
0000
,
0100
0000
0001
1000
0001
0000
0001
0100
,
0010
0100
0000
0100
0010
0000
1000
0000
0010
0100
0000
0100
0001
0000
0010
0000
,
0001
1000
0001
0000
0010
0000
1000
0000
0010
0100
0010
0000
0010
0000
1000
0100
,
1000
0000
1000
0000
0100
0000
0010
0000
0001
1000
0000
1000
0001
0000
0100
0000
,
0001
0000
0000
0000
0010
0000
0100
0000
0010
1000
0010
0000
0010
0000
0100
0000
,
0001
0100
0000
0100
0001
0000
0100
0000
0010
1000
0000
1000
0010
0000
0000
0000
,
0110
0000
0001
1000
0010
0000
0001
0100
,
0011
0000
0000
1100
0000
0000
1000
0000
0100
0000
0000
0000
0010
0000
0000
0000
,
1001
0000
0000
0110
0001
0000
0100
1000
,
0001
0000
0000
0101
0000
0000
0101
0000
1000
0000
0000
0000
0010
0000
0000
0000
,
0001
0000
0000
1001
0010
0000
0100
1000
,
0100
0000
0000
0011
0000
0000
0100
0000
0011
0000
0000
0000
0001
0000
1000
0000
,
0001
0100
0001
0010
,
0001
1000
0100
0000
,
0010
0000
0000
0100
0000
0000
0100
0000
0001
0000
0000
0010
0000
0000
1000
0000
,
0001
0000
0000
0010
0000
0000
0100
0000
0001
0000
0000
0100
0000
0000
1000
0000
,
0010
0100
0010
0000
0010
0100
0010
0000
0001
0000
1000
0000
0010
0000
0000
0000
,
0010
1000
0010
0000
0010
1000
0010
0000
0100
0000
0010
0000
0001
0000
0000
0000
,
0100
0000
1000
0000
0010
0000
0100
0000
0001
0010
0000
0010
0001
0000
0010
0000
,
0001
0000
1000
0000
0010
0000
1000
0000
0100
0010
0000
0010
0001
0000
0010
0000
,
0100
1000
0100
0000
0100
0000
0010
0000
0100
1000
0100
0000
0010
0000
0100
0000
,
0001
0010
0001
0000
0001
0000
0010
0000
0001
1000
0001
0000
0010
0000
0010
0001
,
0010
0000
0010
0001
0010
0000
0100
0010
0100
0000
0100
0000
0010
0000
0100
0000
,
0001
0010
0100
0010
0100
0010
0001
0100
,
0010
0100
0001
0100
0010
1000
0010
1000
,
0001
0000
0010
0000
1000
0000
0000
0001
0000
0000
0010
0000
0100
0000
1000
0010
,
1000
0000
1000
0100
1000
0000
1000
0010
1000
0000
0100
0000
0010
0000
1000
0000
,
0010
1000
0100
0010
0100
1000
0010
0100
,
0001
0000
1000
0000
0001
0000
0000
0010
0000
0000
0010
0000
0100
0000
1000
0000
,
0010
0000
0000
1000
0001
0000
0000
1000
0001
0000
0100
0000
0010
0000
0100
0000
,
0001
0100
0001
0000
0001
0000
0010
0000
0001
0010
0001
0000
0100
0000
1000
0001
,
1000
0000
0010
0000
0001
0000
0010
0000
0001
0100
0000
0100
0010
0000
0100
0000
,
0010
0000
0001
1000
0001
0000
0001
0010
,
0100
0010
0000
0010
0100
0000
1000
0000
0100
0010
0000
0010
0001
0000
0100
0000
,
0001
1000
0001
0000
0100
0000
1000
0000
0100
0010
0100
0000
0100
0000
1000
0010
,
1000
0000
1000
0000
0010
0000
0100
0000
0001
1000
0000
1000
0001
0000
0010
0000
,
0001
0000
0000
0000
0100
0000
0010
0000
0100
1000
0100
0000
0100
0000
0010
0000
,
0001
0010
0000
0010
0001
0000
0010
0000
0100
1000
0000
1000
0100
0000
0000
0000
,
0110
0000
0001
1000
0100
0000
0001
0010
,
0101
1010
0110
0000
,
1000
0001
0100
0010
0001
0000
0010
1000
,
0001
0011
0011
0000
,
0001
0000
0000
1000
0100
0000
0010
1000
,
0010
0000
0000
0000
0000
0000
0010
0000
0001
0000
0000
0001
0000
0000
1000
0000
,
0001
0000
0010
0100
0001
0000
0100
1000
,
0001
0000
0000
1000
0000
0000
0020
0000
0000
0000
0000
0000
0030
0000
0000
0000
,
0200
0000
0320
0000
,
0032
0000
2003
0000
,
3001
0000
0000
1000
0000
0000
0020
0000
0000
0000
0000
0000
0030
0000
2000
0000
,
0002
0000
3003
0000
;

//--------------- dance-double - B. M'Rey ----------------
#NOTES:
     dance-double:
     B. M'Rey:
     Easy:
     4:
     0,0,0,0,0:
00000000
00000000
00000000
00000000
,
00000000
00000000
00000000
00000000
,
00000000
00000000
00000000
00000000
,
00000000
00000000
00000000
00000000
,
00001000
00000000
00000000
00000000
,
00010000
00000000
00000000
00000000
,
00000100
00000000
00000100
00000000
,
00020000
00000000
00000000
00031000
,
01000000
00000000
00000000
00000000
00001000
00000000
00000000
00000000
00100000
00000000
00000000
00010000
00000000
00000000
00000000
00000000
,
00010000
00000000
00000000
00000000
01000000
00000000
00000000
00000000
00010000
00000000
00000000
00010000
00000000
00000000
00000000
00000000
,
10000000
00000000
00000000
00000000
00010000
00000000
00000000
00000000
00100000
00000000
00000000
00100000
00000000
00000000
00000000
00000000
,
10000000
00000000
00000000
00000000
00100000
00000000
00000000
00000000
01000000
00000000
00000000
00001000
00000000
00000000
00000000
00000000
,
00010000
00000000
00000000
00000000
00001000
00000000
00000000
00000000
01000000
00000000
00000000
00100000
00000000
00000000
00000000
00000000
,
01000000
00000000
00000000
00000000
00100000
00000000
00000000
00000000
01000000
00000000
00000000
01000000
00000000
00000000
00000000
00000000
,
00010000
00000000
00000000
00000000
00001000
00000000
00000000
00000000
00010000
00000000
00000000
00000010
00000000
00000000
00000000
00000000
,
00001000
00000000
00000000
00000000
00000010
00000000
00000000
00000000
00000100
00000000
00000000
00000010
00000000
00000000
00000000
00000000
,
00001010
00000110
00000101
00001000
,
00000100
00001000
00000010
00000100
,
00000010
00000000
00010000
00000000
00000000
00010000
00000000
00000000
,
00001000
00000000
00000000
00000000
00000000
00000000
00000000
00000010
00000000
00000000
00000000
00000000
00000000
00000000
00000000
00000000
,
00001100
00010100
00011000
00010000
,
00000100
00010000
00000010
00001000
,
00000001
00000000
00000100
00000000
00000000
00000010
00000000
00000000
,
00001000
00000000
00000000
00000000
00000000
00000000
00000000
00001000
,
00000020
00000000
00002030
00000000
,
00003100
00000000
00000000
00000010
00000000
00000010
00000000
00000200
,
00000000
00000300
00000000
00000000
00001000
00000000
00000000
00000000
,
00000100
00000000
00000000
00000010
00000000
00000000
00000002
00000000
00000000
00000000
00000000
00000000
00000003
00000000
00000000
00000000
,
00002000
00000000
00003200
00000000
,
00000310
00000000
00000000
00010000
00000000
00001000
00000000
00000001
,
00000000
00000000
00000010
00000000
,
00001000
00000000
00000000
00000010
00000000
00000000
00000002
00000000
00000000
00000000
00000000
00000000
00000003
00000000
00000000
00000000
,
00001000
00000000
00000100
00000000
00010000
00000000
00001000
00000100
,
00010000
00000000
00000100
00000000
00002000
00000000
00000000
00003000
,
00010000
00000000
01000000
00000000
00010000
00000000
00010000
00001000
,
00100000
00000000
00100000
00000000
00020000
00000000
00000000
00030000
,
00200000
00000000
02300000
00000000
,
03010000
00000000
00000000
10000000
00000000
01000000
00000000
00100000
,
00000000
00000000
11000000
00000000
,
01000000
00000000
00000000
00100000
00000000
00000000
00002000
00000000
00000000
00000000
00000000
00000000
00003000
00000000
00000000
00000000
,
00010000
00010000
00010000
00000000
,
01000000
00100000
01000000
00000000
,
00001000
00000000
00000000
00000000
00010000
00000000
00000000
00000000
10000000
00000000
00000000
01000000
00000000
00000000
00000000
00000000
,
10000000
00010000
01000000
00000000
,
00100000
00000000
00000000
00000000
00001000
00000000
00000000
00000000
00010000
00000000
00000000
01000000
00000000
00000000
00000000
00000000
,
01000000
00000000
00000000
00000000
00001000
00000000
00000000
00000000
00010000
00000000
00000000
00001000
00000000
00000000
00000000
00000000
,
00001000
00000000
00000000
00000000
00010000
00000000
00000000
00000000
00001000
00000000
00000000
00001000
00000000
00000000
00000000
00000000
,
00001000
00000000
00000000
00000000
00010000
00000000
00000000
00000000
00001000
00000000
00000000
00001000
00000000
00000000
00000000
00000000
,
01001000
00101000
00110000
10000000
,
00100000
10000000
00010000
01000000
,
00010000
00000000
10000000
00000000
00000000
10000000
00000000
00000000
,
01000000
00000000
00000000
00000000
00000000
00000000
00000000
00010000
00000000
00000000
00000000
00000000
00000000
00000000
00000000
00000000
,
00110000
01010000
01001000
01000000
,
00100000
01000000
00001000
00010000
,
00000100
00000000
00000010
00000000
00000000
00000001
00000000
00000000
,
00000100
00000000
00000000
00000000
00000000
00000000
00000000
00000100
,
00000002
00000000
00000203
00000000
,
00000310
00000000
00000100
00000000
00000100
00000000
00000000
00000100
,
00002000
00000000
00003200
00000000
,
00000301
00000000
00000000
00001000
00000000
00000000
00000002
00000000
00000000
00000000
00000000
00000000
00000003
00000000
00000000
00000000
,
00000200
00000000
00000320
00000000
,
00000031
00000000
00000000
00000010
00001000
00000000
00000000
00000000
,
00000200
00000000
00000000
00001300
00000010
00000000
00000000
00000000
,
00001000
00000000
00000000
00000010
00000000
00000000
00000002
00000000
00000000
00000000
00000000
00000000
00000003
00000000
00000000
00000000
,
00000001
00000000
00000000
00000000
,
00000010
00000000
00000000
00000000
,
00000100
00000000
00000000
00000000
,
00010000
00000000
00000000
00000000
,
00001000
00000000
00000000
00000000
,
00100000
00000000
00000000
00000000
,
00010000
00000000
00000000
00000000
,
01000000
00000000
00000000
00000000
,
00100000
00000000
00000000
00000000
,
10000000
00000000
00000000
00000000
,
00010000
00000000
00000000
00000000
,
00100000
00000000
00000000
00000000
;

//--------------- dance-double - B. M'Rey ----------------
#NOTES:
     dance-double:
     B. M'Rey:
     Medium:
     7:
     0,0,0,0,0:
00000000
00000000
00000000
00000000
,
00000000
00000000
00000000
00000000
,
00000000
00000000
00000000
00000000
,
00000000
00000000
00000000
00000000
,
01000000
00010000
00001000
00000000
,
00010000
00000100
00010000
00000000
,
00000100
00010000
00000010
00010000
,
00000020
00000000
00000000
00001030
,
00000100
00000000
00001000
00000000
00000001
00000000
00000100
00000000
00000001
00000000
00000000
00001000
00000000
00000000
00001000
00000000
,
00000100
00000000
00001000
00000000
00000100
00000000
00010000
00000000
00000100
00000000
00000000
00000010
00000000
00000000
00000100
00000000
,
00000010
00000000
00001000
00000000
00000010
00000000
00000100
00000000
00000001
00000000
00000000
00000100
00000000
00000000
00001000
00000000
,
00000010
00000000
00010000
00000000
00000010
00000000
00010000
00000000
00001000
00000000
00000000
01000000
00000000
00000000
00000000
00000000
,
00001000
00000000
00100000
00000000
01000000
00000000
00100000
00000000
00010000
00000000
00000000
00100000
00000000
00000000
10000000
00000000
,
01000000
00000000
00100000
00000000
00010000
00000000
01000000
00000000
00001000
00000000
00000000
00010000
00000000
00000000
10000000
00000000
,
00010000
00000000
00100000
00000000
00001000
00000000
00100000
00000000
00001000
00000000
00000000
01000000
00000000
00000000
01000000
00000000
,
00010000
00000000
00100000
00000000
00001000
00000000
01000000
00000000
00010000
00000000
00000000
10000000
00000000
00000000
10000000
00000000
,
11000000
10010000
01010000
00001000
,
00100000
00001000
00010000
00000010
,
00010000
00000000
00001000
00000000
00000000
00001000
00000000
00000000
,
00100000
00000000
00000000
00000000
00001000
00000000
00000000
01000000
00000000
00000000
00100000
00000000
00010000
00000000
00000000
00000000
,
01010000
01001000
00011000
00001000
,
00100000
00001000
00010000
00000100
,
00000010
00000000
00000000
00000000
00000001
00000000
00000000
00000100
00000000
00000000
00001000
00000000
00000000
00000000
00001000
00000000
,
00000010
00000000
00010000
00000000
00000100
00000000
00000010
00000001
,
00000200
00000320
00002030
00003002
,
00000103
00000000
00000000
00000000
00000010
00000000
00001000
00000000
00000010
00000000
00000000
00001000
00000000
00000000
00000020
00000000
,
00000000
00000000
00000030
00000000
00000001
00000000
00000010
00000000
00000002
00000000
00000000
00000003
00000010
00000000
00000100
00000000
,
00000010
00000000
00000000
00000100
00000000
00000000
00002000
00000000
00000000
00000000
00000000
00000000
00003001
00000000
00000000
00000000
,
00000002
00002003
00003200
00020300
,
00031000
00000000
00000000
00000000
00000000
00000000
01000000
00000000
00001000
00000000
00000000
01000000
00000000
00000000
00200000
00000000
,
00000000
00000000
00000000
00300000
01000000
00000000
00100000
00000000
02000000
00000000
00000000
03000000
00010000
00000000
10000000
00000000
,
00010000
00000000
00000000
00100000
00000000
00000000
20000000
00000000
00000000
00000000
00000000
00000000
31000000
00000000
00000000
00000000
,
00010000
00100000
00001000
00000000
00100000
00000000
00010000
10000000
,
01000000
00000000
10000000
00000000
00200000
00000000
00000000
00300000
,
01000000
00000000
00010000
00000000
01000000
00000000
01000000
00100000
,
00001000
00000000
00001000
00000000
02000000
00000000
00000000
03000000
,
00002000
00000000
00023000
00000000
,
01030000
00000000
00000000
00000000
00000000
00000000
00001000
00000000
00100000
00000000
00000000
00010000
00000000
00000000
00000020
00000000
,
00000000
00000000
00000030
00000100
00000020
00000000
00000030
00001000
,
00000010
00000000
00000000
00000100
00000000
00000000
00020000
00000000
00000000
00000000
00000000
00000000
00030000
00000000
00000000
00000000
,
00001000
00000000
00001000
00000000
00001000
00000000
00000000
00010000
,
00000100
00001000
00000100
00000000
,
00010000
00000000
00001000
00000000
00000100
00000000
00010000
00000000
00001000
00000000
00000000
00010000
00000000
00000000
00100000
00000000
,
00010000
00000000
00100000
00000000
01000000
00000000
00100000
00000000
00010000
00000000
00000000
01000000
00000000
00000000
00000000
00000000
,
00010000
00000000
10000000
00000000
01000000
00000000
10000000
00000000
00010000
00000000
00000000
00010000
00000000
00000000
00100000
00000000
,
00001000
00000000
00010000
00000000
00000100
00000000
00010000
00000000
00000010
00000000
00000000
00000010
00000000
00000000
00000100
00000000
,
00000001
00000000
00001000
00000000
00000001
00000000
00001000
00000000
00000100
00000000
00000000
00010000
00000000
00000000
00001000
00000000
,
00000001
00000000
00001000
00000000
00000100
00000000
00010000
00000000
00001000
00000000
00000000
00010000
00000000
00000000
00000000
00000000
,
00011000
00010100
00001100
00000010
,
00000100
00000010
00010000
00000100
,
00010000
00000000
00001000
00000000
00000000
00001000
00000000
00000000
,
00010000
00000000
00000000
00000000
00001000
00000000
00000000
00100000
00000000
00000000
01000000
00000000
00010000
00000000
00000000
00000000
,
00110000
01100000
11000000
01000000
,
00100000
01000000
10000000
00010000
,
00100000
00000000
00000000
00000000
01000000
00000000
00000000
00100000
00000000
00000000
10000000
00000000
00000000
00000000
10000000
00000000
,
00010000
00000000
01000000
00000000
00001000
00000000
00010000
00000100
,
00002000
00003020
00000230
00000302
,
00000013
00000000
00000000
00000000
00000100
00000000
00001000
00000000
00000100
00000000
00000000
00001000
00000000
00000000
00000200
00000000
,
00000000
00000000
00000300
00000000
00000001
00000000
00000100
00000000
00000002
00000000
00000000
00000003
00000100
00000000
00000010
00000000
,
00000100
00000000
00000000
00000010
00000000
00000000
00002000
00000000
00000000
00000000
00000000
00000000
00003001
00000000
00000000
00000000
,
00000002
00002003
00003200
00020300
,
00031000
00000000
00000000
00000000
00000000
00000000
01000000
00000000
00001000
00000000
00000000
01000000
00000000
00000000
00020000
00000000
,
00000000
00000000
00000000
00030000
01000000
00000000
00010000
00000000
02000000
00000000
00000000
03000000
00001000
00000000
00010000
00000000
,
00001000
00000000
00000000
00100000
00000000
00000000
00020000
00000000
00000000
00000000
00000000
00000000
00130000
00000000
00000000
00000000
,
00001000
00010000
00000010
00000000
00010000
00000000
00001000
01000000
,
00010000
00000000
01000000
00000000
20000000
00000000
00000000
30000000
,
00010000
10000000
01000000
00000000
00100000
00000000
00100000
10000000
,
00010000
00000000
00010000
00000000
00200000
00000000
00000000
00300000
,
20000000
00000000
30200000
00000000
,
01300000
00000000
00000000
00000000
00000000
00000000
00001000
00000000
00010000
00000000
00000000
00001000
00000000
00000000
00020000
00000000
,
00000000
00030000
00000000
00000000
00001100
00000000
00000000
00000000
,
00010000
00000000
00000000
00000010
00000000
00000000
00002000
00000000
00000000
00000000
00000000
00000000
00003000
00000000
00000000
00000000
,
00000002
00000000
00000023
00000000
,
00000032
00000000
00000000
00000000
00000003
00000000
00000000
00001000
,
00000010
00000000
00000000
00001000
00000000
00000000
00000010
00000000
00000000
00000000
00000000
00000000
00010000
00000000
00000000
00000000
,
00002000
00000000
00003000
00000000
;

//--------------- dance-double - B. M'Rey ----------------
#NOTES:
     dance-double:
     B. M'Rey:
     Hard:
     8:
     0,0,0,0,0:
00000000
00000000
00000000
00000000
,
00000000
00000000
00000000
00000000
,
00000000
00000000
00000000
00000000
,
00000000
00000000
00000000
00000000
,
00000010
00001000
00000100
00010000
,
00000100
00001000
00000100
00010000
,
00000100
00010000
00000100
00010000
00001000
00100000
00001000
00010000
,
00000202
00000000
00000000
00010303
,
00000010
00000000
00010000
00000000
00001000
00000000
01000000
00000000
00001000
00000000
00000000
00100000
00000000
00000000
00100000
00000000
,
01000000
00000000
00100000
00000000
01000000
00000000
10000000
00000000
01000000
00000000
00000000
00100000
00000000
00000000
01000000
00000000
,
00100000
00000000
10000000
00000000
00100000
00000000
01000000
00000000
00010000
00000000
00000000
01000000
00000000
00000000
00100000
00000000
,
00001000
00000000
00010000
00000000
00001000
00000000
00010000
00000000
00000010
00000000
00000000
00001000
00000000
00000000
00000000
00000000
,
00000010
00000000
00010000
00000000
00001000
00000000
00010000
00000000
00000010
00000000
00000000
00010000
00000000
00000000
00001000
00000000
,
00000001
00000000
00000100
00000000
00000010
00000000
00001000
00000000
00000001
00000000
00000000
00000100
00000000
00000000
00010000
00000000
,
00000100
00000000
00001000
00000000
00000010
00000000
00001000
00000000
00000010
00000000
00000000
00010000
00000000
00000000
00010000
00000000
,
00001000
00000000
01000000
00000000
00010000
00000000
00100000
00000000
01000000
00000000
00000000
10000000
00000000
00000000
01000000
00010000
,
01000000
00000000
01000000
00010000
01000000
00000000
10000000
01000000
10000000
00000000
10000000
00000000
01000000
00000000
10000000
00000000
,
00010000
00100000
01000000
00100000
01000000
00100000
00001000
00010000
,
00000100
00010000
00000010
00010000
00000100
00001000
00000100
00001000
,
00000001
00000000
00000000
00000000
00001000
00000000
00000000
00000001
00000000
00000000
00000100
00000000
00000010
00000000
00001000
00000001
,
00001000
00000000
00001000
00000010
00001000
00000000
00001000
00000001
00001000
00000000
00000100
00000000
00010000
00000000
00001000
00000000
,
00000001
00001000
00000010
00010000
00000010
00001000
00000100
00010000
,
00001000
00000000
00100000
00000000
00001000
00000000
00000000
00010000
00000000
00000000
00010000
00000000
00000100
00000000
00001000
00000000
,
00000001
00000000
00000000
00000000
00000010
00000000
00000000
00001000
00000010
00000000
00000100
00000000
00000001
00000000
00000100
00000000
,
00000010
00000100
00000010
00000000
00000010
00000000
00010000
00000000
00000010
00010000
00000010
00000000
00001000
00000000
00010000
00000010
,
00010000
00000000
00001000
00000000
00000010
00000000
00000100
00000000
00000010
00001000
00000000
00001000
00100000
00000000
00001000
00000000
,
00100000
00000000
01000000
10000000
01000000
00000000
01000000
00100000
,
00010000
00100000
00000000
00100000
00010000
00000000
10000000
00000000
00010000
01000000
00000000
01000000
00001000
00000000
00010000
00000000
,
00001000
01000000
00001000
00000000
00010000
00000000
01000000
00000000
00010000
00001000
00010000
00000000
00010000
00000000
10000000
00100000
,
10000000
00000000
10000000
00000000
00100000
00000000
01000000
00000000
00001000
00010000
00000000
00010000
00001000
00000000
01000000
00000000
,
00001000
00000000
00000000
00000000
00100000
00000000
00010000
00000000
00100000
10000000
00100000
00000000
00100000
00000000
01000000
00000000
,
00010000
01000000
00000000
01000000
00010000
00000000
01000000
00000000
00001000
00100000
00000000
00100000
00001000
00000000
00000000
00000000
,
00001000
00010000
00001000
00000000
00010000
00000000
00000100
00001000
,
00000001
00000000
00001100
00000000
00002200
00000000
00000000
00003300
,
00000001
00000100
00000010
00000000
00010000
00000000
00010000
00001000
,
00000100
00000000
00001010
00000000
00002020
00000000
00000000
00003030
,
00000010
00000100
00000010
00000000
00000010
00000000
00010000
00000000
00000010
00010000
00000010
00000000
00001000
00000000
00000100
00000010
,
00000100
00000000
00000001
00000000
00000010
00000000
00010000
00000000
00000010
00000100
00000000
00000100
00010000
00000000
00000100
00000000
,
00010000
00000000
00001000
00100000
00001000
00000000
00001000
01000000
,
00010000
01000000
00000000
01000000
00010000
00000000
10000000
00000000
00010000
00000000
00000000
00000000
00000000
00000000
00000000
00000000
,
00010000
00000000
01000000
00000000
00010000
00000000
01000000
00000000
00010000
00000000
00000000
00001000
00000000
00000000
00100000
00000000
,
01000000
00000000
00100000
00000000
00010000
00000000
00100000
00000000
00001000
00000000
00000000
00010000
00000000
00000000
00010000
00000000
,
00000100
00000000
00001000
00000000
00000001
00000000
00000100
00000000
00000010
00000000
00000000
00000100
00000000
00000000
00001000
00000000
,
00000001
00000000
00001000
00000000
00000100
00000000
00001000
00000000
00000001
00000000
00000000
00000100
00000000
00000000
00000000
00000000
,
00000001
00000000
00001000
00000000
00000010
00000000
00001000
00000000
00000001
00000000
00000000
00000001
00000000
00000000
00000100
00000000
,
00000010
00000000
00010000
00000000
00000100
00000000
00010000
00000000
00001000
00000000
00000000
00001000
00000000
00000000
00100000
00000000
,
00010000
00000000
01000000
00000000
00010000
00000000
01000000
00000000
00001000
00000000
00000000
00010000
00000000
00000000
00100000
00000000
,
00010000
00000000
00100000
00000000
01000000
00000000
10000000
00000000
00100000
00000000
00000000
10000000
00000000
00000000
10000000
00100000
,
10000000
00000000
10000000
00100000
10000000
00000000
00010000
10000000
00010000
00000000
00010000
00000000
00001000
00000000
00010000
00000000
,
00000100
00001000
00000001
00001000
00000001
00001000
00000100
00010000
,
00001000
00010000
00000100
00010000
00000010
00001000
00000010
00001000
,
00000100
00000000
00010000
00000000
00001000
00000000
00000000
00000100
00000000
00000000
00010000
00000000
00001000
00000000
01000000
00100000
,
01000000
00000000
01000000
00010000
01000000
00000000
01000000
00001000
01000000
00000000
00010000
00000000
10000000
00000000
00100000
00000000
,
00001000
00100000
00010000
10000000
00010000
01000000
00001000
00010000
,
00000100
00000000
00001000
00000000
00000100
00000000
00000000
00010000
00000000
00000000
00010000
00000000
00000010
00000000
00001000
00000000
,
00000001
00000000
00000000
00001000
00000100
00000000
00000000
00001000
00000100
00000000
00010000
00000000
00001000
00000000
00010000
00000000
,
00000100
00010000
00000100
00000000
00000100
00000000
00001000
00000000
00000100
00001000
00000100
00000000
00010000
00000000
00001000
00000100
,
00001000
00000000
00000010
00000000
00000001
00000000
00000010
00000000
00000001
00001000
00000000
00001000
01000000
00000000
00001000
00000000
,
01000000
00000000
00100000
10000000
00100000
00000000
00100000
01000000
,
00010000
01000000
00000000
01000000
00010000
00000000
10000000
00000000
00010000
00100000
00000000
00100000
00001000
00000000
00010000
00000000
,
00001000
01000000
00001000
00000000
00010000
00000000
00100000
00000000
00010000
00001000
00010000
00000000
00010000
00000000
01000000
00001000
,
01000000
00000000
01000000
00000000
00001000
00000000
00010000
00000000
00000010
00000100
00000000
00000100
00000010
00000000
00010000
00000000
,
00000010
00000000
00000000
00000000
00000100
00000000
00000001
00000000
00000100
00001000
00000100
00000000
00000100
00000000
00001000
00000000
,
00000001
00001000
00000000
00001000
00000001
00000000
00001000
00000000
00000100
00000010
00000000
00000010
00000100
00000000
00000000
00000000
,
00001101
00001000
00000001
00000000
00001000
00000000
00000010
00010000
,
00001000
00000000
00110000
00000000
00220000
00000000
00000000
00330000
,
00001000
00100000
00010000
00000000
10000000
00000000
10000000
01000000
,
00010000
00000000
00110000
00000000
00220000
00000000
00000000
00330000
,
00020000
00230000
02300000
23000000
,
30100000
00000000
00000000
00000000
00000000
00000000
00010000
00000000
01000000
00000000
00000000
10000000
00000000
00000000
02000000
00000000
,
00000000
00000000
03000000
00010000
02000000
00000000
03000000
10000000
,
01000000
00000000
00000000
00010000
00000000
00000000
00200000
00000000
00000000
00000000
00000000
00000000
00300000
00000000
00000000
00000000
,
00020000
00000000
00032000
00000000
,
00023000
00000000
00000000
00000000
00030000
00000000
00000000
00100000
,
00001000
00000000
00000000
00100000
00000000
00000000
00001000
00000000
00000000
00000000
00000000
00000000
00010000
00000000
00000000
00000000
,
00000020
00000000
00000030
00000000
;

//--------------- dance-solo - B. M'Rey ----------------
#NOTES:
     dance-solo:
     B. M'Rey:
     Easy:
     3:
     0,0,0,0,0:
000000
000000
000000
000000
,
000000
000000
000000
000000
,
000000
000000
000000
000000
,
000000
000000
000000
000000
,
100000
000000
000000
000000
,
000100
000000
000000
000000
,
001000
000000
000001
000000
,
001000
000000
000000
000001
,
000100
000000
001000
000000
,
010000
010000
000010
000000
,
100000
000000
000100
000000
,
001000
100000
000100
000000
,
001000
000000
000010
000000
,
000100
000010
001000
000000
,
000100
000000
010000
000000
,
001000
000001
001000
000000
,
000110
100010
000101
001000
,
000100
001000
100000
000001
,
010000
000000
000100
000000
000000
010000
000000
000000
,
001000
000100
000001
000000
,
001100
000101
100010
010000
,
001000
010000
000100
100000
,
001000
000000
000001
000000
000000
100000
000000
000000
,
000100
000000
001000
000000
,
000200
000000
002300
000000
,
003010
000000
000000
000100
000000
000100
000000
002000
,
000000
003000
000000
000000
010000
000000
000000
000000
,
001000
000000
000000
000100
000000
000000
000002
000000
000000
000000
000000
000000
000003
000000
000000
000000
,
200000
000000
302000
000000
,
003010
000000
000000
100000
000000
010000
000000
000001
,
000000
000000
000010
000000
,
001000
000000
000000
000010
000000
000000
000002
000000
000000
000000
000000
000000
000003
000000
000000
000000
,
100000
000000
001000
000000
000100
000000
010000
001000
,
000100
000000
001000
000000
000020
000000
000000
000030
,
000100
000000
100000
000000
000100
000000
000100
001000
,
010000
000000
010000
000000
000002
000000
000000
000003
,
020000
000000
030020
000000
,
000031
000000
000000
001000
000000
000100
000000
100000
,
000000
000000
000100
000000
,
000100
000000
000000
100000
000000
000000
000020
000000
000000
000000
000000
000000
000030
000000
000000
000000
,
001000
001000
001000
000000
,
000100
000001
000100
000000
,
000010
000100
001000
000000
,
001000
100000
000001
000000
,
010000
100000
001000
000000
,
000001
100000
000100
000000
,
000100
000010
000100
000000
,
001000
100000
010000
000000
,
010001
001010
001100
000001
,
001000
000100
010000
000010
,
000100
000000
000001
000000
000000
001000
000000
000000
,
010000
000000
000010
000000
,
001100
000101
101000
000001
,
000100
000010
000100
001000
,
100000
000000
010000
000000
000000
001000
000000
000000
,
000100
100000
000001
000000
,
002000
000000
003200
000000
,
100300
000000
000100
000000
000100
000000
000000
000100
,
000002
000000
000203
000000
,
001300
000000
000000
000010
000000
000000
002000
000000
000000
000000
000000
000000
003000
000000
000000
000000
,
000200
000000
020300
000000
,
031000
000000
000000
000001
000010
000000
000000
000000
,
200000
000000
000000
300010
001000
000000
000000
000000
,
000010
000000
000000
001000
000000
000000
020000
000000
000000
000000
000000
000000
030000
000000
000000
000000
,
010000
000000
000000
000000
,
001000
000000
000000
000000
,
100000
000000
000000
000000
,
000001
000000
000000
000000
,
010000
000000
000000
000000
,
000100
000000
000000
000000
,
100000
000000
000000
000000
,
001000
000000
000000
000000
,
000100
000000
000000
000000
,
000010
000000
000000
000000
,
010000
000000
000000
000000
,
001000
000000
000000
000000
;

//--------------- dance-solo - B. M'Rey ----------------
#NOTES:
     dance-solo:
     B. M'Rey:
     Medium:
     6:
     0,0,0,0,0:
000000
000000
000000
000000
,
000000
000000
000000
000000
,
000000
000000
000000
000000
,
000000
000000
000000
000000
,
100000
000000
000000
000000
,
000100
000000
000000
000000
,
001000
000000
000001
000000
,
001000
000000
000000
000001
,
001000
000000
000000
000000
010000
000000
000000
000000
000010
000000
000000
000100
000000
000000
000000
000000
,
000100
000000
000000
000000
001000
000000
000000
000000
000100
000000
000000
000100
000000
000000
000000
000000
,
000010
000000
000000
000000
000100
000000
000000
000000
001000
000000
000000
001000
000000
000000
000000
000000
,
000001
000000
000000
000000
001000
000000
000000
000000
000010
000000
000000
010000
000000
000000
000000
000000
,
100000
000000
000000
000000
010000
000000
000000
000000
000001
000000
000000
100000
000000
000000
000000
000000
,
000001
000000
000000
000000
100000
000000
000000
000000
000001
000000
000000
000001
000000
000000
000000
000000
,
001000
000000
000000
000000
010000
000000
000000
000000
001000
000000
000000
000100
000000
000000
000000
000000
,
000010
000000
000000
000000
000100
000000
000000
000000
001000
000000
000000
000100
000000
000000
000000
000000
,
000010
000000
000000
000100
001000
000000
000000
100000
001000
000000
000100
000000
001000
000000
010000
000000
,
000100
100000
000100
100000
000100
010000
001000
010000
,
001000
000100
000010
000000
000010
000100
000000
100000
,
000100
000000
000000
000000
001000
000000
000000
100000
000000
000000
000001
000000
000010
000000
010000
000000
,
000001
000000
000000
010000
000001
000000
000000
001000
000100
000000
001000
000000
000010
000000
001000
000000
,
000100
010000
000010
100000
000001
001000
000100
001000
,
000010
000000
001000
000000
000100
000000
000000
001000
000000
000000
100000
000000
000000
000000
100000
000000
,
000001
000000
000100
000000
,
000200
000320
020030
032000
,
103000
000000
000000
000000
000100
000000
001000
000000
000100
000000
000000
001000
000000
000000
000200
000000
,
000000
000000
000300
000000
000001
000000
000100
000000
000002
000000
000000
000003
000100
000000
001000
000000
,
000100
000000
000000
001000
000000
000000
020000
000000
000000
000000
000000
000000
030010
000000
000000
000000
,
000020
020030
030002
000203
,
001300
000000
000000
000000
000000
000000
100000
000000
001000
000000
000000
100000
000000
000000
020000
000000
,
000000
000000
000000
030000
100000
000000
010000
000000
200000
000000
000000
300000
000001
000000
000100
000000
,
000001
000000
000000
001000
000000
000000
000020
000000
000000
000000
000000
000000
000130
000000
000000
000000
,
000001
001000
000100
000000
001000
000000
000010
010000
,
001000
000000
010000
000000
000200
000000
000000
000300
,
001000
000000
000010
000000
001000
000000
001000
010000
,
000100
000000
000100
000000
200000
000000
000000
300000
,
000200
000000
000320
000000
,
100030
000000
000000
000000
000000
000000
000001
000000
001000
000000
000000
100000
000000
000000
000200
000000
,
000000
000000
000300
000001
000200
000000
000300
100000
,
000100
000000
000000
001000
000000
000000
020002
000000
000000
000000
000000
000000
030003
000000
000000
000000
,
001000
001000
001000
000000
,
010000
000100
010000
000000
,
000100
000000
000000
000000
010000
000000
000000
000000
000010
000000
000000
000001
000000
000000
000000
000000
,
000010
100000
000100
000000
,
001000
000000
000000
000000
100000
000000
000000
000000
001000
000000
000000
000010
000000
000000
000000
000000
,
000010
000000
000000
000000
000100
000000
000000
000000
001000
000000
000000
000100
000000
000000
000000
000000
,
000100
000000
000000
000000
001000
000000
000000
000000
000100
000000
000000
000100
000000
000000
000000
000000
,
000100
000000
000000
000000
001000
000000
000000
000000
000100
000000
000000
000100
000000
000000
000000
000000
,
000010
000000
000000
100000
000001
000000
000000
001000
000001
000000
010000
000000
000001
000000
100000
000000
,
001000
010000
001000
010000
001000
100000
000010
100000
,
000010
001000
000001
000000
000001
001000
000000
100000
,
001000
000000
000000
000000
000100
000000
000000
010000
000000
000000
000001
000000
000010
000000
000100
000000
,
001000
000000
000000
000100
001000
000000
000000
100000
000100
000000
100000
000000
000010
000000
100000
000000
,
000001
001000
000100
010000
000001
000100
001000
000100
,
000010
000000
000100
000000
001000
000000
000000
000100
000000
000000
100000
000000
000000
000000
100000
000000
,
001000
000000
010000
000000
000001
000000
000100
001000
,
020000
030020
000230
000302
,
010003
000000
000000
000000
001000
000000
000100
000000
001000
000000
000000
000100
000000
000000
002000
000000
,
000000
000000
003000
000000
000010
000000
001000
000000
000020
000000
000000
000030
001000
000000
000100
000000
,
001000
000000
000000
000100
000000
000000
200000
000000
000000
000000
000000
000000
300001
000000
000000
000000
,
000002
020003
030200
200300
,
300010
000000
000000
000000
000000
000000
001000
000000
000010
000000
000000
001000
000000
000000
000200
000000
,
000000
000000
000000
000300
001000
000000
000100
000000
002000
000000
000000
003000
000001
000000
010000
000000
,
000001
000000
000000
000100
000000
000000
200000
000000
000000
000000
000000
000000
300010
000000
000000
000000
,
010000
000000
000010
000000
000001
000000
100000
000010
,
000100
000000
000010
000000
002000
000000
000000
003000
,
000100
000000
100000
000000
000100
000000
000100
000001
,
010000
000000
010000
000000
002000
000000
000000
003000
,
020000
000000
030200
000000
,
001300
000000
000000
100000
000000
000001
000000
001000
,
000000
000000
000001
000000
,
000001
000000
000000
001000
000000
000000
000200
000000
000000
000000
000000
000000
000300
000000
000000
000000
,
100000
000000
000000
000000
,
000100
000000
000000
000000
,
010000
000000
000000
000000
,
001000
000000
000000
000000
;

//--------------- dance-solo - B. M'Rey ----------------
#NOTES:
     dance-solo:
     B. M'Rey:
     Hard:
     7:
     0,0,0,0,0:
000000
000000
000000
000000
,
000000
000000
000000
000000
,
000000
000000
000000
000000
,
000000
000000
000000
000000
,
000010
000100
001000
100000
,
001000
010000
001000
000100
,
001000
000100
001000
000100
000001
000010
000001
100000
,
020200
000000
000000
130300
,
000001
100000
000100
010000
000100
000000
001000
000000
,
000001
001000
000001
000100
000001
000000
000010
000000
,
000010
010000
000010
100000
001000
000000
100000
000000
,
001000
100000
001000
100000
000100
000000
010000
000000
,
000100
001000
000010
001000
000100
000000
001000
000000
,
001000
000100
000001
010000
000100
000000
000001
000000
,
000001
000100
001000
000100
001000
000000
010000
000000
,
000010
100000
000100
010000
000010
000000
001000
000000
,
000100
000000
001001
000000
010001
000010
001000
000000
,
000100
100000
000100
000000
000100
010000
001000
000000
,
001000
000100
000010
000000
000010
000100
000000
100000
,
000100
000000
001000
000000
010000
000100
000001
000100
,
001000
000000
001100
000000
100100
000000
000010
100000
,
000001
000000
010000
100000
001000
000000
000001
001000
,
000010
000000
000100
000000
001000
010000
000000
010000
,
000010
000000
001000
000000
000001
000000
100000
000100
,
002000
000000
003200
000000
,
100300
000000
000000
000000
000100
000000
001000
000000
000100
000000
000000
001000
000000
000000
000200
000000
,
000000
000000
000300
000000
000001
000000
000100
000000
000002
000000
000000
000003
000100
000000
001000
000000
,
000100
000000
000000
001000
000000
000000
200000
000000
000000
000000
000000
000000
301000
000000
000000
000000
,
000020
000000
020030
000000
,
130000
000000
000000
000000
000000
000000
001000
000000
000001
000000
000000
001000
000000
000000
020000
000000
,
000000
000000
000000
030000
001000
000000
010000
000000
002000
000000
000000
003000
000010
000000
010000
000000
,
000010
000000
000000
001000
000000
000000
200000
000000
000000
000000
000000
000000
300100
000000
000000
000000
,
000001
000000
000100
000000
100000
000000
000010
010000
,
001000
000000
010100
000000
020200
000000
000000
030300
,
001000
000000
000010
000000
001000
000000
001000
100000
,
000001
000000
000101
000000
000202
000000
000000
000303
,
000002
000000
000203
000000
,
100300
000000
000000
000000
000000
000000
001000
000000
000100
000000
000000
100000
000000
000000
000020
000000
,
000000
000000
000030
000001
000020
000000
000030
001000
,
000010
000000
000000
000001
000000
000000
200000
000000
000000
000000
000000
000000
300000
000000
000000
000000
,
000100
000100
000100
000000
,
001000
010000
001000
000000
,
100000
010000
001000
000100
000010
000000
000100
000000
,
000100
001000
000010
001000
000001
000000
010000
000000
,
000001
100000
000100
100000
001000
000000
001000
000000
,
100000
010000
000100
010000
001000
000000
001000
000000
,
000010
000100
000010
000100
000001
000000
100000
000000
,
001000
000100
000010
001000
000001
000000
001000
000000
,
000001
001100
010100
000100
,
001000
100000
001000
000000
001000
010000
000010
000000
,
000010
000100
000001
000000
000001
000100
000000
100000
,
000100
000000
001000
000000
100000
000010
000001
000000
,
000100
000000
001100
000000
011000
000000
000100
010000
,
100000
000000
000001
010000
000010
000000
000100
001000
,
000010
000000
000100
000000
001000
100000
000000
100000
,
000100
000000
001000
000000
000001
000000
010000
000100
,
002000
000000
003200
000000
,
010300
000000
000100
001000
000100
000000
000000
000100
,
000002
000000
000203
000000
,
100300
000000
000000
001000
000000
000000
200000
000000
000000
000000
000000
000000
300000
000000
000000
000000
,
000020
000000
020030
000000
,
031000
000000
000000
000001
000010
000000
000000
000000
,
200000
000000
000000
300010
001000
000000
000000
000000
,
000010
000000
000000
001000
000000
000000
020000
000000
000000
000000
000000
000000
030000
000000
000000
000000
,
010000
000000
000000
000000
,
000001
000000
000000
000000
,
001000
000000
000000
000000
,
000100
000000
000000
000000
,
100000
000000
000000
000000
,
001000
000000
000000
000000
,
000100
000000
000000
000000
,
000001
000000
000000
000100
000000
000000
002000
000000
000000
000000
000000
000000
003000
000000
000000
000000
,
000001
000000
000020
000000
,
000032
000000
000000
000000
000003
000000
000000
001000
,
000100
000000
001000
000100
000000
000000
100000
000000
,
020000
000000
030000
000000
;
