#TITLE:OLE;
#SUBTITLE:(Pablo Flores Club Mix Radio Edit);
#ARTIST:AZUCAR MORENO;
#GENRE:LATIN POP;
#MUSIC:OLE (Pablo Flores Club Mix Radio Edit).ogg;
#BANNER:OLE (Pablo Flores Club Mix Radio Edit).png;
#BACKGROUND:OLE (Pablo Flores Club Mix Radio Edit)-bg.png;
#CDTITLE:./CDTITLES/DANCEMANIA LATINA.PNG;
#SAMPLESTART:53.431;
#SAMPLELENGTH:12;
#OFFSET:-0.258;
#BPMS:0.000=126.943;

//--------------- dance-single - B. M'Rey ----------------
#NOTES:
     dance-single:
     B. M'Rey:
     Beginner:
     2:
     0,0,0,0,0:
0000
0000
0000
0000
,
0000
0000
0000
0000
,
0000
0000
0000
0000
,
0000
0000
0000
0000
,
1000
0000
0000
0000
,
0010
0000
0000
0000
,
0100
0000
0000
0000
,
0002
0000
0000
0000
,
1003
0000
0010
0000
,
0001
0000
1000
1001
,
0010
0000
0100
0000
,
0010
0000
0001
0101
,
0010
0000
1000
0000
,
0010
0000
0100
0110
,
0010
0000
1000
0000
,
0001
1000
0001
0000
,
0100
0000
0010
0000
,
1000
0000
0001
0000
,
0010
0001
0100
0000
,
0010
1000
0100
0000
,
0010
0000
1000
0000
,
0010
0000
0100
0000
,
0001
0010
1000
0000
,
0100
0010
0001
0000
,
1000
0000
0010
0000
,
0100
0000
0010
0000
,
0001
0000
1000
0000
,
0001
1000
0001
0000
,
0100
0010
1000
0000
,
0010
0100
0001
0000
,
0010
0000
0001
0000
,
0100
0000
1000
0000
,
0010
0100
0010
0000
,
1000
0100
1000
0000
,
0010
0000
0100
0000
,
0001
0000
0010
0000
,
0001
1000
0001
0000
,
0010
0100
0010
0000
,
1000
0000
0001
0000
,
0010
0000
0001
0000
,
0100
0010
0100
0000
,
1000
0100
1000
0000
,
0010
0000
0100
0000
,
0001
0000
1000
0000
,
1001
0000
0010
0000
,
0010
0000
1000
0100
,
0001
0000
0010
0000
,
1000
0000
0010
0000
,
0100
0000
0000
0000
,
0001
0000
0000
0000
,
1000
0000
0000
0000
,
0100
0000
0000
0000
,
0020
0000
0000
0000
,
0031
0000
0001
0000
,
2000
0000
0000
0000
,
3100
0000
0100
0000
,
0010
0000
1000
0000
,
0002
0000
0000
0000
,
0103
0000
1000
0000
,
0010
0000
0100
0000
,
1001
0000
0010
0000
,
0100
0000
0001
0000
,
0010
0000
0001
0000
,
1000
0000
0010
0000
,
0100
0010
0100
0000
,
0001
1000
0001
0000
;

//--------------- dance-single - B. M'Rey ----------------
#NOTES:
     dance-single:
     B. M'Rey:
     Easy:
     4:
     0,0,0,0,0:
0000
0000
0000
0000
,
0000
0000
0000
0000
,
0000
0000
0000
0000
,
0000
0000
0000
0000
,
0001
0100
0010
0000
,
0100
1000
0010
0000
,
0001
1000
0100
0000
,
0100
1000
0001
0100
,
0011
0010
0001
1000
,
0100
0010
0100
0110
,
0100
1000
0010
1001
,
0001
0100
0010
1010
,
0010
0100
0001
1010
,
0010
0100
0010
1010
,
0010
0100
0001
0000
,
0100
0010
0100
0000
,
0001
0100
0001
0000
,
0010
1000
0001
0000
,
0001
0010
0100
1000
,
0001
1000
0010
0000
,
0100
0010
0001
0000
,
0100
1000
0100
0000
,
0010
0100
0001
0010
,
0100
0010
0100
0010
0100
0000
0010
0000
,
0001
1000
0010
0000
,
0001
1000
0010
0100
,
0010
1000
0100
0000
,
0001
0100
0001
1001
,
0001
0000
1000
0100
0100
0000
0010
0000
,
0100
0000
1000
0010
0010
0000
1000
0000
,
0100
0010
0100
0010
,
0100
1000
0001
1000
,
0001
0000
0010
0010
0001
0000
0100
0000
,
0010
0000
1000
0010
0010
0000
0100
0000
,
0001
1000
0001
0100
,
0001
1000
0010
1000
,
0001
0010
0010
0000
0100
0000
1000
0000
,
0001
0100
0100
0000
0010
0000
1000
0000
,
0001
1000
0010
1000
,
0001
0100
0010
0100
,
0001
0000
1000
1000
0001
0000
1000
0000
,
0010
0000
0100
0001
0001
0000
1000
0000
,
0010
1000
0001
0100
,
0010
0100
0010
1000
,
0110
0100
0001
1010
,
0100
0010
0001
1010
,
0010
1000
0010
0110
,
0010
1000
0001
0000
,
0200
0000
0310
0010
,
0001
0000
0010
0100
,
0002
0000
0013
0100
,
0010
0000
0010
0100
,
0002
0000
0203
0000
,
0301
1000
0001
0000
,
0020
0000
0230
0000
,
0310
0100
0001
0000
,
0010
0000
0100
0000
,
0100
1000
0001
0010
,
0110
0010
0100
1000
,
1001
0010
0100
1000
,
0101
0100
0001
1000
,
1001
1000
0100
0010
,
0110
0010
0100
1000
,
0110
0100
0001
0010
,
0001
1000
0001
0000
,
0100
1000
0001
0000
;

//--------------- dance-single - B. M'Rey ----------------
#NOTES:
     dance-single:
     B. M'Rey:
     Medium:
     6:
     0,0,0,0,0:
0000
0000
0000
0000
,
0000
0000
0000
0000
,
0000
0000
0000
0000
,
0000
0000
0000
0000
,
0010
0100
0001
1010
,
0010
0100
0011
1000
,
0001
0010
0001
1000
,
0001
0010
0100
0010
0001
0010
0001
0100
,
0001
0000
0100
0001
0010
0000
1001
0000
,
0001
0000
0010
1000
0100
0000
0110
0000
,
0100
0000
1000
0001
0100
0000
1010
0000
,
0010
0000
0100
1000
0001
0000
0110
0000
,
0001
0000
1000
0001
0100
0000
1010
0000
,
0100
0000
0010
1000
0001
0000
0110
0000
,
0100
0000
0010
0001
0100
0000
0000
0000
,
0100
0000
1000
0010
0002
0000
0000
0000
,
0103
0001
0010
0000
0100
0000
0010
0000
,
0100
0010
1000
0000
0001
0000
0100
0000
,
0001
0010
1000
0000
0010
0100
1000
0000
,
0001
0010
0100
0000
0010
1000
0100
0000
,
0001
0010
1000
0000
0100
0000
0010
0000
,
0001
0100
1000
0000
0100
0000
1000
0000
,
0100
0001
0010
0000
0100
1000
0010
0000
,
0001
0100
0010
0000
0001
0010
1000
0000
,
0010
0000
0100
1000
0010
0000
0100
0000
,
0001
0000
0010
0100
0001
0000
1000
0000
,
0100
0001
0010
0000
0100
1000
0010
0000
,
0001
0100
0010
1001
,
0001
1000
0001
1000
0001
0000
0110
0000
,
0100
0010
0001
1000
0001
0000
0001
0010
,
0100
0000
0100
0010
0001
0000
0100
0000
,
0001
0100
0010
0100
0010
0000
1010
0000
,
0001
1000
0001
0100
0001
0000
0110
0000
,
0010
1000
0100
1000
0001
0000
0001
0100
,
0010
0000
0001
0100
1000
0000
0010
0000
,
0010
0100
0001
0100
0001
0000
0010
0000
,
0010
1000
0001
1000
0001
0000
0101
0000
,
0010
0100
0010
1000
0001
0000
0001
1000
,
0100
0000
0100
1000
0100
0000
0001
0000
,
0001
0100
0001
0100
0010
0000
1010
0000
,
0001
1000
0001
1000
0010
0000
0101
0000
,
0001
0100
0010
1000
0010
0000
0010
0100
,
0001
0000
0010
0100
0010
0000
1000
0000
,
0001
1000
0100
0010
0100
0000
0100
1000
,
1000
0000
0100
1000
0010
0000
1001
0000
,
1000
0000
0010
0001
0100
0000
0110
0000
,
0100
0000
0010
1000
0100
0000
0000
0000
,
0100
0000
0001
0010
2000
0000
0000
0000
,
3010
0100
0010
0100
,
0001
0000
0100
0000
0001
0001
1000
0000
,
0010
0100
0001
0100
,
0001
0000
0100
0100
0010
0010
1000
0000
,
1001
0200
0320
2030
,
3002
2003
3002
2003
,
3020
0230
0310
0101
,
0002
2003
3200
0320
,
0032
2003
3002
2003
,
3010
0100
0100
0010
0010
1000
1000
0100
,
0100
0001
1000
0000
0100
0000
1000
0000
,
0010
1000
0100
0000
0001
0000
1000
0000
,
0001
0010
1000
0000
0100
0000
1000
0000
,
0010
0001
0100
0000
0010
0000
1000
0000
,
0100
1000
0010
0000
0001
0010
1000
0000
,
0001
1000
0010
0000
0001
1000
0010
0000
,
0100
0000
0010
0100
0001
0000
1000
0000
,
0001
0000
0100
0001
0010
0000
0000
0000
;

//--------------- dance-single - B. M'Rey ----------------
#NOTES:
     dance-single:
     B. M'Rey:
     Hard:
     9:
     0.667504,0.750169,0.24509,0,0.679928,591,560,31,0,0,0,0.667504,0.750169,0.24509,0,0.679928,591,560,31,0,0,0:
0000
0000
0000
0000
,
0000
0000
0000
0000
,
0000
0000
0000
0000
,
0000
0000
0000
0000
,
0100
1000
0001
0010
0001
0000
0001
0000
,
0010
0000
0100
0000
0001
0000
0010
0000
0001
0000
0000
0000
1000
0000
0001
0010
,
0001
0000
0100
1000
0000
0100
0000
0010
0000
0000
0000
0000
0001
0000
0000
0000
,
0010
1000
0100
1000
0100
0010
0100
1000
,
1001
0000
0001
1000
0001
0000
0101
0000
,
0010
0100
0010
0100
0001
0000
1001
0000
,
0001
1000
0010
1000
0010
0000
0110
0000
,
0001
0100
0001
0010
0001
0000
1100
0000
,
0100
1000
0100
0010
0001
0000
0110
0000
,
0100
1000
0100
1000
0001
0000
0101
0000
,
0001
0100
0010
0100
0010
0000
0010
0000
,
0100
1000
0010
0100
0010
0000
0000
0000
,
0010
0100
0010
0100
0001
0010
0000
1000
,
0001
0010
0100
0010
0100
1000
0000
1000
,
0010
1000
0100
0010
0100
1000
0001
1000
,
0010
0000
0100
0000
0001
0000
1000
0000
0100
0000
0010
0100
0010
0000
1000
0000
,
0010
0100
0010
0100
0010
0000
0100
0010
0100
0000
1000
0000
0100
0000
1000
0100
,
1000
0000
0100
0000
0010
0000
0100
0000
0010
0000
1000
0000
0000
0000
1000
0010
,
0001
0010
0100
1000
0001
0100
0001
1000
,
0100
0010
0100
1000
0100
0010
0001
0010
,
0001
0010
0000
0100
0000
0001
0000
0010
0100
0000
1000
0000
0001
0000
0010
0000
,
0100
1000
0000
0001
0000
0100
0000
0010
0001
0000
0100
0000
0001
0000
0010
0000
,
0100
1000
0001
1000
0001
0010
0100
0000
,
0001
0010
0001
0010
0100
0010
0001
0010
0000
0100
0000
1000
0001
0000
0010
0000
,
0001
1000
0001
1000
0001
0010
0100
0010
0100
0000
0001
0000
1000
0000
0001
0000
,
0010
0100
0010
1000
0010
1000
0001
1000
0001
0000
0100
0000
0001
0000
1000
0000
,
0100
1000
0100
1000
0001
0100
0001
0100
,
0001
1000
0100
1000
0001
1000
0001
0010
0000
0000
0100
0010
0001
0000
1000
0000
,
0001
0100
0010
0100
0001
0100
0001
1000
0100
0000
1000
0000
0001
0000
0100
0000
,
0001
1000
0100
1000
0001
1000
0001
0010
0001
0000
0100
0000
0001
0000
1000
0000
,
0001
1000
0001
0010
0100
0010
0100
1000
,
0001
0010
0100
0010
0100
0010
0001
1000
0000
0000
0001
0100
0010
0000
1000
0000
,
0100
0010
0100
0010
0100
1000
0010
1000
0001
0000
0100
0000
0001
0000
0100
0000
,
0100
1000
0010
0100
0010
0100
0001
1000
0001
0000
0010
0000
0001
0000
0010
0000
,
0001
0010
0001
0100
0010
0100
0010
0100
,
0001
1000
0001
0100
0010
0000
0010
1000
0000
0000
0001
1000
0001
0000
0100
0000
,
0010
0000
0001
0010
0001
0000
0001
1000
0000
0000
0010
0000
1000
0000
0001
0000
,
0100
0000
0001
1000
0000
1000
0010
1000
0000
0000
0100
0000
1000
0000
0100
0000
,
1000
0100
0010
0001
0010
0001
0010
0100
,
1000
0010
1000
0010
1000
0010
1000
0000
0100
0000
0010
0000
1000
0000
0001
0000
,
1001
0000
0001
1000
0001
0000
0101
0000
,
0010
0100
0010
0100
0001
0000
1001
0000
,
0001
1000
0010
1000
0010
0000
0110
0000
,
0001
0100
0001
0010
0001
0000
0000
0000
,
0001
0100
0010
0000
0001
0100
0001
0100
,
0001
0010
0100
0010
0010
1000
1000
0000
,
0100
0010
0001
0000
0001
0100
0001
0010
,
0100
1000
0001
0001
0100
0100
0010
0000
,
1001
0200
0320
0230
,
0302
0023
0032
0023
,
0032
0000
2003
3000
0100
0000
1100
0000
,
0200
0000
2300
0000
3002
0000
0013
1000
,
0100
0000
1000
0001
0100
0000
1000
0000
,
0001
1000
0001
1000
0001
1000
0001
1000
,
0010
0000
0100
0010
0000
1000
0100
0000
0001
0000
1000
0000
0100
0000
1000
0000
,
0010
0000
0001
0010
0000
0100
0001
0000
0100
0000
0010
0000
0100
0000
1000
0000
,
0010
0000
0100
0010
0000
0100
0001
0000
0010
0000
0100
0000
0010
0000
0100
0000
,
0010
0000
0001
0100
0000
1000
0100
0000
0010
0000
0100
0000
0001
0000
0010
0000
,
1000
0000
0100
0010
0000
0010
0100
0000
0100
0000
1000
0000
0001
0000
0100
0000
,
1000
0000
0100
1000
0000
1000
0001
0000
0010
0000
1000
0000
0010
0000
0100
0000
,
0001
0100
0010
0100
0010
0000
0010
0000
,
0100
1000
0010
0100
0010
0000
0000
0000
;
