#TITLE:Number One;
#ARTIST:Alexia;
#GENRE:EURODANCE;
#CREDIT:B. M'Rey;
#MUSIC:Number One.ogg;
#BANNER:Number One.png;
#BACKGROUND:Number One-bg.png;
#CDTITLE:./CDTITLES/Eurobeat X-Press 7 Super Euro Edition.PNG;
#SAMPLESTART:69.957;
#SAMPLELENGTH:12;
#OFFSET:-0.101;
#BPMS:0.000=140.431;

//--------------- dance-single - B. M'Rey ----------------
#NOTES:
     dance-single:
     B. M'Rey:
     Beginner:
     1:
     0,0,0,0,0:
0000
0000
0000
0000
,
0000
0000
0000
0000
,
0000
0000
0000
0000
,
0000
0000
0000
0000
,
0000
0000
0000
0000
,
0000
0000
1000
0000
,
0000
0000
0000
0001
,
0000
0100
0000
0000
,
0000
0000
0010
0000
,
1000
0000
0001
0000
,
0000
0000
0000
0100
,
0000
0010
0100
0000
,
0000
0000
0000
0000
,
0000
0000
1001
0000
,
0001
0000
1000
0000
,
0000
0000
0000
0000
,
0100
0000
0010
0000
,
1000
0000
0000
0000
,
0001
0000
0010
0000
,
0000
0000
0000
0000
,
0100
0000
0001
0000
,
1000
0000
0010
0000
,
0000
0000
0000
0100
,
0000
0001
0000
0000
,
0000
0000
1000
0000
,
0010
0000
0100
0000
,
0000
0000
0000
0001
,
0000
1000
0010
0000
,
0000
0000
0110
0000
,
0000
0000
0001
0000
,
1000
0000
0010
0000
,
0000
0000
0000
0000
,
0100
0000
0010
0000
,
1000
0000
0000
0000
,
0001
0000
0010
0000
,
0000
0000
0000
0000
,
0001
0000
0100
0000
,
0010
0000
0000
0000
,
1000
0000
0001
0000
,
0000
0000
0000
0000
,
0000
0000
0110
0000
,
0001
0100
1000
0000
,
0000
0000
0000
0000
,
0001
0000
0100
0000
,
0010
0000
0000
0000
,
1000
0000
0010
0000
,
0000
0000
0000
0000
,
0100
0000
0001
0000
,
1000
0000
0000
0010
,
0100
0000
0001
0000
,
0000
0000
0000
1000
,
0000
0010
0000
0000
,
0000
0000
0100
0000
,
0010
0000
0001
0000
,
0000
0000
0000
1000
,
0000
0010
0100
0000
,
0000
0000
0000
0000
,
0001
0000
1000
0001
,
0000
0000
0000
0000
,
0010
0000
0100
0000
,
0001
0000
0000
0000
,
1000
0000
0010
0000
,
0000
0000
0000
0000
,
0100
0000
0010
0000
,
1000
0000
0000
0000
,
0001
1000
0010
0000
,
0000
0000
0000
0000
,
0100
0000
0001
0000
,
0000
0000
0000
0000
,
0010
0000
1000
0000
,
0000
0000
0000
0000
,
0100
0000
0001
0000
,
1000
0000
0000
0000
,
0001
1000
0110
0000
;

//--------------- dance-single - B. M'Rey ----------------
#NOTES:
     dance-single:
     B. M'Rey:
     Easy:
     3:
     0,0,0,0,0:
0000
0000
0000
0000
,
0000
0000
0000
0000
,
0000
0000
0000
0000
,
0000
0000
0000
0000
,
0000
0000
0000
0010
,
1000
0000
0110
0001
,
0010
0100
0010
0001
,
0100
0000
1000
0010
,
1000
0010
0100
0001
,
1000
0000
0100
0010
,
0100
0010
0100
0001
,
0010
0001
0110
0000
,
0011
0000
0110
0000
,
0101
0000
1001
0000
,
0100
0001
2000
0000
,
0000
3000
0100
0000
,
1000
0001
0010
0100
,
0010
0100
0010
0000
,
1000
0010
1000
0020
,
0000
0200
0000
0000
0330
0000
0000
0000
,
1000
0010
0000
0010
,
0100
0000
0110
0010
,
1000
0100
1000
0010
,
1000
0000
0010
0100
,
0010
0001
0100
0000
,
1000
0000
0010
0001
,
0100
0010
1000
0001
,
0010
0001
0101
0000
,
0110
0000
0110
0000
,
0000
0000
0110
0000
,
0100
0010
0100
0002
,
0000
0000
0000
0003
0010
0000
0000
0000
,
0010
0000
0002
0000
0000
0003
0010
0000
,
0100
0000
0000
1000
0000
0010
0000
0000
,
0100
0001
1000
0020
,
0000
0200
0000
0000
0330
0000
0000
0000
,
0010
0100
0010
0000
,
0011
0000
0000
1100
0000
0000
0010
0000
,
0100
0001
0100
0001
,
1000
0100
1000
0000
,
0100
0000
0101
0000
,
0000
0000
1000
0001
,
0100
0010
0100
0001
,
1000
0000
0100
0000
,
1000
0000
0100
0000
,
1000
0001
0100
0001
,
0100
0010
1000
0010
,
1000
0000
0010
0000
,
0001
0000
0000
0100
,
1000
0000
0011
0001
,
1000
0010
0100
0001
,
0100
0000
0100
0010
,
1000
0001
0011
0000
,
0010
0000
0010
0001
,
1000
0100
1000
0100
,
1000
0001
0100
0000
,
0010
0000
0001
0000
,
1000
0001
1000
0001
,
0100
0010
0100
0001
,
1000
0000
0100
0000
,
1000
0000
0100
0000
,
1000
0001
0100
0001
,
0100
0010
1000
0010
,
1000
0000
0010
0000
,
0001
0000
0100
0000
,
0010
0100
1000
0001
,
0010
0100
0010
0001
,
1000
0000
0010
0000
,
1000
0000
0010
0000
,
1000
0001
0010
0001
,
0010
0100
1000
0100
,
1000
0000
0100
0000
,
0001
0000
0100
0000
,
0010
0001
0110
0000
;

//--------------- dance-single - B. M'Rey ----------------
#NOTES:
     dance-single:
     B. M'Rey:
     Medium:
     6:
     0,0,0,0,0:
0000
0000
0000
0000
,
0000
0000
0000
0000
,
0000
0000
0000
0000
,
0000
0000
0000
0000
,
0000
0000
0000
0100
,
0010
0000
0000
0000
0010
0100
0010
0000
,
0010
0100
0010
0000
1001
0000
1000
0000
,
0001
0000
0100
0000
1000
0001
1000
0000
,
0010
0001
0010
0000
1100
0000
0100
0000
,
0010
0000
0100
0000
1000
0001
1000
0000
,
1000
0100
1000
0000
1010
0000
0010
0000
,
0100
0010
1000
0101
,
1100
0110
0011
1100
,
1010
0110
0101
0000
,
0100
1000
0001
0000
0010
0200
0000
0020
,
0000
0330
0001
0000
0010
0000
1000
0000
,
0010
1000
0000
0010
0000
0010
0001
0000
,
0001
0000
0100
0000
2000
0000
0000
3000
,
0001
1000
0000
0010
0000
0100
0002
0000
,
0000
2000
0000
0000
0000
3003
0010
0000
,
0010
1000
0000
0010
0000
0100
0010
0000
,
0010
0100
0000
0010
0100
0010
0100
0000
,
1000
0100
1000
0000
1001
0000
0001
0000
,
0010
0000
0100
0000
0010
0100
0010
0000
,
0010
0001
0010
0000
0110
0000
0010
0000
,
1000
0000
0100
0000
1000
0001
1000
0000
,
0010
0001
0010
0000
0110
0000
0010
0000
,
0100
0001
0100
1001
,
1010
0011
0110
0000
,
0000
0000
1100
0000
,
0100
0010
0000
1000
0000
1000
0200
0000
,
0000
2000
0000
0000
3300
0000
0000
1000
,
0010
0000
0001
1000
0000
1000
0001
0000
,
0010
0000
0001
1000
0000
0100
0000
1000
,
0010
0000
0001
0010
0000
0100
0002
0000
,
0000
2000
0000
0000
3003
0000
0000
0000
,
0100
1000
0000
0010
0000
1000
0100
0000
,
0100
0010
0000
1000
0000
0100
0000
0010
,
0001
0010
0000
0001
0000
1000
0010
0000
,
0001
0010
0100
0000
0010
0000
0100
0000
,
1000
0100
1010
0000
,
0100
0000
0001
0000
0100
0010
0100
0000
,
0001
1000
0100
0000
0001
0000
0010
0000
,
0100
0000
0000
0010
0000
0000
1000
0000
0100
0000
0000
0000
0001
0000
1000
0000
,
0000
0100
0000
0010
0000
0001
0000
0010
,
0001
0000
0010
0000
0001
0100
0010
0000
,
1000
0100
0001
1000
,
0001
0000
0000
0010
0000
0000
0100
0000
0001
0000
0000
0000
0010
0000
2000
0000
,
0000
0010
0000
3100
0000
0100
0010
0000
,
1000
0000
0010
0000
1010
0000
0001
0100
,
0001
0000
0010
0100
0010
0000
0001
0000
,
0010
0000
0001
0000
0100
0001
0100
0000
,
0100
0010
0100
0000
1100
0000
0100
0000
,
0010
0000
0001
0000
0100
0001
0100
0000
,
0100
0001
0100
0000
0110
0000
0100
0000
,
1000
0100
1000
1010
,
1100
0011
1100
0001
,
0010
0000
1000
0000
0010
0100
0010
0000
,
1000
0001
0010
0000
1000
0000
0100
0000
,
0010
0000
0000
0100
0000
0000
0001
0000
0010
0000
0000
0000
1000
0000
0001
0000
,
0000
0010
0000
0100
0000
1000
0000
0100
,
1000
0000
0100
0000
1000
0010
0100
0000
,
0001
0010
1000
0001
,
1000
0000
0000
0100
0000
0000
0010
0000
1000
0000
0000
0000
0100
0000
0002
0000
,
0000
0100
0000
0013
0000
0010
0100
0000
,
0100
0000
0001
0000
0100
0010
0100
0000
,
0001
1000
0100
0000
0001
0000
0010
0000
,
0100
0000
0000
0010
0000
0000
1000
0000
0100
0000
0000
0000
0001
0000
1000
0000
,
0000
0100
0000
0010
0000
0001
0000
0010
,
0001
0000
0010
0000
0001
0100
0010
0000
,
1000
0100
0001
1000
,
0001
0000
0000
0010
0000
0000
0100
0000
0001
0000
0000
0000
0010
0000
2000
0000
,
0000
0010
0000
3100
0000
0010
0100
0000
,
0010
0001
0110
0000
;

//--------------- dance-single - B. M'Rey ----------------
#NOTES:
     dance-single:
     B. M'Rey:
     Hard:
     8:
     0,0,0,0,0:
0000
0000
0000
0000
,
0000
0000
0000
0000
,
0000
0000
0000
0000
,
0000
0000
2000
3002
,
0023
0030
0000
0110
,
1010
0000
0010
0100
0001
0000
0001
1000
,
0100
0000
0001
0010
0100
0000
1001
0000
,
1100
0000
0011
0000
0100
1000
0001
0000
,
0001
0100
0001
0000
1100
0000
1001
0000
,
0110
0000
0001
1000
0001
0000
0001
0010
,
0100
0000
0010
1000
0100
0000
0101
0000
,
0110
1001
1001
1100
,
0110
0000
1100
0000
0010
1000
0010
0100
,
0001
1000
0010
1000
0011
0000
1000
0000
,
0100
1000
0001
0020
0000
2030
0001
0000
,
3010
0100
0001
0000
,
0010
1000
0010
0200
0000
0310
0001
0100
,
0001
0020
0000
0032
0000
2003
0000
3001
,
0100
0001
0100
0001
0000
1000
0100
0000
,
0001
0200
0000
0000
0310
0000
0001
0000
,
0100
1000
0001
0010
0000
0010
0001
0100
,
0010
1000
0000
0001
1000
0000
0010
0100
,
0001
0000
0010
0100
0010
0000
0011
0000
,
1100
0000
0011
0000
0001
1000
0100
0000
,
0100
1000
0001
0000
0101
0000
1001
0000
,
1010
0000
0001
1000
0010
0000
0001
1000
,
0010
0000
0001
0100
0001
0000
1100
0000
,
0110
1010
1100
0110
,
1010
0011
0022
0000
,
0000
0000
0000
0033
1100
0000
0000
0000
,
0001
1000
0100
0010
0000
0100
0002
0000
,
0103
0020
0000
1030
0001
0000
0100
0000
,
0100
0010
0001
2000
0000
3001
0100
1000
,
0010
0100
0000
0020
0000
0100
0030
1000
,
0001
0100
0001
0100
0000
1000
0200
0000
,
0301
2000
0000
0000
3001
0000
0100
0000
,
0100
0010
0100
1000
0000
0100
0010
1000
,
0010
0100
0000
1000
0000
0100
0000
0001
,
1000
0001
1000
0001
0000
0100
0010
0000
,
0001
0100
0001
0000
0100
0010
0001
0100
,
0010
1000
0010
0100
0011
0000
0000
0010
,
0100
0000
0001
0000
0010
1000
0010
0000
,
0001
0100
0001
0000
0100
1000
0001
0000
,
0100
0000
0000
0001
0000
0000
0100
0000
0010
0000
0000
0000
0100
0000
1000
0000
,
0010
0000
0001
0010
0100
0000
0010
1000
,
0001
0000
0110
0000
0100
1000
0100
0000
,
0001
0100
0010
0000
0100
1000
0001
0000
,
0001
0000
0000
1000
0000
0000
1000
0000
0100
0000
0000
0000
0100
0000
1000
0000
,
0000
0100
0001
0010
0000
0010
1100
0000
,
0100
1000
0001
0100
0010
0000
0100
1000
,
0001
0000
0001
1000
0001
0000
0110
0000
,
1100
0000
0110
0000
0001
0100
0001
0000
,
0100
1000
0010
0000
1001
0000
1010
0000
,
0110
0000
0001
1000
0100
0000
0001
0100
,
0010
0000
0100
1000
0010
0000
0011
0000
,
0101
0110
1001
0101
,
1010
0000
0110
0000
0011
0000
0001
1000
,
0001
0000
0010
0000
0100
0010
0100
0000
,
0100
1000
0010
0000
0001
0100
0010
0000
,
0001
0000
0000
0100
0000
0000
1000
0000
0010
0000
0000
0000
0010
0000
1000
0000
,
0001
0000
0100
1000
0001
0000
0010
0100
,
0001
0000
1010
0000
0100
0010
0001
0000
,
0001
0100
0001
0000
0100
0010
0001
0000
,
0001
0000
0000
0100
0000
0000
0100
0000
0010
0000
0000
0000
0100
0000
1000
0000
,
0100
0000
0001
0010
0001
0000
0001
0100
,
0010
0000
0100
0000
0010
1000
0001
0000
,
0001
1000
0010
0000
0001
1000
0010
0000
,
0010
0000
0000
1000
0000
0000
0010
0000
0001
0000
0000
0000
0001
0000
1000
0000
,
0100
0000
0010
1000
0100
0000
0100
1000
,
0010
0000
1100
0000
0001
0010
0001
0000
,
0010
1000
0100
0000
0001
0010
0001
0000
,
0001
0000
0000
0100
0000
0000
0100
0000
0010
0000
0000
0000
0001
0000
0010
0000
,
0001
0000
0010
1000
0100
0000
0001
1000
,
0100
0110
0101
0000
;
