#TITLE:Mysterious Times;
#ARTIST:Sash! featuring Tina Cousins;
#GENRE:TRANCE;
#CREDIT:B. M'Rey;
#MUSIC:Mysterious Times.ogg;
#BANNER:Mysterious Times.png;
#BACKGROUND:Mysterious Times-bg.png;
#CDTITLE:./CDTITLES/Dancemania The Best of World Trance -FANTASIA 4-.PNG;
#SAMPLESTART:92.599;
#SAMPLELENGTH:12;
#OFFSET:-0.409;
#BPMS:0=134.287;

//--------------- dance-single - B. M'Rey ----------------
#NOTES:
     dance-single:
     B. M'Rey:
     Beginner:
     1:
     0,0,0,0,0:
0000
0000
0000
0000
,
0000
0000
0000
0000
,
0000
0000
0000
0000
,
0000
0000
0000
0000
,
0000
1000
0000
0000
,
0000
0001
0000
0000
,
0000
0100
0000
0000
,
0000
0010
0000
0000
,
0000
1000
0000
0001
,
0000
0100
0000
0010
,
0000
1000
0000
0010
,
0000
0100
0000
0001
,
0000
1001
0000
0010
,
0000
0001
0000
0100
,
0000
0001
0000
0100
,
0000
0010
0000
0100
,
0000
1010
0000
0100
,
0000
0001
0000
0010
,
0000
0001
0000
0100
,
0000
0010
0000
1000
,
0000
0100
0000
0001
,
0000
0010
0000
0001
,
0000
0110
0000
1000
,
0000
0010
0000
0100
,
0000
0002
0000
0000
,
0000
0000
0000
0000
,
0000
0000
0000
0000
,
0000
0000
0000
0003
,
0000
1000
0000
0000
,
0000
0000
0000
0010
,
0000
0100
0000
0000
,
0000
0000
0000
0000
,
0000
0001
0000
1000
,
0000
0010
0000
0100
,
0000
0010
0000
0000
,
0000
0000
0000
0000
,
0000
1001
0000
0000
,
0000
0000
0000
0100
,
0000
0001
0000
0000
,
0000
0000
0000
0000
,
0000
0010
0000
0100
,
0000
0001
0000
1000
,
0000
0010
0000
0000
,
0000
0000
0000
0000
,
0000
0100
0000
0010
,
0000
1000
0000
0000
,
0000
0001
0000
0010
,
0000
0100
0000
0000
,
0000
0001
0000
1000
,
0000
0010
0000
0100
,
0000
0010
0000
0000
,
0000
0001
0000
1000
,
0000
0010
0000
0000
,
0000
0100
0000
0000
,
0000
1000
0000
0000
,
0000
0001
0000
0100
,
0000
0110
0000
0000
,
0000
0001
0000
0000
,
0000
0010
0000
0000
,
0000
0100
0000
0001
,
0000
1010
0000
0000
,
0000
0100
0000
0000
,
0000
0001
0000
0010
,
0000
0001
0000
0100
,
0000
0010
0000
0000
,
0000
1000
0000
0000
,
0000
0001
0000
1000
,
0000
0010
0000
0100
,
0000
0010
0000
0000
,
0000
0000
0000
0000
,
0000
0001
0000
1000
,
0000
0100
0000
0010
,
0000
0002
0000
0000
,
0000
0000
0000
0000
,
0000
0000
0000
0000
,
0000
0000
0000
0000
,
0000
0003
0000
0000
;

//--------------- dance-single - B.M'Rey ----------------
#NOTES:
     dance-single:
     B.M'Rey:
     Easy:
     3:
     0,0,0,0,0:
0000
0000
0000
0000
,
0000
0000
0000
0000
,
0000
0000
0000
0000
,
0000
0000
0000
0000
,
0000
1000
0000
0001
,
0000
0100
0000
0010
,
0000
1000
0000
0010
,
0000
0100
0000
0001
,
0000
1001
1000
0001
,
0001
0100
0100
0010
,
0010
1000
1000
0001
,
0001
1000
1000
0001
,
0001
0110
0010
0100
,
0100
0010
0010
0001
,
0001
1000
1000
0010
,
0010
0100
0100
0010
,
0010
0011
0001
1000
,
1000
0010
0010
0100
,
0100
0101
0001
1000
,
1000
0010
0010
0100
,
0100
0101
0001
0100
,
0100
0010
0010
1000
,
1000
1010
0010
0100
,
0100
0001
0001
0100
,
0100
0002
0000
0203
,
0000
0320
0000
2030
,
0000
3020
0000
0032
,
0000
0203
0000
2300
,
0000
3001
0000
0010
,
0000
0100
0000
0001
,
1000
0010
0000
0001
,
0000
0010
0000
0010
,
0100
0010
0000
0001
,
0000
0100
1000
0010
,
0001
0100
0000
0001
,
0000
0100
0000
0101
,
0000
0110
0000
0100
,
0000
0001
0000
0001
,
1000
0010
0000
0001
,
0000
0100
0000
0001
,
1000
0001
1000
0010
,
0100
0010
0100
0001
,
0010
0001
0000
0100
,
0000
0001
0000
0100
,
0000
0011
0000
0001
,
0000
0001
1000
0001
,
0000
0001
0000
0100
,
0000
0001
0100
0001
,
0000
0001
1000
0001
,
1000
0010
0100
0010
,
0100
0010
0000
0000
,
0000
1000
0000
0001
,
0000
1000
1000
0010
,
0010
0100
0100
0001
,
0001
0010
0010
0001
,
0001
0100
0100
0010
,
0000
1000
1000
0001
,
0001
0100
0100
0010
,
0010
1000
1000
0001
,
0001
0100
0100
0010
,
0000
0001
0001
1000
,
1000
0010
0010
0100
,
0100
0010
0000
1000
,
0000
0001
0000
0100
,
0000
0010
0010
0100
,
0100
1000
1000
0001
,
0001
0100
0000
0010
,
0000
1000
0000
0001
,
0000
0100
0100
0010
,
0010
1000
1000
0001
,
0001
0100
0000
0010
,
0000
1000
0000
0001
,
0000
2002
0000
0000
,
0000
0000
0000
0000
,
0000
0000
0000
0000
,
0000
0000
0000
0000
,
0000
3003
0000
0000
;

//--------------- dance-single - B. M'Rey ----------------
#NOTES:
     dance-single:
     B. M'Rey:
     Medium:
     5:
     0,0,0,0,0:
0000
0000
0000
0000
,
0000
0000
0000
0000
,
0000
0000
0000
0000
,
0000
0000
0000
0000
,
0000
0001
1000
0001
,
0100
0010
1000
0010
,
1000
0100
1000
0001
,
0010
0001
0010
0001
,
0100
0000
0001
0010
0001
0000
0001
0010
,
0100
0000
0010
1000
0100
0000
0001
0100
,
0010
0000
0001
1000
0100
0000
0001
0010
,
0100
0000
0010
1000
0010
0000
0001
0010
,
0100
0000
0110
0000
0010
0000
0100
0010
,
0001
0000
0010
1000
0100
0000
0001
0100
,
0010
0000
0100
0010
0100
0000
0010
0100
,
0010
0000
0010
0100
0001
0000
0001
0100
,
0001
0000
0110
0000
0001
0000
0010
0100
,
0001
0000
0010
0100
0010
0000
0100
0010
,
0001
0000
0011
0000
0100
0000
0010
0100
,
0010
0000
0100
1000
0100
0000
0001
0010
,
0001
0000
1001
0000
0010
0000
0001
0010
,
0100
0000
0100
0010
0001
0000
0100
0010
,
0001
0000
1010
0000
0001
0000
0001
0010
,
0100
0000
0010
0100
0010
0000
0010
1000
,
0001
1000
0000
0010
,
0000
0100
0000
0001
,
0000
0010
0000
0001
,
0000
0100
0000
0001
,
1000
1010
0000
0001
,
0000
0000
0100
0000
0100
1000
0010
0000
,
0001
1100
0000
0001
,
0000
0010
0000
0100
,
0100
0010
0001
0000
0010
0000
0001
0000
,
0100
0000
0001
0100
0001
0000
0100
1000
,
0010
0100
0001
0010
,
0100
0000
0000
0000
1000
0000
0000
0000
0010
0000
0000
0000
0110
0000
0000
1001
,
0000
1001
0101
0000
0000
0000
0100
0000
,
0000
0000
1000
0000
0000
0100
0001
0000
,
0100
0000
0001
0010
0100
0000
0100
0010
,
0001
0000
0010
1000
0100
0000
0010
0000
,
0100
1000
0001
0000
0100
0000
0010
1000
,
0010
0000
0001
0000
0001
0100
0001
0000
,
0100
0010
0100
0000
0010
0000
0001
0000
,
0100
0010
1000
0001
,
0100
0010
0001
0000
0100
0000
0010
0100
,
0001
0100
0001
0100
,
0000
0000
0010
1000
0001
0000
0010
0100
,
0001
0100
0001
0100
,
0000
0000
0010
1000
0001
0000
0010
0100
,
0001
0000
0001
0010
0001
0000
0010
0100
,
0001
0020
0000
0000
,
0000
0130
0000
0001
,
0000
0000
0100
0010
0001
0000
0001
0010
,
0001
0000
0010
0100
0001
0000
0100
0010
,
0001
0000
0001
0100
0010
0000
0010
1000
,
0010
0000
0001
0100
0010
0000
0100
0000
,
0001
0000
0110
0000
0001
0000
0100
0010
,
0001
0000
0001
1000
0100
0000
0100
0010
,
0100
0000
0010
0100
0001
0000
0100
0010
,
0100
0000
0010
0100
0010
0000
0010
0000
,
0100
0000
0101
0000
0010
0000
0001
0010
,
0100
0000
0100
0010
0001
0000
0001
0010
,
0001
0001
1000
0100
,
0010
0100
0010
0100
,
1000
0000
0101
0000
0100
0000
0001
0100
,
0010
0000
0001
1000
0100
0000
0100
1000
,
0001
0001
1000
0100
,
0001
1000
0100
0000
0010
0000
0100
0000
,
0010
0000
0001
0010
0001
0000
0010
0100
,
0010
0000
0001
0010
0001
0000
0010
1000
,
0010
0000
1000
0000
0010
0000
0100
0010
,
0100
0010
0100
0001
,
0100
2000
0000
3020
,
0000
0230
0000
0302
,
0000
0203
0000
2300
,
0000
3020
0000
0032
,
0000
0003
0000
0000
;

//--------------- dance-single - B. M'Rey ----------------
#NOTES:
     dance-single:
     B. M'Rey:
     Hard:
     8:
     0,0,0,0,0:
0000
0000
0000
0000
,
0000
0000
0000
0000
,
0000
0000
0000
0000
,
0000
0000
0000
0000
,
0000
0000
0001
0000
1000
0000
0010
1000
,
0010
0000
0010
0000
0100
0000
0010
1000
,
0010
0000
0100
0000
0010
0000
0100
1000
,
0100
0000
0010
0000
1000
0000
0100
0010
,
0100
0000
0001
1000
0001
1000
0001
0100
,
0001
0100
0001
0010
0001
0010
0001
0100
,
0001
0100
0010
1000
0010
1000
0010
1000
,
0001
1000
0001
0100
0001
0100
0001
0010
,
0001
0010
0100
0010
0100
0010
0100
0001
,
0100
0001
0100
0010
0100
0010
0100
1000
,
0010
1000
0010
0100
0010
0100
0001
1000
,
0001
1000
0001
0100
0001
0100
0001
1000
,
0001
1000
0001
0010
0001
0010
0100
0010
,
0100
0010
0100
1000
0100
1000
0100
0001
,
1000
0001
1000
0100
1000
0100
0001
1000
,
0001
1000
0001
0010
0001
0010
0100
0010
,
0100
0010
0100
1000
0100
1000
0100
0001
,
0100
0001
0100
0010
0100
0010
0001
0100
,
0001
0100
0010
1000
0010
1000
0100
0010
,
0100
0010
0100
0001
0100
0001
0100
1000
,
0100
1000
0100
0000
1000
0000
0100
0000
,
1000
0010
1000
0001
,
0010
0001
1000
0001
,
0010
0000
0100
0000
0010
0000
0100
0001
,
0010
0000
0001
1000
0001
0000
0001
0100
,
0010
0000
0000
0000
0010
0000
1000
0000
0010
0000
0100
0000
0001
0000
0000
0100
,
0000
0100
0010
1000
0001
0000
0010
1000
,
0010
0000
0010
0100
0001
0000
0010
1000
,
0010
0000
1000
0000
0010
0000
0000
0100
0000
0000
0100
0000
0001
0000
0000
0000
,
0010
0000
1000
0000
0100
0000
0000
1000
0000
0000
1000
0000
0010
0000
0000
0100
,
0000
1000
0001
1000
0001
0000
0100
0010
,
0100
0000
0000
0000
0100
0000
1000
0000
0001
0000
0000
0000
0101
0000
0000
1010
,
0000
0001
0110
0000
0001
1000
0001
0000
,
0010
0000
1000
0000
0001
0000
0000
0000
0001
0000
0100
0000
0001
0000
0000
0100
,
0000
0100
0010
1000
0010
0000
0001
0100
,
0001
0000
0001
0010
0100
0000
0100
1000
,
0100
0000
1000
0000
0001
0000
0000
1000
0000
0000
0100
0000
0001
0000
0000
0100
,
0000
0000
0100
0000
0010
0000
0000
1000
0000
0000
0100
0000
0001
0000
0000
0100
,
0000
0100
0010
1000
0010
0000
0100
1000
,
0100
0000
0000
0000
0100
0000
0010
0000
0001
0000
0000
0000
0101
0000
0000
0101
,
0000
0000
1000
0000
0010
0000
0000
0100
0000
0000
1000
0000
0001
0000
0000
1000
,
0000
0010
0001
0010
0000
0110
0000
1000
,
0001
0000
0000
0000
0001
0000
0000
1000
0000
0000
0010
0000
0100
0000
0000
1000
,
0000
0100
0001
1000
0000
0020
0000
0130
,
0001
0000
0000
0000
0010
0000
0000
1000
0000
0000
0100
0000
0001
0000
0000
0010
,
0000
0000
0100
0000
0001
0000
0000
0100
0000
0000
1000
0000
0010
0000
0000
0100
,
0000
0100
0000
0020
0000
0000
0000
0000
,
0030
0000
0001
0000
0010
0000
0000
0100
0000
0000
1000
0000
0001
0000
0000
0100
,
0000
0001
0100
0010
0100
0010
0001
0100
,
0001
0100
0001
0010
0001
0010
0100
1000
,
0100
1000
0010
1000
0010
1000
0100
0010
,
0100
0000
0010
0000
0001
0000
0010
0000
0001
0000
0010
0000
0100
0000
0000
1000
,
0000
0001
0010
0100
0010
0100
0001
0010
,
0001
0010
0100
1000
0100
1000
0010
0100
,
0010
0100
0001
0100
0001
0100
0001
1000
,
0001
0000
1000
0000
0100
0000
0010
0000
0100
0000
0010
0000
0100
0000
0000
0001
,
0000
0100
0001
0100
0001
0100
0001
1000
,
0001
1000
0001
0010
0001
0010
0100
1000
,
0100
0000
1000
0000
0001
0000
0000
1000
0000
0000
0010
0000
0100
0000
0000
0010
,
0000
0000
1000
0000
0100
0000
0000
1000
0000
0000
0010
0000
0100
0000
0000
0010
,
0000
0100
0010
1000
0010
1000
0100
0010
,
0100
0010
0100
0001
0100
0001
0010
0100
,
0010
0000
1000
0000
0010
0000
0000
0100
0000
0000
0001
0000
0010
0000
0000
0000
,
1000
0000
0000
0000
0001
0000
0000
0010
0000
0000
1000
0000
0100
0000
0000
0010
,
0000
1000
0100
0010
0100
0010
0100
1000
,
0100
1000
0010
0100
0010
0100
0010
0001
,
0010
0000
1000
0000
0001
0000
0000
0010
0000
0000
1000
0000
0100
0000
0000
0000
,
1000
0000
0000
0000
0100
0000
0000
0010
0000
0000
0001
0000
1000
0000
0000
0010
,
0000
0100
0002
0000
0000
0000
0203
0000
,
0000
0320
0000
2030
,
0000
3020
0000
0032
,
0000
0203
0000
2300
,
0000
3000
0000
0000
;
