#TITLE:ミラクルペイント;
#ARTIST:OSTER project ft. 初音ミク;
#TITLETRANSLIT:Miracle paint;
#ARTISTTRANSLIT:OSTER project ft. Hatsune Miku;
#GENRE:VOCALOID;
#CREDIT:B. M'Rey;
#MUSIC:Miracle paint.OGG;
#BANNER:Miracle paint.png;
#BACKGROUND:Miracle paint-bg.png;
#CDTITLE:./CDTITLES/Hatsune Miku Project Diva F 2nd.PNG;
#SAMPLESTART:54.047;
#SAMPLELENGTH:12;
#OFFSET:-0.556;
#BPMS:0=214.991;
#BGCHANGES:-1.556=Miracle paint.avi=1.000=1=0=1===CrossFade==,
99999=-nosongbg-=1.000=0=0=0 // don't automatically add -songbackground-;

//--------------- dance-single - B. M'Rey ----------------
#NOTES:
     dance-single:
     B. M'Rey:
     Beginner:
     2:
     0,0,0,0,0:
0000
0000
0000
0000
,
0000
0000
0000
0000
,
0000
0000
0000
0000
,
0000
0000
0000
0000
,
1000
0000
0000
0000
,
0001
0000
0000
0000
,
0100
0000
0000
0000
,
0110
0000
0000
0000
,
0001
0000
0000
0000
,
0001
0000
0000
0000
,
1000
0000
0000
0000
,
1000
0000
0000
0000
,
0110
0000
0000
0000
,
0010
0000
0000
0000
,
0100
0000
0000
0000
,
0000
0000
0000
0000
,
0001
0000
0000
0000
,
1000
0000
0000
0000
,
0010
0000
0000
0000
,
0100
0000
0000
0000
,
0001
0000
1000
0000
,
0001
0000
0000
0000
,
0100
0000
0000
0000
,
0010
0000
0000
0000
,
1000
0000
0000
0000
,
0001
0000
0000
0000
,
0010
0000
0000
0000
,
0001
0000
0000
0000
,
0100
0000
0010
0000
,
0100
0000
0000
0000
,
1000
0000
0000
0000
,
0001
0000
0000
0000
,
0100
0000
0000
0000
,
0001
0000
0000
0000
,
1000
0000
0000
0000
,
0000
0000
0000
0000
,
0010
0000
0000
0000
,
0100
0000
0000
0000
,
1000
0000
0000
0000
,
0001
0000
0000
0000
,
0100
0000
0000
0000
,
0010
0000
0000
0000
,
1000
0000
0000
0000
,
0100
0000
0000
0000
,
1000
0000
0000
0000
,
0000
0000
0000
0000
,
0001
0000
0000
0000
,
0000
0000
0000
0000
,
1000
0000
0001
0000
,
1000
0000
0000
0000
,
1000
0000
0001
0000
,
1000
0000
0000
0000
,
0010
0000
0000
0000
,
0100
0000
0000
0000
,
0001
0000
0000
0000
,
1000
0000
0000
0000
,
0010
0000
0000
0000
,
0100
0000
0000
0000
,
0001
0000
0000
0000
,
0010
0000
0000
0000
,
0001
0000
0000
0000
,
0100
0000
0000
0000
,
0110
0000
0000
0000
,
1000
0000
0000
0000
,
0001
0000
0000
0000
,
0000
0000
0000
0000
,
0010
0000
0000
0000
,
0000
0000
0000
0000
,
1000
0000
0000
0000
,
0000
0000
0000
0000
,
0100
0000
0000
0000
,
0000
0000
0000
0000
,
0001
0000
0000
0000
,
0000
0000
0000
0000
,
0010
0000
0000
0000
,
0000
0000
0000
0000
,
1000
0000
0000
0000
,
0010
0000
0000
0000
,
0100
0000
0000
0000
,
0001
0000
0000
0000
,
0110
0000
0000
0000
,
0000
0000
0000
0000
,
1001
0000
0000
0000
,
0000
0000
0000
0000
,
0001
0000
0000
0000
,
1000
0000
0001
0000
,
1000
0000
0000
0000
,
0001
0000
1000
0000
,
0001
0000
0000
0000
,
0100
0000
0000
0000
,
0010
0000
0000
0000
,
1000
0000
0000
0000
,
0001
0000
0000
0000
,
0010
0000
0000
0000
,
0100
0000
0000
0000
,
0010
0000
0000
0000
,
1000
0000
0000
0000
,
0001
0000
0000
0000
,
0100
0000
0000
0000
,
0010
0000
0000
0000
,
1000
0000
0000
0000
,
0010
0000
0100
0000
,
0010
0000
0000
0000
,
0100
0000
0010
0000
,
0100
0000
0000
0000
,
0001
0000
0000
0000
,
1000
0000
0000
0000
,
0010
0000
0000
0000
,
0100
0000
0000
0000
,
0001
0000
0000
0000
,
0010
0000
0000
0000
,
0100
0000
0000
0000
,
1000
0000
0000
0000
,
0010
0000
0000
0000
,
0100
0000
0000
0000
,
0000
0000
0000
0000
,
0000
0000
0000
0000
,
0001
0000
0000
0000
,
0001
0000
0000
0000
,
1000
0000
0000
0000
,
1000
0000
0000
0000
,
0010
0000
0000
0000
,
0010
0000
0000
0000
,
0100
0000
0000
0000
,
0000
0000
0000
0110
;

//--------------- dance-single - B. M'Rey ----------------
#NOTES:
     dance-single:
     B. M'Rey:
     Easy:
     3:
     0,0,0,0,0:
0000
0000
0000
0000
,
0000
0000
0000
0000
,
0000
0000
0000
0000
,
0000
0000
0000
0000
,
0100
0000
0001
0000
,
0100
1000
0100
0000
,
0010
0000
0110
0000
,
0000
0000
0000
0000
,
1000
0000
0001
0000
,
1000
0000
0001
0000
,
1000
0000
0001
0000
,
1000
0000
0001
0000
,
1001
0000
0001
0000
,
1000
0000
0001
0000
,
2002
0000
0000
0000
,
3003
0000
0000
0000
,
0010
0000
0100
0000
,
1000
0000
0010
0000
,
0100
0000
0001
0000
,
0010
0000
0001
0000
,
1000
0000
1000
0000
,
0001
0000
0001
0000
,
1001
0000
0000
0000
,
0010
0000
0100
0000
,
1000
0000
0010
0000
,
0000
0000
0100
0000
,
0001
0000
0010
0000
,
0100
0000
0001
0000
,
1000
0000
0010
0000
,
0100
0000
0001
0000
,
0010
0000
0000
0000
,
1000
0000
0000
0000
,
0001
0000
0000
0000
,
0100
0000
0000
0000
,
0010
0000
1000
0000
,
0000
0000
0000
0000
,
0100
0000
0000
0000
,
0010
0000
0000
0000
,
0001
0000
1000
0000
,
0010
0000
0000
0000
,
0100
0000
0000
0000
,
0010
0000
0000
0000
,
1000
0000
0001
0000
,
0010
0000
0000
0000
,
0100
0000
0000
0000
,
0010
0000
0000
0000
,
1000
0000
0000
0000
,
0001
0000
0000
0000
,
1000
0000
0001
0000
,
1000
0000
0000
0000
,
0010
0000
0100
0000
,
0010
0000
0000
0000
,
1000
0000
0000
0000
,
0001
0000
0000
0000
,
0010
0000
0000
0000
,
0001
0000
0000
0000
,
0100
0000
0010
0000
,
0100
0000
0000
0000
,
1000
0000
0100
0000
,
0010
0000
0000
0000
,
0001
0000
0000
0000
,
1000
0000
0000
0000
,
0010
0000
0000
0000
,
0100
0000
0000
0000
,
0001
0000
0000
0000
,
0010
0000
0000
0000
,
0100
0000
1000
0000
,
0100
0000
0000
0000
,
0010
0000
0000
0000
,
0100
0000
0000
0000
,
0001
0000
0000
0000
,
1000
0000
0000
0000
,
0010
0000
0000
0000
,
0100
0000
0000
0000
,
0100
0000
0001
0000
,
0100
0000
0000
0000
,
0010
0000
1000
0000
,
0010
0000
0100
0000
,
0010
0000
0001
0000
,
0010
0000
0100
0000
,
1001
0000
0000
0000
,
0000
0000
0000
0000
,
0110
0000
0000
0000
,
0001
0000
0000
0000
,
1000
0000
0000
0000
,
0010
0000
0100
0000
,
0010
0000
0000
0000
,
0001
0000
1000
0000
,
0001
0000
0000
0000
,
0100
0000
0000
0000
,
0010
0000
0000
0000
,
1000
0000
0000
0000
,
0001
0000
0000
0000
,
0100
0000
0010
0000
,
0100
0000
0000
0000
,
0001
0000
0010
0000
,
0100
0000
0000
0000
,
1000
0000
0010
0000
,
0000
0000
0100
0000
,
0001
0000
0010
0000
,
0010
0000
0100
0000
,
1000
0000
0001
0000
,
1000
0000
0000
0000
,
0010
0000
0100
0000
,
0010
0000
0000
0000
,
1000
0000
0000
0000
,
0001
0000
0000
0000
,
0100
0000
0000
0000
,
0010
0000
0000
0000
,
1000
0000
0100
0000
,
0001
0000
0000
0000
,
0100
0000
0010
0000
,
0100
0000
0000
0000
,
0010
0000
1000
0000
,
0020
0000
0000
0000
,
0000
0000
0000
0030
,
1001
0000
1001
0000
,
0001
0000
1000
0000
,
0010
0000
0100
0000
,
0001
0000
1000
0000
,
0010
0000
0100
0000
,
0001
0000
1000
0000
,
0010
0000
0100
0000
,
0110
0000
0000
0000
,
0000
0000
0000
1001
;

//--------------- dance-single - B. M'Rey ----------------
#NOTES:
     dance-single:
     B. M'Rey:
     Medium:
     6:
     0,0,0,0,0:
0000
0000
0000
0000
,
0000
0000
0000
0000
,
0000
0000
0000
0000
,
0000
0000
0000
0000
,
0100
0000
1000
0000
0010
0000
0000
0110
,
0000
0110
0000
0110
0000
0000
1000
0000
,
0100
0000
0000
0000
0010
0000
0000
0000
0000
0000
0001
0000
0000
0000
0000
0001
,
0000
0000
0010
0000
,
0010
0100
0001
1000
,
0100
0010
0100
1000
,
0100
1000
0010
1000
,
0010
0100
0010
0100
,
0001
0010
0100
1000
,
0100
1000
0001
1000
,
0002
0000
0100
0000
,
0103
0000
0000
1000
0000
0000
0000
0000
,
0010
1000
0100
0000
,
0001
0100
0010
0000
,
0100
0010
0100
0000
,
0001
0100
0001
0000
,
0020
0000
0230
0000
,
0302
0000
0023
0000
,
0130
0000
0010
1000
,
0100
0000
0000
0100
0000
0000
0010
0000
,
0100
1000
0010
0001
,
0000
0010
0000
0100
0000
0000
1000
0000
,
0001
0010
0100
0000
,
0001
0010
0100
0000
,
0200
0000
0302
0000
,
0023
0000
2030
0000
,
3002
0000
0003
0000
,
0100
0010
0001
0000
,
0001
0010
0001
0000
,
0010
0100
0010
0000
,
0001
1000
0010
0000
,
0010
0000
0010
1000
,
0100
0000
0001
0100
,
0010
0000
0001
0010
,
0100
0000
0100
0000
,
0001
0000
0001
1000
,
0100
0000
1000
0000
,
0100
0000
0001
1000
,
0001
0000
0010
0100
,
1000
0000
0010
1000
,
0010
0000
0001
0010
,
0001
0000
0100
0010
,
0001
0000
0100
0000
,
0001
0000
1001
0000
,
0001
1000
0100
1000
,
0100
0000
0000
0110
0000
0000
0000
0000
,
0010
1000
0010
1000
,
0001
0000
0000
1001
0000
0000
0000
0000
,
0001
0100
0010
1000
,
0001
0100
0010
0100
,
0010
0000
0001
0000
,
0010
0000
0001
0000
,
0010
0000
0001
0100
,
0010
0000
0010
0100
,
0020
0000
0032
0000
,
0203
0000
0300
0010
,
0100
0000
0010
0000
,
0001
0000
0100
0010
,
0001
0000
0100
0000
,
0010
0000
0001
0000
,
0010
0000
0000
0100
,
0001
0000
0000
1000
,
0100
0000
0000
0000
0010
0000
0000
0100
,
0000
0000
0000
1000
,
0010
0000
0100
0000
,
0010
0000
0100
1000
,
0010
0000
0100
0000
,
0001
0000
0010
1000
,
0010
0000
0000
0100
,
0001
0000
0000
1000
,
0010
0000
0000
0000
0100
0000
0000
0001
,
0000
0000
0100
1000
,
0010
0000
0001
0000
,
0001
1000
0010
0000
,
0010
0001
1000
0000
,
0100
0001
0100
0000
,
0010
0000
0100
0000
,
0001
0000
0010
1000
,
0100
0000
0001
0000
,
0010
0000
0100
0000
,
0001
0000
0000
0000
,
0100
1000
0010
0100
,
0010
0000
0000
1100
0000
0000
0000
0000
,
0010
0100
0001
0010
,
0100
0000
0000
0011
0000
0000
0000
0000
,
0010
0100
0001
1000
,
0100
0010
0100
1000
,
0010
0000
1000
0000
,
0001
0000
0010
1000
,
0100
0000
0001
0100
,
0010
0000
0001
0010
,
0100
0000
1000
0000
,
0010
0000
0000
0100
,
0010
1000
0100
1000
,
0100
0000
0010
0100
,
0001
0000
0100
0000
,
0001
0000
1000
0000
,
0001
0100
0010
1000
,
0001
0000
0000
1010
0000
0000
0000
0000
,
0001
0100
0001
0100
,
0010
0000
0000
0101
0000
0000
0000
0000
,
0001
1000
0010
0100
,
0010
1000
0100
0010
,
0001
0000
0100
0000
,
0001
0000
1000
0000
,
0010
0000
0001
0100
,
0010
0000
0100
1000
,
0001
0000
0100
0000
,
0001
0000
0000
1000
,
0100
0000
0010
0000
0100
0000
0000
0020
,
0000
0000
0000
0000
,
0000
0030
0000
0000
,
0100
0000
0100
0000
,
0010
1000
0010
0000
,
0010
0100
0001
0000
,
0010
0100
0010
0000
,
0001
0010
0001
0000
,
0010
1000
0010
0000
,
0100
0010
0100
0000
,
0001
0000
0010
0000
,
0100
0000
0001
1001
;

//--------------- dance-single - B. M'Rey ----------------
#NOTES:
     dance-single:
     B. M'Rey:
     Hard:
     8:
     0,0,0,0,0:
0000
0000
0000
0000
,
0000
0000
0000
0000
,
0000
0000
0000
0000
,
0000
0000
0000
0000
,
0001
0000
0010
0000
0001
0000
0000
0101
,
0000
1010
0000
0101
0000
0000
1000
0000
,
0100
0000
1000
0000
0000
0010
0000
0001
,
0000
1000
0001
0000
,
0001
0000
0001
1000
0001
0000
0100
0010
,
0100
0000
0001
1000
0001
0000
0001
0100
,
0010
0000
0010
0100
0001
0000
0001
0010
,
0001
0000
0010
0100
0010
0000
0010
1000
,
0100
0000
0100
1000
0010
0000
0010
0100
,
0010
0000
0100
1000
0100
0000
0010
0100
,
0001
0100
0001
0010
,
0110
0000
0000
0110
0000
0000
0010
1000
,
0100
1000
0100
0010
,
0100
0000
0010
0000
0001
0000
0100
0010
,
0001
1000
0100
1000
,
0100
0010
1000
0000
0010
0000
0100
0000
,
0022
0033
0220
0330
,
2020
3030
2200
3300
,
0110
0000
0000
0000
0100
0000
1000
0100
,
0001
0000
1000
0100
0010
0000
1000
0000
,
0010
0000
0100
0001
0010
0000
1000
0000
,
0100
0000
0010
0000
0100
0000
1000
0001
,
0010
1000
0001
0010
,
0001
0100
0001
1000
,
2020
3030
2002
3003
,
0202
0000
0303
0000
0220
0000
0330
0202
,
0000
0303
0001
0000
,
0100
0000
1000
0000
0001
0000
0100
0010
,
0001
0000
0100
0000
0010
0000
1000
0100
,
0001
1000
0100
1000
,
0001
0000
0100
1000
0010
0000
0100
0000
,
0001
0100
0001
1000
,
0100
0000
0010
0000
0001
0000
0010
1000
,
0100
1000
0100
1000
,
0100
0000
0010
0001
0000
0010
0000
0100
,
0000
1000
0100
0010
,
0100
1000
0010
0100
,
0010
1000
0100
1000
,
0100
0000
0000
0000
0001
0010
0000
0100
,
0000
0010
0100
1000
,
0100
1000
0001
0010
,
0001
0000
0100
0000
0010
0001
1000
0000
,
0100
1000
0100
0010
,
0100
0010
0000
0001
0000
0000
0000
0000
,
1010
1010
0110
0101
,
0101
0000
0000
1001
0000
0000
0010
0000
,
1100
1100
1001
0011
,
0011
0000
0000
0110
0000
0000
0010
0000
,
0001
0100
0010
1000
,
0100
1000
0010
1000
,
0001
0010
0100
2000
,
0000
3200
0301
0010
,
0001
0000
0000
0000
0010
0000
1000
0100
,
0000
1000
0010
0100
,
2002
3003
0022
0033
,
0202
0303
0010
1000
,
0010
0000
1000
0000
0100
0010
0000
0100
,
0000
0000
0010
0000
0100
0000
1000
0010
,
0000
0000
1000
0000
0010
0000
0100
0001
,
0010
0100
0001
0000
,
0002
0000
0013
1000
,
0020
0000
0031
1000
,
0200
0000
0000
0000
0302
0000
0000
0203
,
0000
0300
0010
1000
,
0001
0010
0100
0010
,
0100
0000
0001
0100
,
0002
0000
0000
0000
0003
0010
0100
0000
,
0020
0030
0010
0100
,
0002
0000
0103
0010
,
0002
0000
1003
0100
,
0002
0000
0000
0000
0023
0000
0000
2030
,
0000
0000
3000
0000
0000
0100
1000
0100
,
0010
0000
0100
0000
0001
0000
1000
0100
,
0001
0000
1000
0000
0010
0000
1000
0100
,
0010
0000
0100
0000
0001
0000
0010
0100
,
0001
1000
0010
1000
,
0001
0000
0100
0000
,
0001
0000
0100
1000
,
0100
0000
0000
0000
0001
0000
1000
0001
,
1000
0000
0010
0100
0000
0010
0000
0000
,
0001
1000
0010
0000
,
1100
1100
0110
0011
,
0011
0000
0000
1001
0000
0000
0010
0000
,
1010
1010
1001
0101
,
0101
0000
0000
0110
0000
0000
0010
0000
,
0100
1000
0010
1000
,
0010
1000
0001
0010
,
0001
1000
0001
0200
,
0000
0300
1000
0000
0100
0000
0010
0000
,
0100
0000
0000
0000
0100
1000
0100
1000
,
0001
1000
0001
0100
,
2002
3003
0220
0330
,
0022
0033
0001
0010
,
0100
0000
1000
0000
0100
1000
0000
0010
,
0000
0000
0100
0000
0001
0000
0100
0010
,
0100
0000
0001
0010
0000
0000
1000
0100
,
0000
0000
0010
0100
0000
0000
1000
0000
,
0110
0110
1010
1001
,
1001
0000
0000
0101
0000
0000
0010
0000
,
1001
1001
0011
0110
,
0110
0000
0000
1100
0000
0000
0010
0000
,
0100
0010
0001
0010
,
0100
1000
0100
1000
,
0010
1000
0010
0200
,
0000
0300
1000
0000
0010
0000
1000
0100
,
1000
0000
0000
0000
0001
0100
0010
0100
,
0000
1000
0001
0010
,
2002
3003
0220
0330
,
0022
0033
0000
0010
,
0100
1000
0100
1000
,
2002
0000
0000
0000
,
0000
0000
0000
3003
,
0101
0000
0110
0000
,
0001
1000
0001
1000
,
0001
0100
0010
0100
,
0010
0100
0001
1000
,
0001
1000
0001
0010
,
0100
0010
0100
0010
,
0001
1000
0001
1000
,
0110
0000
0000
0000
,
0000
0000
0000
1001
;
