#TITLE:Let Go;
#SUBTITLE:(Album Mix Edit);
#ARTIST:Paul Van Dyk Feat. Rea Garvey;
#GENRE:TRANCE;
#CREDIT:B. M'Rey;
#MUSIC:Let Go (Album Mix Edit).ogg;
#BANNER:Let Go (Album Mix Edit)-BN.png;
#BACKGROUND:Let Go (Album Mix Edit)-bg.png;
#CDTITLE:./CDTITLES/Energy 08 - The Dancefloor Hits.png;
#SAMPLESTART:78.424;
#SAMPLELENGTH:12;
#SELECTABLE:YES;
#OFFSET:-0.211;
#BPMS:0=135;

//--------------- dance-single - B. M'Rey ----------------
#NOTES:
     dance-single:
     B. M'Rey:
     Beginner:
     1:
     0,0,0,0,0:
0000
0000
0000
0000
,
0000
0000
0000
0000
,
0000
0000
0000
0000
,
0000
0000
0000
0000
,
0001
0000
0000
0000
,
0100
0000
0000
0000
,
0010
0000
0000
0000
,
1000
0000
0000
0000
,
0110
0000
0000
0000
,
0001
0000
0000
0000
,
0010
0000
0000
0000
,
1000
0000
0000
0000
,
1001
0000
0000
0000
,
0000
0000
0000
0000
,
0100
0000
0000
0000
,
0000
0000
0000
0000
,
0010
0000
0000
0000
,
0000
0000
0000
0000
,
0001
0000
0000
0000
,
0000
0000
0000
0000
,
1000
0000
0000
0000
,
0000
0000
0000
0000
,
0100
0000
0000
0000
,
0000
0000
0000
0000
,
0010
0000
0000
0000
,
0000
0000
0000
0000
,
0001
0000
0000
0000
,
0000
0000
0000
0000
,
1000
0000
0000
0000
,
0010
0000
0000
0000
,
0100
0000
0000
0000
,
0001
0000
0000
0000
,
0010
0000
0000
0000
,
0001
0000
0000
0000
,
0100
0000
0000
0000
,
0010
0000
0000
0000
,
1000
0000
0000
0000
,
0010
0000
0000
0000
,
0100
0000
0000
0000
,
0001
0000
0000
0000
,
0010
0000
0000
0000
,
0100
0000
0000
0000
,
0001
0000
0000
0000
,
1000
0000
0000
0000
,
0001
0000
0100
0000
,
0010
0000
1000
0000
,
0000
0000
0001
0000
,
0100
0000
0010
0000
,
0000
1000
0000
0010
,
0000
0100
0000
0001
,
0000
0000
0000
0000
,
0000
0000
0000
0000
,
1001
0000
0010
0000
,
0100
0000
0001
0000
,
0000
0000
1000
0000
,
0010
0000
0100
0000
,
0000
0001
0000
0100
,
0000
0010
0000
1000
,
0000
0000
0000
0000
,
0001
0000
1000
0000
,
1001
0000
0000
0000
;

//--------------- dance-single - B. M'Rey ----------------
#NOTES:
     dance-single:
     B. M'Rey:
     Easy:
     2:
     0,0,0,0,0:
0000
0000
0000
0000
,
0000
0000
0000
0000
,
0000
0000
0000
0000
,
0000
0000
0000
0000
,
1000
0000
0001
0000
,
0010
0000
0001
0000
,
0100
0000
0010
0000
,
1000
0000
0000
0000
,
0001
0000
0010
0000
,
0001
0000
0100
0000
,
0010
0000
1000
0000
,
0100
0000
0000
0000
,
1001
0000
0010
0000
,
0100
0000
0000
0000
,
0001
0000
1000
0000
,
0010
0000
0000
0000
,
0100
0000
1000
0000
,
0010
0000
0000
0000
,
0000
0000
0001
0000
,
0100
0000
0000
0000
,
0010
0000
1000
0000
,
0001
0000
0000
0000
,
0100
0000
0010
0000
,
1000
0000
0000
0000
,
0100
0000
0001
0000
,
0010
0000
0000
0000
,
0100
0000
0010
0000
,
1000
0000
0000
0000
,
0001
0000
0010
0000
,
0001
0000
0001
0000
,
0001
0000
1000
0000
,
0010
0000
0010
0000
,
0010
0000
0100
0000
,
1000
0000
1000
0000
,
0010
0000
0100
0000
,
0001
0000
0001
0000
,
0010
0000
0001
0000
,
0100
0000
0100
0000
,
0100
0000
0010
0000
,
1000
0000
1000
0000
,
1000
0000
0001
0000
,
0010
0000
0010
0000
,
0100
0000
0001
0000
,
1000
0000
0000
0000
,
1000
0001
0100
0000
,
0010
0100
0001
0000
,
0010
0000
1000
0100
,
0001
0000
0010
0000
,
0100
0001
0100
0000
,
0010
0000
1000
0000
,
0100
0000
0001
0000
,
0010
0000
0100
0000
,
1001
0010
0100
0000
,
1000
0001
0100
0000
,
0010
0000
0100
0001
,
0010
0000
1000
0000
,
0100
0001
0100
0000
,
0010
0000
1000
0000
,
0001
0000
0010
0000
,
0100
0000
0001
0000
,
1001
0000
0000
0000
;

//--------------- dance-single - B. M'Rey ----------------
#NOTES:
     dance-single:
     B. M'Rey:
     Medium:
     4:
     0,0,0,0,0:
0000
0000
0000
0000
,
0000
0000
0000
0000
,
0000
0000
0000
0000
,
1000
0001
1000
0001
,
1001
0000
0001
0100
,
0010
0000
1000
0001
,
0010
0000
0100
0010
,
1000
0000
0001
0000
,
0110
0000
0001
0010
,
0001
0000
1000
0010
,
0100
0000
0001
0010
,
1000
0000
0010
0000
,
0110
0000
0001
1000
,
0010
0000
0100
0000
,
0001
0000
0010
0001
,
0100
0000
0010
0000
,
1000
0000
0010
0100
,
0001
0000
0010
0000
,
1000
0000
0010
0100
,
0001
0000
0010
0000
,
1000
0000
0010
0100
,
0001
0000
0010
0000
,
1000
0000
0010
0100
,
0001
0000
0010
0000
,
1000
0000
0010
0100
,
0001
0000
0010
0000
,
0001
1000
0010
0100
,
0010
0000
1000
0000
,
1001
0000
0010
0001
,
0100
0000
0010
0000
,
0100
0000
0001
0010
,
1000
0000
0010
0000
,
1000
0100
0001
0010
,
0100
0000
0010
0000
,
0100
0001
0010
1000
,
0100
0000
0010
0000
,
0100
0001
0010
1000
,
0010
0000
0010
0000
,
0100
0000
0001
1000
,
0010
0000
0100
0000
,
0001
0000
1000
0010
,
0100
0000
0001
0000
,
0010
0000
1000
0010
,
0100
0000
0000
0000
,
0110
1000
0010
1000
,
0100
1000
0100
0010
,
0100
0010
0001
0100
,
0001
1000
0010
0100
,
0010
1000
0001
0010
,
0100
1000
0001
1000
,
0110
1000
0110
0100
,
0110
1000
0110
1000
,
0110
0010
0100
0010
,
0001
0100
0001
0010
,
0100
1000
0001
1000
,
0001
1000
0010
0100
,
0010
0100
0010
1000
,
0100
0010
0001
0100
,
0110
0100
0110
1000
,
0110
1000
0110
1000
,
0110
0000
0000
0000
;

//--------------- dance-single - B. M'Rey ----------------
#NOTES:
     dance-single:
     B. M'Rey:
     Hard:
     7:
     0,0,0,0,0:
0000
0000
0000
0000
,
0000
0000
0000
0000
,
0000
0000
0000
0000
,
0100
0000
0010
0000
0001
0000
0100
1000
,
0001
0000
0010
0000
0001
0000
0100
1000
,
0010
0000
0100
0000
0001
0000
1000
0100
,
0001
0000
0010
0000
0100
0000
1000
0001
,
0010
0100
0010
1000
,
0110
0000
0010
0000
0001
0000
0010
1000
,
0100
0000
0010
0000
0001
0000
0100
0010
,
0001
0000
0010
0000
0001
0000
0100
1000
,
0010
1001
0110
1010
,
0101
0000
0000
1000
0010
0000
0100
0010
,
0000
0001
0000
1000
0000
0100
0000
1000
,
0100
0000
0001
0000
0010
0100
0000
0010
,
0100
0010
0000
0100
0000
0010
0000
1000
,
0100
0000
0001
0100
0010
0000
0100
0010
,
0000
0010
0000
0100
0000
0010
0000
0100
,
0010
0000
0000
0100
0001
0000
0100
0010
,
0000
1000
0000
0100
0000
0010
0000
1000
,
0010
0000
0001
1000
0010
0000
0100
1000
,
0000
0010
0000
0100
0000
0010
0000
0001
,
0100
0000
0001
0100
0001
0000
0100
0001
,
0010
0100
1000
0010
,
1000
0000
0001
0100
0010
0000
0100
1000
,
0010
0100
0001
0010
,
0001
0000
1000
0000
0010
0000
0100
1000
,
0010
0001
0100
0010
,
1000
0000
0100
0010
0001
0000
0010
1000
,
0001
0010
0100
0010
,
0001
0000
0001
0100
0001
0000
0001
0100
,
0010
0100
0001
1000
,
0100
0000
0010
1000
0010
0000
0001
0010
,
0001
0010
0100
1000
,
0100
0000
0010
0000
0001
0010
0001
0000
,
1000
0010
0100
0010
,
0001
0000
0010
1000
0100
0000
0100
1000
,
0001
0010
0100
0010
,
0001
0000
1000
0000
0010
1000
0100
0000
,
0010
0100
0001
0010
,
0001
0000
1000
0010
0001
0000
0010
1000
,
0100
1000
0010
0100
,
0001
0000
0010
0000
0001
0100
0010
0000
,
0200
0000
0302
0000
,
1103
0000
0010
0100
0001
0000
0001
1000
,
0100
0000
0001
0010
0100
0000
0001
0100
,
0001
0000
0100
0010
0001
0000
0010
1000
,
0100
0000
0001
1000
0010
0000
0001
1000
,
0100
0000
0001
1000
0010
0000
0001
1000
,
0010
0000
0001
1000
0001
0000
0001
0100
,
0001
0110
1100
1001
,
0110
1010
0011
0110
,
1001
0000
0001
0010
0100
0000
0010
1000
,
0100
0000
0001
0010
0001
0000
0010
1000
,
0100
0000
0100
0010
0100
0000
0001
0010
,
0001
0000
0010
1000
0010
0000
0010
0100
,
0001
0000
0010
1000
0100
0000
0100
0010
,
0001
0000
0010
1000
0001
0000
0010
0100
,
0011
1100
0110
1100
,
0011
1010
0110
0011
,
1001
0000
0000
0000
;

//--------------- dance-single - B. M'Rey ----------------
#NOTES:
     dance-single:
     B. M'Rey:
     Challenge:
     8:
     0,0,0,0,0:
0000
0000
0000
0000
,
0000
0000
0000
0000
,
0000
0000
0000
0000
,
1100
0000
0000
0000
1001
0000
0000
0000
0100
0000
0010
0000
0100
0001
0100
0001
,
0100
0000
1001
0000
1000
0100
0010
0100
,
0010
0000
0101
0000
0001
1000
0010
1000
,
0010
0000
0110
0000
0001
0100
0010
1000
,
0100
0000
0010
0000
0001
0010
0001
0000
,
0100
0000
1010
0000
0010
1000
0001
0100
,
0001
0000
1001
0000
0100
1000
0100
1000
,
0001
0000
0101
0000
0001
1000
0010
1000
,
0010
0000
1000
0000
0100
0000
0000
0000
0100
0000
0010
0000
0100
1000
0100
1000
,
0100
0000
0100
0010
0001
0100
0001
1000
,
0010
0100
0001
0010
,
0100
0000
1000
0010
0100
1000
0001
0010
,
0100
0010
0001
0100
,
0001
0000
0100
0010
0001
0100
0010
1000
,
0010
1000
0100
1000
,
0010
0000
0100
0010
0001
0010
0001
0100
,
0001
0000
0000
0000
0010
0000
0000
0000
0100
0000
0000
0000
0010
0000
1000
0010
,
0001
0000
0010
1000
0010
0000
0010
1000
,
0100
1000
0001
1000
,
0100
0000
0001
0010
0001
1000
0001
0100
,
0010
1000
0100
1000
,
0010
0000
0100
1000
0001
0000
0010
0100
,
0001
0010
0100
0010
,
0001
0000
0001
0010
0001
0100
0001
0010
,
0100
0000
0000
0000
0010
0000
0000
0000
0001
0000
0000
0000
0100
0000
0001
1000
,
0100
0000
0100
0010
0001
0100
0010
0100
,
0001
1000
0001
0000
0010
1000
0100
0000
,
0001
0100
0010
0000
0100
0010
0001
0100
,
0010
0000
0001
0100
0010
0000
0001
1000
,
0010
0000
0010
0100
0010
1000
0100
0010
,
0001
0000
0100
0010
0001
0000
0001
1000
,
0001
0000
0100
1000
0010
0100
0010
0100
,
0010
0000
0000
0000
0100
0000
0010
0000
0001
0000
0000
0000
0010
0000
1000
0100
,
0001
0000
0001
0010
0001
1000
0100
0010
,
0001
0000
0010
0100
0001
0000
0100
1000
,
0010
0000
0100
1000
0010
0100
0001
1000
,
0100
0000
0010
1000
0001
0000
0001
1000
,
0010
0000
0010
1000
0100
1000
0010
1000
,
0010
0000
0001
1000
0010
0000
0100
1000
,
0010
0000
0001
0010
0001
1000
0010
0100
,
0010
0000
0000
0000
0100
0000
0000
0000
0010
0000
1000
0000
0001
0000
1000
0001
,
0100
0010
0100
0010
0100
0001
0010
0001
,
0010
0001
1000
0010
1000
0010
1000
0001
,
0010
0100
0010
0100
1000
0100
1000
0001
,
1000
0001
0100
0010
0100
0010
0100
0001
,
1000
0001
0100
0001
0100
0010
0100
0010
,
1000
0010
1000
0100
1000
0100
0010
0100
,
1000
0000
1000
0010
1000
0000
0010
0001
0010
0000
1000
0100
1000
0000
1000
0010
,
1000
0110
0011
1100
,
0110
0000
0010
0001
0010
0100
0010
0001
,
1000
0010
1000
0010
1000
0001
0100
0001
,
0100
0001
1000
0100
1000
0010
0100
0010
,
0100
0010
1000
0001
1000
0001
1000
0010
,
0100
0010
0100
0010
1000
0100
1000
0100
,
1000
0001
0100
0010
0100
0010
0100
0001
,
1000
0000
0010
0001
0010
0000
1000
0100
1000
0000
1000
0010
0100
0000
0100
0010
,
1000
0000
0010
0000
1000
0000
0000
0000
0100
0000
0001
0000
0010
0001
0010
0001
,
0010
0000
0000
0000
;
