#VERSION:0.83;
#TITLE:IT'S ALL COMING BACK TO ME NOW (Definitive Mix);
#ARTIST:NATALIE BROWNE;
#GENRE:ITALODANCE;
#MUSIC:It's All Coming Back To Me Now (Definitive Mix).ogg;
#BANNER:It's All Coming Back To Me Now (Definitive Mix)-bn.png;
#BACKGROUND:It's All Coming Back To Me Now (Definitive Mix)-bg.png;
#CDTITLE:./CDTITLES/ALMIGHTY.PNG;
#SAMPLESTART:66.493;
#SAMPLELENGTH:15;
#OFFSET:-0.161;
#BPMS:0=132.062,258=66.031;

//--------------- dance-single - B. M'Rey ----------------
#NOTEDATA:;
#STEPSTYPE:dance-single;
#DESCRIPTION:B. M'Rey;
#CREDIT:B. M'Rey;
#DIFFICULTY:Beginner;
#METER:3;
#RADARVALUES:0,0,0,0,0;
#NOTES:
0000
0000
0000
0000
,
0000
0000
0000
0000
,
0000
0000
0000
0000
,
0000
0000
0000
0000
,
0000
0000
0000
0000
,
0000
0000
0000
0000
,
0000
0000
1001
0000
,
0000
0000
0000
0000
,
0000
0000
0000
0000
,
0000
0000
0000
0000
,
0000
0000
0000
0000
,
0000
0000
0100
0000
,
0010
0000
1000
0000
,
0001
0000
0100
0100
,
0100
0000
0010
0000
,
1000
0000
0001
0000
,
0000
0000
0100
0000
,
0010
0000
1000
0001
,
1000
0000
0010
0000
,
0000
0000
0100
0000
,
0000
0000
0001
0000
,
1000
0000
0010
0000
,
0100
0000
1001
0000
,
0000
0000
0010
0000
,
0000
0000
0001
0000
,
1000
0000
0010
0000
,
0100
0000
0001
0001
,
0001
0000
0100
0100
,
0100
0000
1000
0000
,
0010
0000
0100
0100
,
0100
0000
0010
0000
,
0001
0000
1000
1000
,
1000
0000
0001
0000
,
1001
0000
1000
0000
,
0110
0000
0001
0000
,
0000
0000
1000
0000
,
0000
0000
0010
0100
,
0000
0000
0001
1000
,
0000
0000
0010
0000
,
0100
0000
0001
0000
,
1000
0000
0010
0100
,
0000
0000
0001
0010
,
0000
0000
1000
0000
,
0010
0000
0100
0000
,
0010
0000
1000
0001
,
0000
0000
0100
0010
,
0000
0000
1000
0000
,
0010
0000
0100
0000
,
0001
0000
1000
0001
,
0000
0000
0100
0010
,
0000
0000
1000
0000
,
0010
0000
0100
0000
,
0001
0000
1000
1000
,
1000
0000
0010
0000
,
0100
0000
0001
0001
,
0001
0000
1000
0000
,
0010
0000
0200
0000
,
0000
0000
0000
0000
,
0300
0000
0010
0000
,
0000
0000
0001
0000
,
1000
0000
0020
0000
,
0000
0000
0000
0000
,
0030
0000
0100
0000
,
0001
0000
1000
0000
,
0010
0000
0200
0000
,
0000
0000
0000
0000
0300
0000
0000
0000
0010
0000
0000
0000
0000
0000
0000
0001
,
0000
0000
0000
1000
0000
0000
0000
0020
0000
0000
0000
0000
0000
0000
0000
0000
,
0000
0030
0000
0000
;

//--------------- dance-single - B. M'Rey ----------------
#NOTEDATA:;
#STEPSTYPE:dance-single;
#DESCRIPTION:B. M'Rey;
#CREDIT:B. M'Rey;
#DIFFICULTY:Easy;
#METER:5;
#RADARVALUES:0,0,0,0,0;
#NOTES:
0000
0000
0000
0000
,
0000
0000
0000
0000
,
0000
0000
0000
0000
,
0000
0000
0000
0000
,
0000
0000
0000
0000
,
0000
0000
0000
0000
,
0000
0000
1000
0001
,
0010
0100
0001
0000
,
0000
0000
1000
0010
,
0000
0100
0010
0000
,
1000
0001
1001
0000
,
0020
0000
0230
0000
,
0020
0000
0330
1000
,
0100
0010
0100
0010
,
1001
0000
0100
0010
,
0001
0010
0002
0000
,
0203
0000
1300
0010
,
0001
0010
0001
1000
,
0020
0000
0130
1000
,
0100
0000
0001
0010
,
0100
0000
0001
1000
,
0010
0100
0002
0000
,
0023
0000
1030
0100
,
0010
0000
0001
0100
,
0001
0000
0001
0100
,
0010
0100
0020
0000
,
0032
0000
0103
0010
,
0001
1000
0001
1000
,
0001
0000
0100
1000
,
0010
0100
0010
1000
,
0010
0000
0001
1000
,
0100
1000
0100
1000
,
0010
0000
0010
1000
,
0011
0000
0100
1000
,
0100
0000
0200
0000
,
0000
0300
0000
0020
,
0000
0000
0031
0100
,
0000
1000
0100
0010
,
0000
0010
0100
1000
,
0001
0100
0110
0000
,
0011
0000
0001
1000
,
0010
0000
0001
0100
,
0001
0000
0100
0010
,
0001
0100
1001
0000
,
0110
0000
0001
1000
,
0001
0000
0100
0010
,
0001
0000
0001
1000
,
0100
0000
1001
0000
,
0110
0000
0001
0100
,
0001
0000
0100
1000
,
0001
0000
0010
0100
,
0001
0010
1001
0000
,
1001
0000
0010
1000
,
0100
0000
1001
0000
,
1001
0000
0010
0100
,
0010
0000
1001
0000
,
0110
0000
0002
0000
,
0000
0000
0203
0000
,
0000
1300
0001
1000
,
0010
0100
0001
0000
,
0010
0000
0020
0000
,
0000
0000
0032
0000
,
0000
0003
0001
0010
,
0100
0010
0100
0000
,
0001
0000
0020
0000
,
2030
0000
0000
0000
0000
0000
3000
0000
0001
0000
0000
0000
0000
0100
0000
0010
,
0000
0001
0000
0010
0000
0100
0000
2000
0000
0000
0000
0000
0000
0000
0000
0000
,
0000
0000
0000
3000
0000
0000
0000
0000
0000
0000
0000
0000
0000
0000
0000
0000
;

//--------------- dance-single - B. M'Rey ----------------
#NOTEDATA:;
#STEPSTYPE:dance-single;
#DESCRIPTION:B. M'Rey;
#CREDIT:B. M'Rey;
#DIFFICULTY:Medium;
#METER:8;
#RADARVALUES:0,0,0,0,0;
#NOTES:
0000
0000
0000
0000
,
0000
0000
0000
0000
,
0000
0000
0000
0000
,
0000
0000
0000
0000
,
0000
0000
0000
0000
,
0000
0000
0000
0000
,
0000
0000
0000
0100
1000
0000
0010
0001
,
0000
0001
0000
0200
0000
0000
0000
0000
,
0300
0000
0000
0001
0010
0100
0000
0001
,
0000
0100
1000
0000
1000
0001
0100
0000
,
0100
0000
0010
0000
1000
0001
0000
0000
,
0000
0010
0000
0000
0002
0000
0000
0000
,
2003
0000
0000
0000
3001
0100
0001
0000
,
0010
1000
0001
0000
0100
0000
0001
0000
,
0001
0000
0001
0100
0010
0000
0010
0100
,
0010
0000
0001
0010
0001
0000
0000
0000
,
0000
0000
0000
0010
1000
0000
0100
0010
,
1000
0000
1000
0001
0100
0000
0010
0000
,
1000
0000
0000
0000
0001
0000
0010
0100
,
0000
0000
1000
0000
0001
0010
0100
0010
,
0000
0000
0001
0100
0010
0000
0001
0100
,
0000
0100
0000
1000
0000
1000
0010
1000
,
0000
0010
0001
1000
0100
0000
0100
0010
,
0000
0000
0010
0000
0001
0010
0100
0010
,
0000
0000
0001
0000
0001
0000
0100
1000
,
0000
1000
0000
0010
0000
0100
0010
0100
,
0000
1000
0010
0000
0100
1000
0100
1000
,
0000
0010
0001
0000
0001
0100
0001
0200
,
0000
0000
0000
1300
0001
0000
0001
0100
,
0000
0010
0100
0000
0100
0000
0001
0000
,
0001
0000
0001
0010
0100
0000
0100
1000
,
0100
0000
0010
0000
0001
0000
0001
0010
,
0000
0100
0010
0000
0010
0000
0001
0000
,
1001
0000
0100
1000
0100
0000
0100
0000
,
0002
0000
0103
2000
0010
0000
0100
0000
,
0010
0000
0100
0000
3010
1000
0010
0000
,
0001
0000
0001
0000
0001
1000
0001
1000
,
0000
0000
0100
0000
0100
0010
0001
1000
,
0000
0000
0000
0010
0100
1000
0100
0010
,
0000
0010
0000
0010
0000
1000
0001
1000
,
0000
1000
0010
0000
0010
1000
0001
1000
,
0000
0000
0000
0010
0100
0010
0001
0010
,
0000
0000
0000
1000
0100
0000
0001
0010
,
0000
0010
0100
1000
0000
1000
0100
0010
,
0000
0010
0001
0000
0100
1000
0010
1000
,
0000
0000
0001
0010
0001
0010
0001
1000
,
0000
0000
0000
1000
0001
0010
0001
0010
,
0000
1000
0000
1000
0000
1000
0001
0100
,
0000
0100
0001
0000
0100
1000
0100
1000
,
0000
0000
0000
0100
0001
1000
0001
1000
,
0000
0000
0000
0010
0001
0000
0001
0100
,
0000
1000
0000
1000
0000
0100
0001
0100
,
0000
0100
0010
0000
0001
0000
0001
0000
,
0010
0000
0010
0100
0000
1000
0001
1000
,
0000
1000
0100
0000
0100
0000
0001
1000
,
0000
0010
0000
0010
0000
1000
0010
0100
,
0000
0100
0010
0000
2002
0000
0000
0000
,
0000
0000
0023
0000
,
0000
0000
3031
1000
,
0001
0000
0100
1000
0000
0010
0100
0010
,
0000
0010
0001
0000
2002
0000
0000
0000
,
0000
0000
3200
0000
,
0000
0000
0313
1000
,
0001
0000
0001
1000
0000
1000
0001
0010
,
0000
0010
0100
0000
0020
0000
0000
0000
,
0000
0000
0000
0000
0000
0000
0000
0000
0031
0000
0000
0000
0000
0100
0000
0010
,
0000
0001
0000
1000
0000
0010
0000
0200
0000
0000
0000
0000
0000
0000
0000
0000
,
0000
0000
0000
0300
0000
0000
0000
0000
0000
0000
0000
0000
0000
0000
0000
0000
;

//--------------- dance-single - B. M'Rey ----------------
#NOTEDATA:;
#STEPSTYPE:dance-single;
#DESCRIPTION:B. M'Rey;
#CREDIT:B. M'Rey;
#DIFFICULTY:Hard;
#METER:11;
#RADARVALUES:0,0,0,0,0;
#NOTES:
0000
0000
0000
0000
,
0000
0000
0000
0000
,
0000
0000
0000
0000
,
0000
0000
0000
0000
,
0000
0000
0000
0000
,
0000
0000
0000
0000
,
0000
0000
0000
0100
0010
1000
0000
0010
,
0000
0100
0000
0000
0001
0000
0000
0200
0000
0000
0000
0000
0000
0000
0000
0000
,
0300
0000
0000
0001
1000
0010
0100
0001
,
0000
0001
0100
0010
1000
0000
0001
0000
,
0100
0000
0001
0000
0100
0000
0010
0001
2000
0000
0000
0000
0000
0000
0000
0000
,
3200
0000
0010
0000
,
0310
0000
0000
0000
0010
0100
0001
1000
,
0001
1000
0001
0100
0010
1000
0001
0010
,
0001
0000
0100
0000
0010
1000
0100
0010
,
0001
1000
0001
0100
0020
0000
0001
0000
,
0031
0000
0001
1000
0100
0010
0001
0100
,
0010
0100
0001
1000
0100
1000
0001
1000
,
0002
0000
0000
0000
0103
0010
0100
1000
,
0000
0000
1000
0000
0000
0000
0100
0010
0001
0000
0010
0000
0001
0000
0100
0000
,
0000
0000
1000
0000
0000
0000
0010
0100
0010
0000
1000
0000
0001
0000
1000
0000
,
0000
0010
0001
0100
0000
0010
0001
0100
,
0000
0000
0100
0000
0001
0000
1000
0010
1000
0000
0100
0000
1000
0000
0010
0000
,
0000
0000
0100
0000
0001
0000
1000
0100
0010
0000
0001
0000
0010
0000
0100
0000
,
0000
0000
0010
0000
0001
0000
0100
0010
1000
0000
0001
0000
0010
0000
0100
0000
,
0000
0010
0001
0010
0100
1000
0010
0100
,
0010
0100
0001
1000
0001
0100
0010
1000
,
0000
0100
0010
1000
0010
1000
0100
2000
,
0000
0000
0000
0000
3000
0000
0001
1000
0010
0000
0100
0000
0010
0000
0100
0000
,
0000
1000
0100
1000
0001
0100
0010
0200
,
0000
0000
0000
0000
0300
0000
0001
0100
0001
0000
0010
0000
0100
1000
0100
0000
,
0010
0100
0010
0001
1000
0001
1000
0100
,
0000
0000
0001
1000
0010
0100
0001
0010
,
0001
0000
0010
0000
0010
1000
0010
1000
,
0100
0001
1000
0010
0100
0010
0001
0010
,
0001
0000
1000
0000
0100
0000
0010
0000
0100
1000
0100
1000
0100
1000
0100
1000
,
0100
1000
0100
0010
0100
0010
0100
0010
0001
0000
1000
0000
0001
0000
0010
0000
,
0100
0000
0010
0000
0001
0000
1000
0010
1000
0000
0100
0000
0001
0000
0100
0000
,
0001
0000
0100
0000
0010
0000
1000
0100
1000
0000
0001
0000
0100
0000
0010
0000
,
0000
0100
0010
0200
0000
2300
3002
0203
,
0000
0000
0010
0000
0310
0000
1000
0100
1000
0000
0001
0000
0100
0000
0010
0000
,
0001
0000
0100
0000
0001
0000
0010
0100
1000
0000
0001
0000
0100
0000
1000
0000
,
0000
0000
0100
0000
0001
0000
1000
0100
1000
0000
0100
0000
0001
0000
0010
0000
,
0000
0010
0100
2000
0000
3020
0032
0203
,
0000
0000
0010
0000
0310
0000
1000
0010
1000
0000
0001
0000
0100
0000
0010
0000
,
0100
0000
0010
0000
0001
1000
0010
0001
1000
0000
0100
0000
0010
0000
0100
0000
,
0010
0000
1000
0000
0001
0000
1000
0001
0100
0000
0001
0000
0010
0000
1000
0000
,
0000
1000
0001
0200
0000
2300
3020
2030
,
0000
0000
0010
0000
3001
0000
0100
0001
1000
0000
0001
0000
0010
0000
1000
0000
,
0010
0000
0100
0000
0001
0000
1000
0010
0100
0000
0010
0000
0100
0000
0010
0000
,
0000
0100
0001
1000
0100
1000
0100
0010
,
0000
0010
0001
2000
0000
3002
0203
0320
,
0000
0031
0001
1000
0100
0010
0001
0100
,
0010
0100
0010
2000
0000
3200
0302
0023
,
0000
0000
1000
0000
1030
0000
0100
1000
0001
0000
0010
0000
0100
0000
1000
0000
,
0001
0010
0001
0100
0010
1000
0001
0010
,
0100
1000
0100
1000
0002
0000
0010
0000
,
0100
1000
0010
0100
,
1003
0000
0000
0000
0010
0000
0100
0001
0010
0000
0001
0000
0000
0000
0100
0000
,
0000
1000
0100
0010
0001
0100
0010
0100
,
0001
0010
0100
0010
2000
0000
0100
0000
,
0010
0001
0100
0010
,
3001
0000
0000
0000
0010
0000
0100
0010
0100
0000
0001
0000
0000
0000
1000
0000
,
0000
0100
0001
0010
0001
1000
0100
0010
,
0001
0100
0010
0100
0020
0000
0000
0000
,
2000
0000
0000
0000
0000
0000
0000
0000
3031
0000
0000
0000
0000
0100
0000
0001
,
0000
0001
1000
0010
0000
0100
0010
0002
0000
0000
0000
0000
0000
0000
0000
0000
,
0000
0000
0000
0003
0000
0000
0000
0000
0000
0000
0000
0000
0000
0000
0000
0000
;
