#TITLE:IN MY HEART IN MY SOUL;
#SUBTITLE:(F.T. Remix);
#ARTIST:WILDSIDE;
#GENRE:ITALODANCE;
#MUSIC:IN MY HEART IN MY SOUL (F.T. Remix).ogg;
#BANNER:IN MY HEART IN MY SOUL (F.T. Remix)-bn.png;
#BACKGROUND:IN MY HEART IN MY SOUL (F.T. Remix)-bg.png;
#CDTITLE:./CDTITLES/SAIFAM.PNG;
#SAMPLESTART:54.068;
#SAMPLELENGTH:12;
#OFFSET:-0.062;
#BPMS:0=139.985;

//--------------- dance-single - B. M'Rey ----------------
#NOTES:
     dance-single:
     B. M'Rey:
     Beginner:
     1:
     0,0,0,0,0:
0000
0000
0000
0000
,
0000
0000
0000
0000
,
0000
0000
0000
0000
,
0000
0000
0000
0000
,
1001
0000
0000
0000
,
0000
0000
0000
0000
,
0000
0000
0000
0000
,
0000
0000
0000
0000
,
1000
0000
0000
0000
,
0010
0000
0000
0000
,
0100
0000
0000
0000
,
0001
0000
0000
0000
,
1000
0000
0000
0000
,
0010
0000
0000
0000
,
0100
0000
0000
0000
,
0010
0000
0000
0000
,
1000
0000
0001
0000
,
0100
0000
0000
0000
,
0010
0000
0001
0000
,
0100
0000
0000
0000
,
1000
0000
0010
0000
,
0100
0000
0000
0000
,
0001
0000
1000
0000
,
0010
0000
0000
0000
,
0100
0100
0000
0000
,
0001
0001
0000
0000
,
1000
0000
0010
0000
,
0100
0000
0010
0000
,
1000
1000
0000
0000
,
0001
0001
0000
0000
,
0100
0000
0010
0000
,
1001
0000
1000
0000
,
0020
0000
0130
0000
,
0002
0000
0003
0000
,
1000
0010
0100
0000
,
0001
0000
0010
0000
,
0200
0000
0310
0000
,
2000
0000
3000
0000
,
0001
1000
0010
0000
,
0100
0000
0010
0000
,
2002
0000
0000
0000
0000
0000
0000
3003
0010
0000
0000
0000
0000
0000
0000
0000
,
0200
0000
0000
0301
,
1000
0010
0000
0100
,
0000
0000
0010
0000
,
0002
0000
0000
0000
,
0000
0000
0000
0000
0000
0000
0000
0000
0000
0000
0000
0000
0000
0003
0000
0000
0000
0000
0000
0000
0000
0000
0000
0000
0000
0000
0000
0000
0000
0000
0000
0000
0000
0000
0000
0000
0100
0000
0000
0000
0000
0000
0000
0000
0000
0000
0000
0000
,
1000
0000
0010
0000
,
0110
0000
0000
0000
,
1000
0000
0000
0000
,
0001
0000
0000
0000
,
0100
0000
0000
0000
,
0010
0000
0000
0000
,
1000
0000
0000
0000
,
0001
0000
0000
0000
,
0010
0000
0000
0000
,
0001
0000
0000
0000
,
1001
0000
0000
0000
,
0100
0000
0000
0000
,
0010
0000
0000
0000
,
0001
0000
0000
0000
,
1000
0000
0000
0000
,
0010
0000
0000
0000
,
0100
0000
0000
0000
,
2002
0000
0000
0000
,
3003
0000
0000
0000
;

//--------------- dance-single - B. M'Rey ----------------
#NOTES:
     dance-single:
     B. M'Rey:
     Easy:
     3:
     0,0,0,0,0:
0000
0000
0000
0000
,
0000
0000
0000
0000
,
0000
0000
0000
0000
,
0000
0000
0000
0000
,
0100
0000
0000
0000
,
0010
0000
0000
0000
,
1000
0000
0000
0000
,
0020
0000
0000
0000
0000
0000
0000
0030
,
0101
0001
1000
0100
,
0010
0100
0010
0100
,
1000
0010
1000
0010
,
0100
0010
0100
0001
,
1000
0001
0010
0001
,
0100
0010
0100
0001
,
0010
0001
1000
0001
,
0200
0000
0000
0000
,
0310
0001
0010
0001
,
1000
0010
0000
0001
,
0010
0001
1000
0001
,
0200
0000
0300
0000
,
1000
0100
1000
0010
,
0100
0000
0010
0000
0000
0000
0000
0010
,
0000
0001
1000
0010
,
2000
0000
3000
0001
,
0010
0001
0010
0001
,
0100
0010
1000
0100
,
1000
0001
0010
0100
,
0000
0001
0100
0010
,
1100
0100
1000
0100
,
1000
0010
0100
0010
,
0100
0010
1000
0001
,
0101
0000
0000
0000
,
2000
0000
3100
0000
,
2000
0000
3010
0001
,
0010
0100
0010
0100
,
1000
0000
1000
0000
,
0002
0000
0013
0000
,
0002
0000
0013
0100
,
1000
0100
1000
0001
,
2000
0000
3100
0000
,
0200
0000
0310
0000
,
2000
0000
3010
0200
,
0000
0300
0010
0000
0100
0000
0000
0010
,
0000
0010
1000
0010
,
2000
0000
0000
0000
,
0000
3000
0010
0100
,
0000
0001
1000
0000
,
1100
0000
0000
0000
,
1000
0010
0100
0001
,
0010
0100
1000
0010
,
1000
0001
1000
0001
,
0010
0100
0010
0001
,
0100
0010
1000
0100
,
1000
0100
0010
0001
,
1000
0001
0010
0001
,
0100
0010
0100
0010
,
1001
0001
0010
0001
,
0010
0001
1000
0010
,
0100
0001
0100
0010
,
1000
0001
0010
0100
,
0010
0100
1000
0010
,
0100
0010
1000
0100
,
1000
0010
0100
0010
,
2020
0000
0000
0000
,
3030
0000
0000
0000
;

//--------------- dance-single - B. M'Rey ----------------
#NOTES:
     dance-single:
     B. M'Rey:
     Medium:
     6:
     0,0,0,0,0:
0000
0000
0000
0000
,
0000
0000
0000
0000
,
0000
0000
0000
0000
,
0000
0000
0000
0000
,
0010
0001
0010
0100
,
0010
0001
0100
0001
,
0100
0010
0100
0001
,
0020
0000
0000
0000
,
1030
0100
0001
0000
0010
0000
0001
0000
,
1000
0001
0010
0000
1000
0000
0100
0000
,
1000
0001
0010
0000
0100
0000
0010
0000
,
1000
0010
0100
0000
1000
0100
0010
0000
,
0100
0001
0010
0000
1000
0000
0100
0000
,
0010
1000
0001
0000
1000
0000
0100
0000
,
1000
0001
0010
0000
0100
0000
0010
0000
,
0200
0000
0000
0000
,
0310
0000
0001
0000
0010
1000
0100
0001
,
0000
0020
0000
0030
0100
0000
0010
2000
,
0000
0000
3010
0000
1000
0100
0000
0020
,
0000
0130
0010
0100
,
1000
0000
0001
0010
0100
0010
0000
0100
,
0000
0010
0000
0000
0000
0000
0001
0010
,
0000
0000
0001
0010
0100
0010
0000
0200
,
0000
0000
0000
0300
0010
0000
0001
0010
,
1000
0000
0100
1000
0010
0000
0100
0000
,
1000
0001
0010
0000
1000
0010
0001
0000
,
0010
0100
1000
0010
,
1000
0000
0001
0010
1000
0000
0001
0000
,
0100
1000
0010
0000
0100
0001
0010
0000
,
1000
0010
0001
0000
1000
0100
0001
0000
,
1000
0100
0010
0001
,
0110
0000
0000
0000
1000
0010
0000
0020
,
0000
0000
0000
0000
0130
1000
0000
0200
,
0000
0000
0000
0000
0310
0100
1000
0200
,
0000
0300
1000
0001
0100
0010
0000
0002
,
0000
0000
0013
0000
0100
0010
0000
0020
,
0000
0000
0000
0030
1000
0001
0000
0020
,
0000
0000
0000
0030
0010
0100
1000
0020
,
0000
0030
1000
0010
0100
0000
0010
0200
,
0000
2000
0000
3300
0010
0001
0000
0200
,
0000
0000
0000
0300
0100
0010
0000
0002
,
0000
0200
0000
0303
1000
0001
0010
0200
,
0000
0000
0310
0001
1000
0010
0000
0200
,
0000
0301
0000
0001
0010
0001
0000
0020
,
0000
0100
0100
0001
,
0001
0000
0030
0000
1000
0010
1000
0001
,
0000
0010
0100
0001
0010
0000
1000
0100
,
0010
0000
0020
0000
0000
0000
0000
0030
,
0010
0100
0010
0000
0001
0000
1000
0000
,
1000
0100
0010
0000
0010
0000
1000
0000
,
0100
0010
1000
0000
0010
0000
1000
0000
,
0010
0001
1000
0000
1000
0100
0010
0000
,
0100
0010
0100
0000
0001
0000
0010
0000
,
1000
0010
0100
0000
0001
0000
1000
0000
,
1000
0100
1000
0000
0100
0000
1000
0000
,
0100
0001
0010
0000
1000
0001
1000
0000
,
1000
0001
0100
0000
0010
0000
1000
0000
,
1000
0010
0100
0000
1000
0000
0100
0000
,
0010
0001
0100
0000
0010
0000
0100
0000
,
1000
0001
1000
0000
1000
0100
0010
0000
,
1000
0010
0100
0000
0100
0000
1000
0000
,
0100
0010
1000
0000
1000
0000
0100
0000
,
0010
0100
1000
0000
0100
0000
1000
0000
,
0202
0000
0000
0000
,
0303
0000
0000
0000
;

//--------------- dance-single - B. M'Rey ----------------
#NOTES:
     dance-single:
     B. M'Rey:
     Hard:
     8:
     0,0,0,0,0:
0000
0000
0000
0000
,
0000
0000
0000
0000
,
0000
0000
0000
0000
,
0000
0000
0000
0000
,
0010
0000
1000
0000
0001
0000
0000
0010
0000
0000
0100
0000
0001
0000
0010
0000
,
0001
0000
0010
0000
0001
0000
0000
0100
0000
0000
1000
0000
0100
0000
1000
0000
,
0001
0000
0100
0000
0001
0000
0000
0100
0000
0000
1000
0000
0001
0000
1000
0000
,
0020
0000
0001
0001
,
0031
0010
0100
0010
0100
0010
0001
1000
,
0001
1000
0100
1000
0100
0010
0100
0010
,
0001
0010
0100
1000
0100
1000
0100
0010
,
0001
1000
0001
0010
0001
0010
0100
0010
,
0100
1000
0100
1000
0010
1000
0010
0100
,
0010
0100
0001
0100
0001
0010
0001
0010
,
0100
0010
0100
1000
0100
1000
0001
0100
,
2002
0000
0000
0000
0000
0000
0000
3003
,
0010
0000
0001
1000
0001
0100
0001
0010
,
0000
1000
0000
0100
0000
0010
0001
0020
,
0000
1030
0100
0010
0001
0010
0000
1000
,
0000
0001
0000
0100
0010
0000
0001
0100
,
0010
0000
0001
0100
0010
1000
0000
0100
,
0000
0010
0000
1000
0010
0000
0100
1000
,
0000
0100
0001
1000
0100
1000
0000
0200
,
0000
0310
0000
0020
0000
0130
0000
1000
,
0010
0100
0010
1000
0000
0010
0001
0010
,
0001
0100
0010
0100
0000
1000
0010
1000
,
0100
1000
0010
1000
,
0001
0000
0001
0100
0010
0100
0001
0000
,
0101
0000
0010
0100
0010
0000
0001
1000
,
0001
0100
0001
1000
0000
0100
0010
2000
,
0000
3100
0010
2000
0000
3001
0100
0010
,
0200
0000
0300
0000
0001
1000
0000
0010
,
0002
0000
0100
0000
0013
1000
0000
1000
,
0020
0000
0100
0000
0031
0100
0001
1000
,
0000
1000
0010
1000
0010
0100
0000
0100
,
0000
0100
0010
0000
0010
0100
0000
1000
,
0002
0000
1000
0000
0103
0010
0000
1000
,
0200
0000
0010
0000
0310
1000
0010
2000
,
0000
3100
0010
0100
0001
0000
0100
1000
,
0000
0001
0000
0010
0001
0010
0000
0010
,
0200
0000
0010
0000
0310
1000
0000
0100
,
0020
0000
0001
0000
0031
1000
0010
2000
,
0000
3100
0010
0100
0001
0100
0000
1000
,
0000
0010
0100
0000
0100
1000
0000
1000
,
0002
1000
0010
1000
,
0010
0000
1003
0000
0010
0100
0001
2000
,
0000
3001
0010
1000
0020
0000
1030
0100
,
2002
0000
0000
0000
0000
0000
0000
3003
,
0010
0000
1000
0000
0001
0000
0000
0010
0000
0000
0100
0000
0001
0000
0010
0000
,
0001
0000
0010
0000
0001
0000
0000
0100
0000
0000
1000
0000
0100
0000
1000
0000
,
0001
0000
0100
0000
0001
0000
0000
0100
0000
0000
1000
0000
0001
0000
1000
0000
,
0100
0000
1000
0000
0001
0000
0000
0100
0000
0000
0010
0000
0001
0000
0100
0000
,
0001
0000
0100
0000
0001
0000
0000
0010
0000
0000
1000
0000
0010
0000
1000
0000
,
0001
0000
0010
0000
0001
0000
0000
0010
0000
0000
1000
0000
0001
0000
1000
0000
,
0010
0000
1000
0000
0001
0000
0000
0010
0000
0000
0100
0000
0001
0000
0010
0000
,
0001
0000
0010
0000
0001
0000
0000
0100
0000
0000
1000
0000
0100
0000
1000
0000
,
0001
0010
0100
0010
0100
0010
0001
1000
,
0001
1000
0100
1000
0100
0010
0100
0010
,
0001
0010
0100
1000
0100
1000
0100
0010
,
0001
1000
0001
0010
0001
0010
0100
0010
,
0100
1000
0100
1000
0010
1000
0010
0100
,
0010
0100
0001
0100
0001
0010
0001
0010
,
0100
0010
0100
1000
0100
1000
0001
0100
,
2002
0000
0000
0000
,
3003
0000
0000
0000
;
