#TITLE:I BEGIN TO WONDER;
#SUBTITLE:(Almighty Transensual Club Mix);
#ARTIST:DANNII MINOGUE;
#GENRE:SYNTH-POP;
#MUSIC:I BEGIN TO WONDER (Almighty Transensual Club Mix).ogg;
#BANNER:I Begin To Wonder (Almighty Transensual Club Mix)-bn.png;
#BACKGROUND:I Begin To Wonder (Almighty Transensual Club Mix)-bg.png;
#CDTITLE:./CDTITLES/ALMIGHTY.PNG;
#SAMPLESTART:57.953;
#SAMPLELENGTH:12;
#OFFSET:-0.218;
#BPMS:0=131.983;

//--------------- dance-single - B. M'Rey ----------------
#NOTES:
     dance-single:
     B. M'Rey:
     Beginner:
     1:
     0,0,0,0,0:
0000
0000
0000
0000
,
0000
0000
0000
0000
,
0000
0000
0000
0000
,
0000
0000
0000
0000
,
0000
0000
0000
0000
,
0000
0000
0000
0000
,
0000
0000
0000
0000
,
0000
0000
0000
0000
,
1000
0000
0000
0000
,
0100
0000
0010
0000
,
0001
0000
0000
0000
,
0010
0000
0100
0000
,
1000
0000
0000
0000
,
0010
0000
0100
0000
,
0001
0000
0000
0000
,
1000
0000
0000
0000
,
0010
0000
0100
0000
,
0001
0000
0010
0000
,
0100
0000
1000
1000
,
0100
0000
0000
0000
,
0001
0000
0010
0000
,
0001
0000
0100
0000
,
1000
0000
0010
0001
,
0010
0000
0000
0000
,
0100
0000
0010
0000
,
1000
0000
0001
0000
,
0010
0000
0001
0000
,
0100
0000
0000
0000
,
0010
0000
1000
0000
,
0100
0000
1000
0000
,
0010
0000
0001
0000
,
0100
0000
0000
0000
,
2002
0000
0000
0000
,
3003
0000
0010
0000
,
0100
0000
0010
0010
,
0001
0000
0000
0000
,
0020
0000
0000
0000
,
0030
0000
1000
0000
,
0100
0000
0001
0001
,
0100
0000
0000
0000
,
0010
0000
1000
0000
,
0100
0000
1000
0000
,
0010
0000
0100
0000
,
0001
0000
0000
0000
,
0010
0000
0100
0000
,
0010
0000
0001
0000
,
1000
0000
0010
0000
,
0100
0000
0000
0000
,
2002
0000
0000
0000
,
3003
0000
0010
0000
,
0100
0000
0001
0000
,
1000
0000
0010
0000
,
1001
0000
0000
0000
;

//--------------- dance-single - B. M'Rey ----------------
#NOTES:
     dance-single:
     B. M'Rey:
     Easy:
     2:
     0,0,0,0,0:
0000
0000
0000
0000
,
0000
0000
0000
0000
,
0000
0000
0000
0000
,
0000
0000
0000
0000
,
0000
0000
0000
0000
,
0000
0000
0000
0000
,
0000
0000
0000
0000
,
0000
0000
0000
0000
,
0101
0000
0001
0000
,
0010
0000
0010
0100
,
0001
0000
1000
0000
,
0010
0000
0001
1000
,
0100
0000
0010
0000
,
0100
0000
0001
0100
,
0010
0000
0100
0000
,
0020
0000
0000
0000
,
0130
1000
0001
0010
,
0001
0010
0100
0010
,
0100
1000
0010
0100
,
0010
0000
0000
0000
,
0100
0010
0001
0100
,
0001
0100
0001
0010
,
0100
1000
0001
0010
,
0100
0010
0000
0000
,
0001
0010
0101
0000
,
0010
0100
0101
0000
,
0001
1000
0010
0000
,
0100
0000
0000
1000
,
0010
0100
0011
0000
,
0100
0010
0110
0000
,
0001
1000
0100
0000
,
0001
0000
0000
1000
,
0220
0000
0000
0000
,
0330
1000
0100
0010
,
0100
1000
0100
0010
,
1001
1001
0000
1000
,
0200
0000
0000
0000
,
0300
0010
0001
0100
,
0010
1000
0001
1000
,
0101
0101
0000
0000
,
0100
0010
0110
0000
,
0001
0100
0110
0000
,
0010
0100
0001
0000
,
0100
0000
0010
0000
,
0100
0010
1100
0000
,
0010
1000
0101
0000
,
0010
1000
0010
0000
,
0100
0000
0000
1000
,
0200
0000
0000
0000
,
0300
1000
0010
0100
,
0001
0000
0010
0000
,
0001
0000
0010
1000
,
0220
0000
0000
0000
,
0000
0000
0000
0000
,
0000
0000
0000
0000
,
0000
0000
0000
0000
,
0330
0000
0000
0000
;

//--------------- dance-single - B. M'Rey ----------------
#NOTES:
     dance-single:
     B. M'Rey:
     Medium:
     5:
     0,0,0,0,0:
0000
0000
0000
0000
,
0000
0000
0000
0000
,
0000
0000
0000
0000
,
0000
0000
0000
0000
,
0000
0000
0000
0000
,
0000
0000
0000
0000
,
0000
0000
0000
0000
,
0000
0000
0000
0000
,
0100
0010
0100
1000
,
0100
0010
0001
0010
,
0001
0100
0001
0010
,
0100
1000
0010
0100
,
0101
0101
0010
1000
,
0010
0100
0001
0010
,
1001
1001
0001
1000
,
0100
1000
0010
0100
,
0001
1000
0010
0000
0001
0010
1000
0000
,
0010
0100
1000
0000
0100
0001
1000
0000
,
0100
1000
0010
0000
0001
0010
0100
0000
,
1010
1010
1010
1010
,
0001
0010
0100
0000
0001
1000
0010
0000
,
0100
0001
1000
0000
0010
0100
1000
0000
,
0100
0010
1000
0000
0001
1000
0100
0000
,
0011
0011
0011
0101
,
0010
1000
0100
0000
0001
0000
0010
0000
,
0100
0001
1000
0000
0010
0000
1000
0000
,
0001
1000
0010
0000
0100
0000
0010
0000
,
0001
0000
0010
0000
0001
0000
1000
0010
,
0100
0001
1000
0000
0010
0000
0100
0000
,
0001
1000
0010
0000
0100
0000
0010
0000
,
0001
1000
0100
0000
0001
0000
0010
0000
,
0100
0000
0010
0000
0100
0000
1000
0010
,
0200
0000
0000
0000
,
0310
0000
1000
0001
0100
0000
0010
1000
,
0001
0000
1000
0000
0010
0000
1000
0100
,
0001
0000
1000
0000
0010
0000
0100
0001
,
0020
0000
0000
0000
,
0031
0000
1000
0100
0010
0000
0100
0001
,
0010
0000
0100
0000
0010
0000
1000
0001
,
0100
1010
0110
1010
,
0100
0001
0010
0000
0100
0000
0010
0000
,
0001
0010
1000
0000
0001
0000
0100
0000
,
0010
1000
0100
0000
0001
0010
0100
0000
,
0001
1000
0001
1000
,
0010
0001
1000
0000
0010
0000
0100
0000
,
0010
1000
0100
0000
0001
0000
0100
0000
,
0010
0001
1000
0000
0010
0100
1000
0000
,
0100
0010
1000
0000
0010
0000
0100
0010
,
0002
0000
0000
0000
,
0013
0000
1000
0010
0001
0000
1000
0001
,
0010
1000
0001
0100
,
0001
0100
0001
1000
,
0220
0000
0000
0000
,
0000
0000
0000
0000
,
0000
0000
0000
0000
,
0000
0000
0000
0000
,
0330
0000
0000
0000
;

//--------------- dance-single - B. M'Rey ----------------
#NOTES:
     dance-single:
     B. M'Rey:
     Hard:
     7:
     0,0,0,0,0:
0000
0000
0000
0000
,
0000
0000
0000
0000
,
0000
0000
0000
0000
,
0000
0000
0000
0000
,
0000
0000
0000
0000
,
0000
0000
0000
0000
,
0000
0000
0000
0000
,
0000
0000
0000
0000
,
0010
0000
0010
0100
0010
0000
0100
0010
,
0001
0000
0010
1000
0100
1000
0100
0010
,
0100
0000
0001
1000
0100
0000
0100
1000
,
0001
0000
0100
0010
0100
1000
0001
0010
,
0001
0000
0010
0000
0001
0000
0001
1000
,
0010
0000
0010
0100
0010
1000
0001
1000
,
0001
0000
0010
0000
0001
0000
0100
1000
,
0100
0000
0100
1000
0001
1000
0100
0000
,
1001
0010
0100
0010
0100
0001
1000
0100
,
0010
0001
1000
0010
0100
0010
1000
0001
,
0010
0001
1000
0001
0100
0010
0100
0001
,
1010
0101
0110
0011
,
0100
0001
1000
0010
0100
0010
0100
0010
,
2000
0000
3010
0001
1000
0010
0100
0010
,
0200
0000
1300
0001
1000
0001
0100
0010
,
1100
1010
1100
0110
,
1000
0100
1000
0000
0101
0000
0101
0000
,
0010
0100
0010
0000
0011
0000
0110
0000
,
1000
0000
0100
0000
0010
0000
0001
0000
0100
0000
0000
0000
1000
0000
0000
0010
,
0000
0100
0020
0000
0130
0000
1000
0100
,
0010
0001
0100
0000
0101
0000
1100
0000
,
0010
0100
1000
0000
0110
0000
0101
0000
,
0100
0000
0010
0000
1000
0000
0001
0000
0010
0000
0000
0000
0100
0000
0000
0001
,
0000
0010
1000
0000
1000
0001
0010
0100
,
0002
0010
0100
0010
,
0103
0000
1000
1000
1000
0000
0001
0001
,
0001
0100
1000
0001
0010
0001
0100
0001
,
0110
0000
1100
0000
1001
0000
1000
0001
,
2000
0100
0010
0100
,
3010
0000
0100
0100
0100
0000
0010
0010
,
0010
0100
1000
0100
1000
0010
1000
0010
,
0110
0101
0110
1010
,
0001
0010
0001
0000
1001
0000
1010
0000
,
0010
0100
0001
0000
1100
0000
0110
0000
,
0010
0000
1000
0000
0001
0000
0010
0000
0001
0000
0000
0000
0001
0000
0000
0100
,
0000
1000
0010
0000
0001
0100
0001
1000
,
0100
1000
0001
0000
0110
0000
1001
0000
,
0001
0010
0100
0000
0011
0000
0011
0000
,
0001
0000
1000
0000
0010
0000
0100
0000
0010
0000
0000
0000
0010
0000
0000
1000
,
0000
0010
0100
0000
0100
1000
0100
0010
,
0002
1000
0100
1000
,
0103
0000
0001
0001
0001
0000
0010
0010
,
0010
0000
0100
0010
0001
0000
0010
1000
,
0010
1000
0001
0100
0001
0100
0001
0010
,
0200
0000
0000
0000
,
0000
0000
0000
0000
,
0000
0000
0000
0000
,
0000
0000
0000
0000
,
0300
0000
0000
0000
;
