#TITLE:Heaven;
#SUBTITLE:;
#ARTIST:DJ Sammy ft Yanou & Do;
#TITLETRANSLIT:;
#SUBTITLETRANSLIT:;
#ARTISTTRANSLIT:;
#GENRE:;
#CREDIT:;
#MUSIC:Heaven.ogg;
#BANNER:Heaven-bn.png;
#BACKGROUND:Heaven-bg.png;
#CDTITLE:./cdtitles/Clubland Trance.png;
#SAMPLESTART:77.842;
#SAMPLELENGTH:12.000;
#SELECTABLE:YES;
#OFFSET:-0.040;
#BPMS:0.000=138.000;
#STOPS:;
#BGCHANGES:;
#FGCHANGES:;

//--------------- dance-single - B. M'Rey ----------------
#NOTES:
     dance-single:
     B. M'Rey:
     Beginner:
     1:
     0.096146,0.139875,0.016217,0.008109,0,83,81,2,1,0,0,0.096146,0.139875,0.016217,0.008109,0,83,81,2,1,0,0:
0000
0000
0000
0000
,
0000
0000
0000
0000
,
0000
0000
0000
0000
,
0000
0000
0000
0000
,
0000
0000
0000
0000
,
0000
0000
0000
0000
,
0000
0000
0000
0000
,
0000
0000
0000
0000
,
0000
0000
0000
1000
,
0000
0000
0000
0000
,
0000
0000
0000
0001
,
0000
0000
0000
0000
,
0000
0000
0000
1001
,
0000
0000
0000
0000
,
0000
0000
0000
0010
,
0000
0000
0000
0100
,
0000
0000
0000
1000
,
0000
1000
0000
0001
,
0000
0001
0000
0100
,
0000
0100
0000
0001
,
0000
0001
0000
0010
,
0000
0010
0000
1000
,
0000
1000
0000
0001
,
0000
0001
0000
0010
,
0000
0010
0000
0100
,
0000
0000
0000
0000
,
0000
0000
0000
0001
,
0000
0000
0000
1000
,
0000
0000
0000
0010
,
0000
0000
0000
0100
,
0000
0000
0000
0010
,
0000
0000
0000
0001
,
0000
0000
0000
1000
,
0000
0000
0000
0010
,
0000
0000
0000
0100
,
0000
0000
0000
0001
,
0000
0000
0000
0100
,
0000
0000
0000
0010
,
0000
0000
0000
1000
,
0000
0000
0000
0001
,
0000
0000
0000
0010
,
0000
0000
0000
0001
,
0000
0000
0000
0100
,
0000
0000
0000
0000
,
0000
0000
0000
0001
,
0000
0001
0000
1000
,
0000
1000
0000
0100
,
0000
0100
0000
0001
,
0000
0001
0000
0010
,
0000
0010
0000
0100
,
0000
0100
0000
1000
,
0000
0001
0000
1000
,
0000
0010
0000
0010
,
0000
0100
0000
0100
,
0000
0001
0000
0001
,
0000
1000
0000
1000
,
0000
0010
0000
0010
,
0000
0100
0000
0100
,
0000
0001
0000
0001
,
0000
1000
0000
2000
,
0000
0000
0000
3001
,
0000
0010
0000
0100
,
0000
0000
0000
1000
,
0000
0000
0000
0001
,
0000
0000
0000
1000
,
0000
0100
0000
0010
,
0000
0000
0000
0001
,
0000
0000
0000
1000
,
0000
0000
0000
1001
;

//--------------- dance-single - B. M'Rey ----------------
#NOTES:
     dance-single:
     B. M'Rey:
     Easy:
     2:
     0.16565,0.279751,0.016217,0.145957,0,143,141,2,18,0,0,0.16565,0.279751,0.016217,0.145957,0,143,141,2,18,0,0:
0000
0000
0000
0000
,
0000
0000
0000
0000
,
0000
0000
0000
0000
,
0000
0000
0000
0000
,
0000
0000
0000
0000
,
0000
0000
0000
0000
,
0000
0000
0000
0000
,
0000
0000
0000
0000
,
0000
0000
0000
2000
,
0000
3002
0000
1003
,
0000
0000
0000
0020
,
0000
0230
0000
0310
,
0000
0000
0000
0002
,
0000
2003
0000
3010
,
0000
0000
0000
0200
,
0000
0320
0000
0032
,
0000
0000
0000
1003
,
0100
1000
0100
1000
,
0000
0001
0000
0010
,
0100
0010
0100
0010
,
0000
0001
0000
0001
,
1000
0001
1000
0001
,
0000
0010
0000
1000
,
0010
1000
0010
1000
,
0000
0010
0000
2000
,
0000
0000
0000
3002
,
0000
0000
0000
0103
,
0000
1000
0000
0001
,
0000
0010
0000
0001
,
0010
0100
0000
1000
,
0100
0010
0000
0001
,
0000
1000
0000
0010
,
0000
0100
0000
0001
,
0000
0010
0000
1000
,
0000
0010
0000
0100
,
1000
0001
0000
0010
,
0100
0010
0000
0001
,
1000
0010
0000
0100
,
0010
1000
0000
0001
,
0010
0100
0000
1000
,
0100
0010
0000
0001
,
1000
0001
1000
0001
,
1000
0001
1000
1001
,
0000
0000
0000
0000
,
0000
0000
0000
0100
,
0001
1000
0010
0100
,
0000
0001
0000
0001
,
0010
1000
0100
0010
,
0000
0100
0000
0001
,
0010
1000
0100
0010
,
0000
0001
0000
0002
,
0000
0000
0000
1000
,
0000
1000
0000
1003
,
0010
0100
0001
0010
,
0000
1000
0000
0001
,
0010
0100
0010
1000
,
0000
0001
0000
0010
,
0100
0010
1000
0001
,
0000
0001
0000
2000
,
0000
0000
0000
0020
,
0000
0000
0000
0000
0000
3030
0200
0000
,
0000
0302
0000
1003
,
0000
0100
0000
0001
,
0000
0010
0000
1000
,
0000
0010
0000
0200
,
0000
0320
0000
0031
,
0000
0010
0000
0100
,
0000
1000
0000
0010
,
0000
0100
0000
0110
;

//--------------- dance-single - B. M'Rey ----------------
#NOTES:
     dance-single:
     B. M'Rey:
     Medium:
     5:
     0.264113,0.425708,0.105413,0.06487,0,228,215,13,8,0,0,0.264113,0.425708,0.105413,0.06487,0,228,215,13,8,0,0:
0000
0000
0000
0000
,
0000
0000
0000
0000
,
0000
0000
0000
0000
,
0000
0000
0000
0000
,
0000
0000
0000
0000
,
0000
0000
0000
0000
,
0000
0000
0000
0000
,
0000
0000
0000
0000
,
0000
0000
0000
1000
,
0001
0010
0100
1000
,
0000
0000
0000
1000
,
0100
0010
0001
0010
,
0000
0000
0000
0001
,
1000
0001
1000
0001
,
0000
0000
0000
0010
,
0100
0010
0100
0020
,
0000
0000
0000
1030
,
0001
0000
0010
0000
1000
0001
0010
0000
,
0001
0000
0010
0000
0100
1000
0001
0000
,
0010
0000
0100
0000
1000
0001
0010
0000
,
0100
0000
0001
0000
1000
0001
0010
0000
,
0100
0000
1000
0000
0001
0010
0100
0000
,
0001
0000
1000
0000
0010
0100
0001
0000
,
0010
0000
1000
0000
0100
0001
0010
0000
,
1000
0000
0010
0000
0100
0010
1000
0000
,
0001
1000
0001
2000
,
0000
0000
0000
3001
,
0000
0020
0000
1030
,
0001
0010
0100
0010
,
1000
0001
0000
0100
,
0000
1000
0001
0100
,
0010
0000
1000
0000
0001
1000
0000
0000
,
0000
0000
0001
0100
,
0010
0000
1000
0000
0001
1000
0010
0000
,
0000
0000
0000
0100
,
0000
0002
0000
0013
,
0100
0000
0001
0000
0010
0100
1000
0001
,
0000
0010
0000
0100
,
0000
1000
0001
0010
,
0100
0000
0010
0000
1000
0001
0000
0000
,
0000
0100
0001
1000
,
0010
1000
0000
0000
0100
0010
0000
0000
,
0001
0010
0000
0000
1000
0000
1001
0000
,
0000
0100
0000
0020
,
0000
0000
0000
1030
,
0001
0010
0001
0100
,
0010
1000
0010
0100
,
0001
0010
0100
0010
,
1000
0010
0100
0001
,
0010
1000
0010
0100
,
0010
0001
0010
1000
,
0010
0100
0010
1000
,
0010
0000
0100
0000
0001
0010
0100
0000
,
0010
1000
0010
0100
,
0001
1000
0010
0100
,
0001
0010
1000
0100
,
0001
0010
1000
0010
,
0100
0010
0001
1000
,
0010
0100
0001
1000
,
0010
0100
0001
0020
,
0000
0000
0000
1030
,
1001
0110
0110
1001
,
1001
0010
0100
0001
,
0010
1000
0010
0100
,
0001
0010
1000
0110
,
0110
1001
1001
0110
,
0110
0001
1000
0010
,
0100
0001
0010
1000
,
0010
0100
0001
0220
,
0000
0000
0000
0330
;

//--------------- dance-single - B. M'Rey ----------------
#NOTES:
     dance-single:
     B. M'Rey:
     Hard:
     7:
     0.356784,0.53923,0.024326,0.081087,0.089196,308,305,3,10,0,2,0.356784,0.53923,0.024326,0.081087,0.089196,308,305,3,10,0,2:
0000
0000
0000
0000
,
0000
0000
0000
0000
,
0000
0000
0000
0000
,
0000
0000
0000
0000
,
0000
0000
0000
0000
,
0000
0000
0000
0000
,
0000
0000
0000
0000
,
0000
0000
0000
0000
,
0000
0000
0000
0100
,
0001
0000
0000
0000
1000
0000
0000
0010
0000
0000
0100
0000
0001
0000
0000
0000
,
0000
0000
0000
0010
,
1000
0000
0000
0000
0001
0000
0000
0010
0000
0000
0100
0000
1000
0000
0000
0000
,
0000
0000
0000
0110
,
0001
0000
0000
0000
1000
0000
0000
0010
0000
0000
0001
0000
0100
0000
0000
0000
,
0000
0000
0000
0001
,
1000
0000
0000
0000
0010
0000
0000
0100
0000
0000
0001
0000
4000
0000
0000
0000
,
0000
0000
0000
3001
,
0010
0000
0000
0000
1000
0000
0000
0010
0000
0000
0100
0000
0001
0000
0000
0000
,
0010
0000
0000
0000
1000
0000
0000
0010
0000
0000
0100
0000
0010
0000
0000
0000
,
0001
0000
0000
0000
1000
0000
0000
0010
0000
0000
0001
0000
0100
0000
0000
0000
,
0010
0000
0000
0000
1000
0000
0000
0100
0000
0000
0001
0000
0010
0000
0000
0000
,
0100
0000
0000
0000
1000
0000
0000
0010
0000
0000
0001
0000
0100
0000
0000
0000
,
0010
0000
0000
0000
1000
0000
0000
0100
0000
0000
0010
0000
0001
0000
0000
0000
,
0010
0000
0000
0000
1000
0000
0000
0010
0000
0000
0100
0000
0010
0000
0000
0000
,
0001
0000
0000
0000
1000
0000
0000
0010
0000
0000
0100
0000
0010
0000
0100
0000
,
0010
0000
0010
0100
0010
0000
0220
0000
,
0000
0000
0000
0331
,
0000
0000
1000
0000
0000
0000
0001
0010
,
0100
1000
0000
0010
0000
0100
0001
1000
,
0010
0100
0001
1000
,
0010
0000
0100
0000
0001
1000
0010
0000
,
1000
0000
0010
0000
0001
0010
0000
0100
,
1000
0000
0010
0000
0010
0001
0010
0000
,
1000
0100
0001
0010
0100
1000
0200
0000
,
0010
0010
0010
0310
,
0001
0000
2000
0000
3010
0000
0010
0001
,
1000
0010
0000
0100
1000
0001
0010
0100
,
1000
1000
0001
0010
,
0100
0000
1000
0000
0001
0010
0100
0000
,
1000
0000
0010
0000
0001
0100
0000
0010
,
1000
0000
0100
0000
0010
0000
0001
1000
,
0000
0000
0100
0010
0000
0000
0001
1000
,
0000
0000
0010
0100
0010
0001
0010
0100
,
0000
0000
1000
0000
0001
0020
0000
0000
,
0000
0200
0000
0000
0000
0000
0331
0010
,
0001
1000
0010
0100
0010
0001
0010
0000
,
1000
0000
0001
0000
0010
0001
0100
0010
,
0001
1000
0010
0100
0010
0001
1000
0000
,
0010
0000
0100
0000
0001
1000
0010
0100
,
0010
1000
0100
0001
0010
0100
0010
0000
,
1000
0000
0001
0100
0010
1000
0200
0000
,
1000
0010
1000
0320
,
0100
0000
0001
0000
0100
0000
0031
0010
,
1000
0100
0010
0001
0010
0100
1000
0000
,
0010
0000
0100
0000
0001
1000
0010
1000
,
0010
0001
0100
0010
1000
0010
0100
0000
,
0001
0000
0010
0000
1000
0001
0010
0100
,
0001
0010
1000
0010
0100
0001
0010
0100
,
1000
0001
0010
0001
0100
0010
1000
0001
,
0010
0001
0100
0010
1000
0010
0100
0001
,
0010
0000
1000
0000
0010
0000
0100
0000
0010
1000
0001
0010
0001
0000
0000
0000
,
0010
0000
0000
0000
1000
0000
0000
0010
0000
0000
0100
0000
0001
0000
0000
0000
,
0010
0000
0000
0000
1000
0000
0000
0010
0000
0000
0100
0000
0010
0000
0000
0000
,
0001
0000
0000
0000
1000
0000
0000
0010
0000
0000
0001
0000
0100
0000
0000
0000
,
0010
0000
0000
0000
1000
0000
0000
0100
0000
0000
0001
0000
0010
0000
0000
0000
,
0100
0000
0000
0000
1000
0000
0000
0010
0000
0000
0001
0000
0100
0000
0000
0000
,
0010
0000
0000
0000
1000
0000
0000
0100
0000
0000
0010
0000
0001
0000
0000
0000
,
0010
0000
0000
0000
1000
0000
0000
0010
0000
0000
0100
0000
0010
0000
0000
0000
,
0001
0000
0000
0000
1000
0000
0000
0010
0000
0000
0100
0000
0220
0000
0000
0000
,
0000
0000
0000
0330
;

//--------------- dance-single - B. M'Rey ----------------
#NOTES:
     dance-single:
     B. M'Rey:
     Challenge:
     11:
     0.686925,0.993318,0.008109,0.048652,0.729785,593,592,1,6,7,1,0.686925,0.993318,0.008109,0.048652,0.729785,593,592,1,6,7,1:
0000
0000
0000
0000
,
0000
0000
0000
0000
,
0000
0000
0000
0000
,
0000
0000
0000
0000
,
0000
0000
0000
0000
,
0000
0000
0000
0000
,
0000
0000
0000
0000
,
0000
0000
0000
0000
,
0000
0000
0000
0020
,
2030
0000
0000
0000
3200
0000
0000
0301
0000
0000
0010
0000
0100
0000
0010
0000
,
0100
0000
0010
0000
0100
0000
0010
0100
0000
0001
0010
0000
1000
0000
0000
0000
,
0001
0000
0000
0000
0010
0000
0000
0100
0000
0000
1000
0000
0010
0000
1000
0000
,
0010
0000
1000
0000
0010
0000
1000
0010
0000
0100
0010
0000
0001
0000
0000
0000
,
1000
0000
0000
0000
0010
0000
0000
0100
0000
0000
0001
0000
0010
0000
0001
0000
,
0010
0000
0001
0000
0010
0000
0001
0010
0000
0001
0010
0000
0100
0000
0000
0000
,
1000
0000
0000
0000
0010
0000
0000
0100
0000
0000
0001
0000
4004
0000
0M00
0000
,
00M0
0M00
00M0
0M00
00M0
0M00
3013
1000
,
0010
0000
0001
0000
0010
0000
0100
1000
0000
0010
0001
0000
0100
0000
0010
0000
,
1000
0000
0001
0000
0010
0000
0100
1000
0000
0010
0001
0000
0100
0000
0010
0000
,
1000
0000
0001
0000
0010
0000
0100
0010
0000
0001
1000
0000
0010
0000
0100
0000
,
0001
0000
1000
0000
0010
0000
0100
0010
0000
0001
1000
0000
0010
0000
0100
0000
,
0001
0000
1000
0000
0010
0000
0100
0010
0000
0001
1000
0000
0001
0000
0010
0000
,
0100
0000
0001
0000
1000
0000
0010
0100
0000
0001
1000
0000
0010
0000
0100
0000
,
0001
0000
1000
0000
0010
0000
0100
0001
0000
0010
1000
0000
0010
0000
0100
0000
,
0001
0000
0010
0000
1000
0000
0100
0010
0000
0001
0010
0000
1000
0000
0010
0000
,
0100
0000
0001
0000
0010
0000
1000
0100
0000
0001
0010
0000
0100
0000
0001
0000
,
1000
0000
0010
0000
0100
0000
0001
0010
0000
1000
0100
0000
0010
0000
0000
0000
,
1000
0000
0001
0010
1000
0000
0010
0100
,
0001
0010
1000
0010
0100
0001
0010
1000
,
0001
0000
1000
0100
0000
0010
0001
0000
0010
0000
0100
0000
1000
0000
0010
0000
,
1000
0000
0010
0001
0000
0100
0010
0000
0100
0000
1000
0000
0001
0000
0010
0000
,
0001
1000
0010
0100
0001
0010
1000
0001
,
0010
0000
1000
0100
0000
0001
0010
0000
0100
0000
1000
0000
0001
0000
0010
0000
,
0001
0100
0010
1000
0001
0010
0100
1000
,
0100
0000
0001
0010
0001
0000
0010
0000
,
1000
0000
0001
0010
0100
0001
1000
0010
,
0100
0001
0010
1000
0100
0001
0010
1000
,
0010
0000
0100
0001
0000
0010
1000
0000
0100
0000
0001
0000
0010
0000
1000
0000
,
0100
0000
0010
0001
0000
0010
1000
0000
0100
0000
0001
0000
0010
0000
1000
0000
,
0010
0100
0001
0010
1000
0100
0010
0001
,
0010
0000
0100
1000
0000
0001
0010
0000
0100
0000
1000
0000
0001
1000
0001
1000
,
0001
1000
0001
1000
0001
1000
0001
1000
0001
1000
0001
1000
0001
1000
0001
1000
,
0001
1000
0001
1000
0001
1000
0001
1000
0001
1000
0001
1000
0001
0000
0010
0000
,
0000
0000
0100
0000
1000
0200
0010
0000
,
0000
0000
0010
0000
0000
0000
0000
0000
0010
0000
0000
0000
0301
1000
0001
1000
,
0001
1000
0001
1000
0001
1000
0001
1000
0001
1000
0001
1000
0001
0000
0010
0100
,
0010
0000
0001
0000
1000
0000
0010
0100
0010
0000
0001
0000
1000
0010
1000
0010
,
1000
0010
1000
0010
1000
0010
1000
0010
1000
0010
1000
0010
1000
0000
0010
0100
,
0010
0000
0001
0000
1000
0000
0010
0100
0001
0000
0010
0000
1000
0100
1000
0100
,
1000
0100
1000
0100
1000
0100
1000
0100
1000
0100
1000
0100
1000
0000
0010
0100
,
0010
0000
0001
0000
1000
0000
0010
0100
0010
0000
0001
0000
0020
0000
0000
0000
,
0001
0000
0000
0000
0100
0000
0000
1000
0000
0000
0100
0000
0001
0000
0000
0000
,
0100
0000
0000
0000
1000
0000
0000
0100
0000
0000
1000
0000
0130
0010
0100
0010
,
0100
0010
0100
0010
0100
0010
0100
0010
0100
0010
0100
0010
0100
0000
0001
0010
,
0001
0000
1000
0000
0010
0000
0100
0010
0100
0000
1000
0000
0001
0010
0001
0010
,
0001
0010
0001
0010
0001
0010
0001
0010
0001
0010
0001
0010
0001
0000
0100
0010
,
0100
0000
1000
0000
0010
0000
0100
0010
0100
0000
0001
0000
0010
1000
0010
1000
,
0010
1000
0010
1000
0010
1000
0010
1000
0010
1000
0010
1000
0100
0001
0100
0001
,
0100
0001
0100
0001
0100
0001
0100
0001
0100
0001
0100
0001
1000
0100
0010
0001
,
1000
0000
0000
0100
0000
0000
0010
0000
0000
0001
0000
0000
1000
0000
0000
0100
0000
0000
0010
0000
0000
0001
0000
0000
1000
0000
0000
0100
0000
0000
0010
0000
0000
0001
0000
0000
1000
0000
0001
0000
1000
0000
0001
0000
1000
0000
0001
0000
,
1000
0000
0010
0000
0001
0000
0100
0000
0001
1000
0001
1000
0010
0000
1000
0000
,
0010
0000
0001
0000
0010
0000
0100
1000
0000
0010
0001
0000
0100
0000
0010
0000
,
1000
0000
0001
0000
0010
0000
0100
1000
0000
0010
0001
0000
0100
0000
0010
0000
,
1000
0000
0001
0000
0010
0000
0100
0010
0000
0001
1000
0000
0010
0000
0100
0000
,
0001
0000
1000
0000
0010
0000
0100
0010
0000
0001
1000
0000
0010
0100
0010
0100
,
0010
0100
0010
0100
0010
0100
0010
0100
0010
0100
0010
0100
0001
0100
0001
0100
,
0001
0100
0001
0100
0001
0100
0001
0100
0001
0100
0001
0100
0010
1000
0010
1000
,
0010
1000
0010
1000
0010
1000
0010
1000
0010
1000
0010
1000
0100
0010
0100
0010
,
0100
0010
0100
0010
0100
0010
0100
0010
0100
0010
0100
0010
0002
0000
0000
0000
,
0000
0000
0000
0003
;
