#VERSION:0.83;
#TITLE:Give A Reason (Giga-Mix);
#ARTIST:林原めぐみ;
#ARTISTTRANSLIT:Megumi Hayashibara;
#GENRE:TV&ANIME;
#CREDIT:B. M'Rey;
#MUSIC:Give A Reason (Giga-Mix).ogg;
#BANNER:Give A Reason (Giga-Mix)-BN.png;
#BACKGROUND:Give A Reason (Giga-Mix)-bg.png;
#CDTITLE:./CDTITLES/Slayers Next.png;
#SAMPLESTART:75.380;
#SAMPLELENGTH:15;
#OFFSET:-0.039;
#BPMS:0=140.163;
#STOPS:172=0.856;

//--------------- dance-single - B. M'Rey ----------------
#NOTEDATA:;
#STEPSTYPE:dance-single;
#DESCRIPTION:B. M'Rey;
#CREDIT:B. M'Rey;
#DIFFICULTY:Beginner;
#METER:3;
#RADARVALUES:0,0,0,0,0;
#NOTES:
0000
0000
0000
0000
,
0000
0000
0000
0000
,
0000
0000
0000
0000
,
0000
0000
0000
0000
,
0000
0000
0000
0000
,
0000
0000
0000
0000
,
0000
0000
0000
0000
,
0000
0000
0000
0000
,
1000
0000
0000
0000
,
0001
0000
0000
0000
,
0100
0000
0000
0000
,
0010
0000
0000
0000
,
0100
0000
0000
0000
,
0001
0000
0000
0000
,
1000
0000
0000
0000
,
0010
0000
0000
0000
,
0110
0000
0000
0000
,
0000
0000
0000
0000
,
0001
0000
0000
0000
,
0010
0000
0000
0000
,
0100
0000
0000
0000
,
0010
0000
0000
0000
,
1000
0000
0000
0000
,
0100
0000
0000
0000
,
1000
0000
0000
0000
,
0001
0000
0000
0000
,
0010
0000
0001
0000
,
0100
0000
0010
0000
,
1000
0000
0100
0000
,
1000
0000
0010
0000
,
0100
0000
0010
0000
,
0001
0000
0010
0000
,
0001
0000
0100
0000
,
0010
0000
1000
0000
,
0001
0000
0100
0000
,
0010
0000
0010
0000
,
0100
0000
0001
0000
,
1000
0000
1000
0000
,
0010
0000
0100
0000
,
0010
0000
0010
0000
,
0001
0000
0100
0000
,
0010
0000
1000
0000
,
0010
0000
0100
0000
,
1001
0000
0001
0000
,
0010
0000
0100
0100
,
0100
0000
1000
0000
,
0001
0000
0010
0010
,
0010
0000
0100
0000
,
0001
0000
1000
1000
,
1000
0000
0001
0000
,
0010
0000
0001
0000
,
0100
0000
0010
0000
,
0100
0000
0001
0001
,
0001
0000
1000
0000
,
0010
0000
0100
0100
,
0100
0000
0001
0000
,
0010
0000
1000
0000
,
0010
0000
0100
0000
,
0001
0000
1000
0000
,
0001
0000
1000
0000
,
0000
0000
0100
0000
,
0000
0000
0010
0000
,
0000
0000
1000
0000
,
0000
0000
0100
0000
,
0000
0000
0010
0000
,
0000
0000
0001
0000
,
0000
0000
1000
0000
;

//--------------- dance-single - B. M'Rey ----------------
#NOTEDATA:;
#STEPSTYPE:dance-single;
#DESCRIPTION:B. M'Rey;
#CREDIT:B. M'Rey;
#DIFFICULTY:Easy;
#METER:5;
#RADARVALUES:0,0,0,0,0;
#NOTES:
0000
0000
0000
0000
,
0000
0000
0000
0000
,
0000
0000
0000
0000
,
0000
0000
0000
0000
,
0001
0000
0000
0000
,
0100
0000
0000
0000
,
0010
0000
0000
0000
,
1000
0000
0001
0000
,
0001
1000
0001
1000
,
0001
0100
0010
1000
,
0010
1000
0010
0100
,
0001
0100
0001
0100
,
0010
1000
0010
0100
,
0010
0100
0001
0100
,
0001
0010
0001
0010
,
0100
0010
0100
1000
,
0100
0000
0001
0000
,
0100
0000
0010
0000
,
0100
0010
0100
0000
,
0100
1000
0010
0000
,
0001
0100
0010
0000
,
0001
0100
0010
0000
,
0001
0100
0010
0000
,
0010
1000
0010
0000
,
0100
1000
0010
0000
,
0010
1000
0100
1000
,
0010
1000
0010
0000
,
0010
0100
0001
0000
,
0100
1000
0010
0000
,
0001
0010
0100
0000
,
0010
0100
0001
0000
,
0001
0100
0001
0000
,
0100
1000
0010
0000
,
0100
1000
0010
0100
,
0010
0000
0001
1000
,
0001
1000
0100
0010
,
0000
0010
0001
1000
,
0100
0010
0100
1000
,
0000
0010
0001
1000
,
0010
1000
0010
0100
,
0000
0010
0100
0010
,
0000
0010
0001
0100
,
0000
1000
0001
1000
,
1001
0000
0010
1000
,
0100
1000
0100
1000
,
0001
0000
0100
1000
,
0010
1000
0100
0010
,
0100
0000
0100
1000
,
0010
0100
0001
0010
,
0001
0000
0100
1000
,
0001
1000
0001
0000
,
0010
0000
0010
0100
,
0001
0010
0100
1000
,
0010
0000
0010
1000
,
0001
1000
0100
1000
,
0001
0000
0001
0010
,
0100
1000
0010
1000
,
0001
0000
0001
1000
,
0001
0000
0100
1000
,
0001
0000
1000
0000
,
0001
0000
0010
0000
,
0001
0000
0100
0000
,
0010
0000
1000
0000
,
0010
0000
0100
0000
,
0001
0000
0010
0000
,
0001
0000
0100
0000
,
0010
0000
1000
0000
,
0010
0000
0101
0000
;

//--------------- dance-single - B. M'Rey ----------------
#NOTEDATA:;
#STEPSTYPE:dance-single;
#DESCRIPTION:B. M'Rey;
#CREDIT:B. M'Rey;
#DIFFICULTY:Medium;
#METER:8;
#RADARVALUES:0,0,0,0,0;
#NOTES:
0000
0000
0000
0000
,
0000
0000
0000
0000
,
0000
0000
0000
0000
,
0000
0000
0000
0000
,
0010
0100
0010
0000
,
0001
0010
0001
0000
,
0010
1000
0010
0000
,
0010
1000
0001
0000
,
0100
0000
0001
0010
0100
0000
0100
0010
,
0001
0010
0001
1000
,
0001
0100
0001
0000
0001
1000
0010
0000
,
0010
0100
0001
0010
,
0100
0010
0001
0000
0100
0010
0100
0000
,
0100
0010
0001
0010
,
0100
0010
0001
0000
0001
0100
0010
0000
,
0010
1000
0100
0010
,
1001
0000
0001
0000
,
0010
0000
0000
0000
0001
1000
0010
0000
,
1000
0000
0001
0000
0010
0100
0000
0000
,
0001
0000
1000
0000
0010
1000
0000
0000
,
0100
0000
0001
0000
1000
0001
0000
0000
,
0100
0000
0010
0000
1000
0010
0000
0000
,
0100
0000
0001
0000
0010
0100
0000
0000
,
0001
0000
0100
0000
0010
0100
0000
0000
,
1000
0000
0001
0000
0100
0001
0000
0000
,
0010
1000
0001
0100
,
0010
1000
0010
0000
0001
0000
0100
0000
,
0001
0010
0001
0000
1000
0000
0010
0000
,
0100
0001
1000
0000
0010
0100
0001
0000
,
0010
0000
1000
0000
0001
1000
0000
0000
,
0010
0000
0100
0000
0001
0010
0000
0000
,
1000
0000
0100
0000
0001
0010
0000
0000
,
1000
0000
0010
0100
0001
0010
0000
0000
,
1000
0100
0010
0001
,
1000
0001
0000
0001
1000
0000
0010
0000
,
0100
0001
0100
0000
1000
0100
1000
0000
,
0010
0000
0100
0001
0100
0000
0010
0000
,
1000
0100
1000
0000
0001
0010
0001
0000
,
0100
0000
0010
0100
0010
0000
1000
0000
,
0001
0010
0001
0000
0100
1000
0100
0000
,
0010
0000
0100
0001
0100
0000
0010
0000
,
1000
0000
0010
1000
0010
0000
0100
0000
,
0001
0010
1000
0100
,
1001
0000
0001
1000
,
0010
0000
0100
0000
0001
1000
0001
0000
,
0010
0100
0010
0000
0001
0000
1000
0000
,
0100
0000
0010
0000
0001
0010
0001
0000
,
1000
0100
1000
0000
0010
0000
0100
0000
,
0001
0000
1000
0000
0010
1000
0010
0000
,
0100
0001
0100
0000
0010
0000
1000
0000
,
0100
0001
0010
0100
,
1001
0000
1001
1001
,
0110
0001
0010
1000
,
1000
0001
1000
0000
0010
0000
0100
0000
,
0001
0000
0010
0000
1000
0100
1000
0000
,
0001
0010
0001
0000
0100
0000
0010
0000
,
0001
0000
1000
0000
0100
1000
0100
0000
,
0010
0001
0010
0000
0100
0000
0010
0000
,
0001
0010
1001
1100
,
0011
1010
0100
1000
,
0010
0000
0001
0010
,
0001
0000
0010
0100
,
0001
0000
0100
1000
,
0010
0000
0100
1000
,
0010
0000
0010
0100
,
0010
0000
0001
0100
,
0010
0000
0100
1000
,
0010
0000
1001
0000
;

//--------------- dance-single - B. M'Rey ----------------
#NOTEDATA:;
#STEPSTYPE:dance-single;
#DESCRIPTION:B. M'Rey;
#CREDIT:B. M'Rey;
#DIFFICULTY:Hard;
#METER:11;
#RADARVALUES:0,0,0,0,0;
#NOTES:
0000
0000
0000
0000
,
0000
0000
0000
0000
,
0000
0000
0000
0000
,
0000
0000
0000
0000
,
0010
0000
0000
0100
0000
0000
0001
0000
0000
0000
1000
0000
0010
0000
0000
0000
,
0001
0000
0000
0010
0000
0000
0100
0000
0000
0000
0001
0000
1000
0000
0000
0000
,
0001
0000
0000
0100
0000
0000
0001
0000
0000
0000
0010
0000
0100
0000
0000
0000
,
0001
1000
0000
0001
1000
0000
0000
0010
0100
0000
0000
0100
1000
0100
1000
0100
,
0001
0000
0000
1000
0000
0000
0010
0000
0001
0000
0010
0000
0100
0000
0010
0000
,
0100
0000
1000
0001
1000
0000
1000
0001
1000
0000
1000
0100
1000
0000
0010
0000
,
0001
0000
0000
0100
0000
0000
0010
0000
0100
0000
1000
0000
0001
0000
0010
0000
,
0001
0000
0010
0001
0010
0000
0100
0010
0100
0000
1000
0010
1000
0000
0100
0000
,
0010
0000
0000
0001
0000
0000
0100
0000
0001
0000
1000
0000
0001
0000
0100
0000
,
0010
0000
1000
0010
1000
0000
0100
0010
0100
0000
0100
0001
0100
0000
0100
0000
,
0001
0000
0000
1000
0000
0000
0001
0000
0100
0000
0010
0000
0001
0000
1000
0000
,
0010
0000
1000
0010
1000
0000
0100
0010
0100
0000
0100
0001
0100
0000
1000
0000
,
1001
1000
0001
0100
,
0010
0000
0000
0000
1000
0000
0000
0000
0001
0100
0001
0100
0001
0000
0000
0000
,
0001
0010
0001
0010
0001
1000
0000
1000
,
0001
1000
0001
0100
0001
0010
0010
0000
,
0001
0100
0001
0010
0100
0010
0000
0010
,
0001
0100
0010
0100
0010
0100
0001
0000
,
0001
0010
0001
0100
0010
0100
0000
0100
,
0001
1000
0010
1000
0100
0000
0110
0000
,
0010
0100
0010
1000
0001
1000
0000
0010
,
0001
0000
1000
0000
0010
0000
1000
0000
0100
0000
0000
0010
0000
0000
0100
0000
,
0010
0000
1000
0000
0010
0000
0100
0000
0001
1000
0000
1000
0100
0000
1000
0000
,
0100
0000
1000
0000
0001
0000
0010
0000
0001
0010
0000
0010
0100
0000
0000
0000
,
0100
1000
0010
1000
0010
1000
0000
0010
,
0001
0010
0100
0010
0100
1000
0100
0000
,
0010
1000
0010
0100
0001
0010
0000
1000
,
0001
0010
0100
0010
0100
1000
1001
0000
,
0010
1000
0010
0100
0001
0010
0000
1000
,
0001
0000
1000
0000
0010
0000
1000
0000
0010
0000
0000
0100
0000
0000
0010
0000
,
0001
0000
1001
0000
0000
0000
0001
0000
1000
0000
0000
0010
0000
0000
0001
0000
,
0100
0000
0010
0000
0100
0000
0001
0000
0100
0000
0000
1000
0000
0000
0001
0000
,
1000
0000
0000
0000
1000
0000
0010
0000
0100
0000
0000
0010
0000
0000
0001
0000
,
1000
0000
0000
0100
0000
0000
1000
0000
0100
0000
0000
0001
0000
0000
0010
0000
,
0100
0000
0000
0000
0100
0000
0001
0000
0010
0000
0000
0001
0000
0000
0010
0000
,
0100
0000
0010
0000
1000
0000
0010
0000
1000
0000
0000
0010
0000
0000
0001
0000
,
0100
0000
0000
0000
1000
0000
0100
0000
0010
0100
0000
0100
0010
0000
0100
0000
,
1000
0000
0000
0000
0100
0000
0001
0000
1000
0001
0000
0001
0010
0000
0001
0000
,
0000
0000
0100
0000
0010
0000
0100
0000
1000
0000
0000
0100
0000
0000
0010
0000
,
1001
0001
0100
0100
0001
0000
0110
0000
,
0001
0000
0000
0010
0000
0000
1000
0000
0010
0000
0000
0100
0000
0000
1000
0000
,
0002
0000
0000
0000
1003
0000
0010
0100
0010
0000
0000
0000
0100
0000
0000
0000
,
0100
0000
0000
0001
0000
0000
1000
0000
0001
0000
0000
1000
0000
0000
0100
0000
,
0020
0000
0000
0000
0031
0000
1000
0001
0010
0000
0000
0000
1001
0000
0000
0000
,
0001
0000
0000
0010
0000
0000
0100
0000
0010
0000
0000
0100
0000
0000
1000
0000
,
0100
0000
0000
0000
0001
0000
1000
0001
1000
0000
0000
0000
0010
0000
0000
0000
,
0010
0000
0000
0100
0000
0000
1000
0000
0001
0000
0000
1000
0000
0000
0100
0000
,
0010
0100
0010
0100
0010
0000
1000
0000
0100
0000
0000
0000
1010
0000
0000
0000
,
0010
0000
0000
0100
0000
0000
0100
0000
0001
0000
0000
0001
0000
0000
0010
0000
,
0100
0000
0000
0000
0001
0000
1000
0001
0010
0000
0000
0000
1000
0000
0000
0000
,
0001
0000
0000
0100
0000
0000
0010
0000
0100
0000
0000
0010
0000
0000
0010
0000
,
0001
0000
0001
0010
0001
0000
0010
0000
,
0100
0000
0000
1000
0000
0000
0100
0000
0010
0000
0000
1000
0000
0000
0010
0000
,
0001
0000
0000
0000
0001
0000
0010
0100
0010
0000
0000
0000
1000
0000
0000
0000
,
0010
0000
0000
1000
0000
0000
0010
0000
0101
0000
0000
0000
0110
0000
0000
0000
,
1100
0000
0000
0000
1001
0000
0000
0000
0100
0000
0000
0010
0000
0000
0100
0000
,
0000
0000
0000
0000
1000
0000
0000
0000
0100
0000
0000
1000
0000
0000
0010
0000
,
0000
0000
0000
0000
1000
0000
0000
0000
0001
0000
0000
0010
0000
0000
0100
0000
,
0000
0000
0000
0000
1000
0000
0000
0000
0100
0000
0000
0010
0000
0000
0100
0000
,
0000
0000
0000
0000
1000
0000
0000
0000
0010
0000
0000
0100
0000
0000
0010
0000
,
0000
0000
0000
0000
0100
0000
0000
0000
0001
0000
0000
0010
0000
0000
0100
0000
,
0000
0000
0000
0000
1000
0000
0000
0000
0010
0000
0000
0100
0000
0000
0001
0000
,
0000
0000
0000
0000
0100
0000
0000
0000
0010
0000
0000
0100
0000
0000
0010
0000
,
0000
1000
0110
0000
;

//--------------- dance-single - B. M'Rey ----------------
#NOTEDATA:;
#STEPSTYPE:dance-single;
#DESCRIPTION:B. M'Rey;
#CREDIT:B. M'Rey;
#DIFFICULTY:Challenge;
#METER:15;
#RADARVALUES:0,0,0,0,0;
#NOTES:
0000
0000
0000
0000
,
0000
0000
0000
0000
,
0000
0000
0000
0000
,
0000
0000
0000
0000
,
1000
0000
0000
0001
0000
0000
0100
0000
0000
0000
0010
0000
1000
0000
0001
0000
,
0100
0000
0000
0010
0000
0000
1000
0000
0000
0000
0001
0000
0010
0000
0100
0000
,
0001
0000
0000
0010
0000
0000
1000
0000
0100
0000
0001
0000
0010
0000
1000
0000
,
0001
0010
0000
0001
0010
0100
0000
0010
0100
1000
0000
0100
0010
0001
0010
0001
,
0010
0000
0001
0000
0100
0000
0100
1000
0010
0000
1000
0000
0100
0000
0001
0010
,
0001
0000
0100
1000
0001
1000
0001
1000
0010
0000
0001
0010
0100
0010
0001
0010
,
0001
0000
1000
0000
0100
0000
0010
0100
0010
0000
0100
0000
0001
0000
0010
0000
,
0100
0010
0100
1000
0001
0000
0001
1000
0010
0100
0001
0010
0100
0000
0010
0000
,
0100
0000
1000
0000
0100
0000
1000
0100
1000
0000
0100
0000
0001
0000
0010
0000
,
0001
0000
0001
0100
0010
0100
0001
1000
0001
0000
0001
0100
0010
0100
0010
0100
,
0010
0000
1000
0000
0010
0000
1000
0010
1000
0000
0010
0000
0001
0000
0100
0000
,
0010
1000
0100
1000
0010
0000
0010
0100
0010
1000
0001
1000
0010
0000
0100
0000
,
0001
1000
0001
1000
,
0001
0000
0000
0000
0100
0000
0000
0000
0010
0100
0010
0100
0010
0100
0010
0100
,
0001
0010
0001
1000
0001
1000
0010
1000
,
0001
0010
0100
0010
0100
1000
0100
0010
,
0001
0010
0001
0100
0010
1000
0001
0100
,
0001
0010
0100
1000
0100
1000
0001
0100
,
0010
1000
0001
0100
0010
0100
0010
1000
,
0001
0100
0010
0100
0001
0010
0001
0010
,
0100
1000
0001
1000
0100
0010
0001
1000
,
0100
1000
0001
1000
0010
0100
0010
1000
,
0010
0000
0001
0010
0001
0000
0010
1000
0001
0000
0100
1000
0001
0000
0100
1000
,
0001
0000
0001
0100
0001
0000
0100
0010
0001
0000
0001
0010
0100
0000
0100
1000
,
0001
0000
0001
0100
0010
0000
0100
0010
0001
0000
0010
1000
0100
0000
0010
0100
,
0001
0000
0001
1000
0100
0000
0100
1000
0010
0000
0001
0010
0001
0000
0010
1000
,
0001
0000
0010
1000
0001
0000
0010
1000
0100
0000
0100
0010
0001
0000
0100
1000
,
0100
0000
0100
0010
0001
0000
0001
0100
0010
0000
0100
1000
0001
0000
0001
0010
,
0100
0000
0100
0010
0001
0000
0100
1000
0010
0000
0100
0010
0001
0000
0010
1000
,
0010
1000
0001
1000
0010
1000
0001
1000
0001
0000
0100
1000
0010
0100
0010
0000
,
0110
0000
0110
0000
0000
0000
0010
0000
0100
1000
0100
0000
0001
1000
0001
0000
,
0100
0000
0010
0000
0100
0000
0010
0000
0001
0100
0001
0000
0010
0100
0010
0000
,
0001
1000
0001
0010
0100
1000
0010
0100
,
0010
1000
0010
0000
0100
0010
0100
0000
0100
1000
0100
0000
0010
1000
0010
0000
,
0100
1000
0010
0100
0001
0100
0001
1000
,
0100
0000
1000
0000
0001
0000
0010
0000
0001
0100
0001
0000
0010
1000
0010
0000
,
0010
0000
0100
0000
0001
0100
0001
0100
0010
1000
0000
1000
0100
0000
0010
0000
,
0001
0000
0100
0000
0001
0010
0001
0010
0100
0010
0000
0010
0001
0000
0100
0000
,
0010
0000
1000
0000
0100
1000
0000
1000
0010
0000
0100
0010
0000
0010
1000
0000
,
1001
0000
0010
0000
0110
0000
0101
0000
0001
0000
0001
1000
0100
0000
0100
0010
,
0100
0000
0001
0010
0001
0000
0001
1000
0100
0000
0100
0010
0001
0000
0001
1000
,
0001
0000
0100
0000
0010
0000
0001
1000
0001
0000
0001
0100
0010
0000
0010
0100
,
0001
0000
0100
1000
0010
0000
0001
0010
0100
0000
0100
0010
0001
0000
0010
1000
,
0010
0000
0100
0000
0001
0000
0001
1000
0100
0000
0100
1000
0001
0000
0100
0010
,
0100
0000
0001
0100
0001
0000
0001
1000
0100
0000
0100
1000
0001
0000
0010
1000
,
0010
0000
0100
1000
0100
0000
0001
0010
0001
0000
0100
1000
0100
0000
0100
0010
,
0001
0000
0001
0010
0100
0000
0100
1000
0100
0000
0001
0010
0001
0000
0100
1000
,
0100
0000
0100
0010
0001
0010
0100
0010
0100
0000
0000
0000
0011
0000
0000
0000
,
0001
0000
0100
1000
0100
0000
0001
0100
0001
0000
0010
1000
0001
0000
0001
0100
,
0001
0000
1000
0000
0010
0000
0100
0010
0100
0000
0100
1000
0010
0000
0010
1000
,
0100
0000
0100
1000
0001
0000
0001
0010
0001
0000
0100
0010
0100
0000
0100
1000
,
0001
0000
0001
1000
0100
0000
1000
0000
0010
0000
0010
0100
0010
0000
0100
1000
,
0010
0000
0010
0100
0010
0000
0001
0100
0010
0000
0010
1000
0010
0000
0001
0100
,
0001
0000
1000
0000
0010
0000
0010
0100
0001
0000
0001
0010
0100
0000
0100
1000
,
0100
0000
0001
0100
0001
0000
0001
0000
1100
0000
0000
0000
1010
0000
0000
0000
,
1100
0000
0000
0000
0110
0000
0000
0000
0100
0000
0000
0001
0000
0000
1000
0000
,
0010
0000
0100
0000
0001
0000
1000
0000
0100
0000
0000
0010
0000
0000
1000
0000
,
0000
0000
1000
0000
0010
0000
0100
0000
0001
0000
0000
0010
0000
0000
1000
0000
,
0000
0000
0100
0000
0001
0000
0010
0000
0100
0000
0000
0010
0000
0000
1000
0000
,
0000
0000
0010
0000
0100
0000
1000
0000
0100
0000
0000
0010
0000
0000
1000
0000
,
0000
0000
0010
0000
0100
0000
1000
0000
0010
0000
0000
0100
0000
0000
1000
0000
,
0000
0000
0010
0000
0001
0000
0100
0000
0010
0000
0000
1000
0000
0000
0100
0000
,
0000
0000
0010
0000
0001
0000
0010
0000
0001
1000
0001
1000
0001
1000
0001
1000
,
0001
1000
0001
1000
0001
1000
0001
1000
0001
0000
0000
0000
0000
0000
0000
0000
;
