#VERSION:0.83;
#TITLE:Fuego (Caliente Mix);
#ARTIST:bond;
#GENRE:LATIN HOUSE;
#CREDIT:B. M'Rey;
#MUSIC:Fuego (Caliente Mix).ogg;
#BANNER:Fuego (Caliente Mix)-BN.png;
#BACKGROUND:Fuego (Caliente Mix)-bg.png;
#CDTITLE:./CDTITLES/Licensed Music.PNG;
#SAMPLESTART:24.23;
#SAMPLELENGTH:15;
#OFFSET:-0.131;
#BPMS:0=132;
#STOPS:51=0.455,150=0.455;

//--------------- dance-single - B. M'Rey ----------------
#NOTEDATA:;
#STEPSTYPE:dance-single;
#DESCRIPTION:B. M'Rey;
#DIFFICULTY:Challenge;
#METER:15;
#RADARVALUES:0,0,0,0,0;
#CREDIT:B. M'Rey;
#NOTES:
0000
0000
0000
0000
,
0000
0000
0000
0000
,
0000
1000
0100
1000
,
0010
1000
0100
0010
,
0001
0000
0000
0000
1000
0100
1000
0100
1000
0100
1000
0100
1000
0000
0001
1000
,
0001
0100
0010
0000
0001
0010
1000
0000
,
0100
0000
0000
0000
0100
0010
0100
0010
0100
0010
0100
0010
0100
0000
0001
0100
,
0001
0000
1000
0010
1000
0000
0010
0100
0010
0000
0100
0001
0100
0000
0001
0010
,
0001
0100
0001
1000
,
0100
0000
0010
0100
1000
0010
0100
0001
,
1000
0000
0001
0000
0100
0010
1000
0001
0010
0000
1000
0000
0100
0001
0010
0100
,
1000
0000
0100
0000
1000
0100
0010
0001
0100
0010
1000
0100
0010
0001
1000
0010
,
0100
0001
0010
0100
1000
0000
0100
0001
0010
0000
1000
0000
0110
0000
0000
0000
,
0100
0001
0100
0001
0100
0001
0100
0001
1000
0001
1000
0001
1000
0001
1000
0001
,
1000
0001
0100
0010
1100
0000
0110
0000
,
1000
0001
1000
0001
1000
0001
1000
0001
0100
0010
0100
0010
0100
0010
0100
0010
,
1000
0100
0010
0001
0110
0000
1010
0000
,
1000
0001
1000
0001
1000
0001
1000
0001
0100
0000
0000
0000
0110
0000
0000
0000
,
1000
0100
1000
0100
1000
0100
1000
0100
0010
0000
0000
0000
1001
0000
0000
0000
,
1000
0001
1000
0000
0010
0100
0010
0000
1000
0001
1000
0000
0010
0100
0010
0000
,
1000
0010
0000
1000
0100
0000
0001
0000
1000
0010
0000
0010
0100
0000
0001
0000
,
0010
0001
0010
0001
0010
0001
0010
0001
0100
0010
0100
0010
0100
0010
0100
0010
,
0100
0001
0010
0100
1001
0000
0110
0000
,
1000
0100
1000
0100
1000
0100
1000
0100
0010
0001
0010
0001
0010
0001
0010
0001
,
1000
0001
0100
0010
1001
0000
0110
0000
,
0100
0010
0100
0010
0100
0010
0100
0010
1000
0000
0000
0000
1001
0000
0000
0000
,
0100
0010
0100
0010
0100
0010
0100
0010
0001
0000
0000
0000
1001
0000
0000
0000
,
1000
0010
1000
0000
0100
0001
0100
0000
0010
0100
0010
0000
1000
0001
1000
0000
,
0100
0000
0010
0000
1000
0000
0001
0000
0100
0000
0010
1000
0010
0000
0001
0000
,
1000
0100
1000
0100
1000
0100
1000
0000
0010
0000
0100
0001
0200
0000
0300
0000
,
0100
0010
0100
0010
0100
0010
0100
0000
1000
0000
1000
0001
0010
0000
0100
1000
,
0100
0000
0001
0010
0001
0000
0100
1000
0100
0000
0010
0100
0010
0000
0001
0000
,
0010
0001
0010
0001
0010
0001
0010
0000
1000
0000
0000
0000
0110
0000
0000
0000
,
0010
0001
0010
0001
0010
0001
0010
0000
0100
0000
0100
0010
0200
0000
0000
0300
,
1000
0001
1000
0001
1000
0001
1000
0000
0100
0000
1000
0010
1000
0000
1000
0001
,
1000
0000
0010
0100
0010
0000
0001
0010
0001
0000
0100
1000
0100
0000
0010
0000
,
0101
0101
1100
1100
0011
0011
0110
0110
,
1100
0000
1100
0000
0011
0000
0011
0000
0110
0000
0000
0000
0100
0001
0100
0001
,
0100
0001
0100
0001
1000
0001
1000
0001
1000
0001
1000
0001
1000
0000
0001
0000
,
0100
0000
0010
0000
1100
0000
0000
0000
0110
0000
0000
0000
1000
0001
1000
0001
,
1000
0001
1000
0001
0100
0010
0100
0010
0100
0010
0100
0010
1000
0000
0100
0000
,
0010
0000
0001
0000
0110
0000
0000
0000
1010
0000
0000
0000
1000
0001
1000
0001
,
1000
0001
1000
0001
0100
0000
0000
0000
0110
0000
0000
0000
1000
0100
1000
0100
,
1000
0100
1000
0100
0010
0000
0000
0000
1001
0000
0000
0000
1000
0001
1000
0000
,
0010
0100
0010
0000
1000
0001
1000
0000
0010
0100
0010
0000
0100
0000
0010
0000
,
1000
0000
0100
0000
0010
0000
0001
0000
0100
0000
0010
0000
0101
0000
0000
0001
,
0010
0000
0100
0000
1000
0000
0000
0001
0100
0000
0010
0000
1001
0000
0000
0001
,
0100
0000
0010
0000
1000
0000
0000
0100
0010
0000
0001
0000
1010
0000
0000
0010
,
0100
0000
0001
0000
1000
0000
0000
0000
0100
0000
0001
0000
0010
0100
0010
0000
,
1000
0010
1000
0000
0100
0001
0100
0000
1000
0010
1000
0000
0100
0000
0001
0000
,
1000
0100
0010
0001
1000
0100
0020
0000
,
0000
0000
0000
2030
,
0000
0000
0000
0000
0000
0000
0000
0000
0000
0000
0000
0000
3001
1000
0100
0010
,
0001
1000
0100
0010
0001
1000
0010
0100
0001
0010
0100
0000
0011
0000
0000
0000
,
0000
0000
0001
1000
0100
0000
0000
0000
0000
0000
0000
0000
0000
0000
0000
0000
;
