#VERSION:0.83;
#TITLE:Fiesta de la vida;
#ARTIST:Mozquito;
#GENRE:LATIN POP;
#CREDIT:B. M'Rey;
#MUSIC:Fiesta de la vida.ogg;
#BANNER:Fiesta de la vida-bn.png;
#BACKGROUND:Fiesta de la vida-bg.png;
#CDTITLE:./CDTITLES/licensed music.PNG;
#SAMPLESTART:42.987;
#SAMPLELENGTH:15;
#OFFSET:-0.189;
#BPMS:0=140;

//--------------- dance-single - B. M'Rey ----------------
#NOTEDATA:;
#STEPSTYPE:dance-single;
#DESCRIPTION:B. M'Rey;
#CREDIT:B. M'Rey;
#DIFFICULTY:Beginner;
#METER:4;
#RADARVALUES:0,0,0,0,0;
#NOTES:
0000
0000
0000
0000
,
0000
0000
0000
0000
,
0000
0000
0000
0000
,
0000
0000
0000
0000
,
0110
0000
0000
0000
,
0101
0000
0000
0000
,
1100
0000
0000
0000
,
0011
0000
0000
0000
,
1100
0000
0000
0000
,
0011
0000
0000
0000
,
0100
0000
0000
0000
,
0010
0010
0010
0000
,
0100
0000
0001
0000
,
0100
0000
0010
0000
,
1000
0000
0001
0000
,
1000
0000
0010
0000
,
0001
0000
0010
0000
,
0100
0000
0010
0000
,
0001
0000
0000
0000
,
0010
0010
0010
0000
,
0100
0000
0100
0000
,
0010
0000
0010
0000
,
0100
0000
0100
0000
,
0010
0000
0010
0000
,
0001
0000
0001
0000
,
0010
0000
0010
0000
,
1000
1000
0000
0000
,
0001
0001
0000
0000
,
0100
0000
0000
0000
,
1010
0000
0000
0000
,
0100
0000
0000
0000
,
1100
0000
0000
0000
,
0001
0000
0000
0000
,
1010
0000
0000
0000
,
0100
0000
0000
0000
,
1100
0000
0000
0000
,
1000
0000
1000
0000
,
0001
0000
0001
0000
,
0010
0000
0100
0000
,
0010
0000
0100
0000
,
1000
0000
1000
0000
,
0001
0000
0001
0000
,
0010
0000
0100
0000
,
0010
0000
0100
0000
,
0001
0000
1000
0000
,
0100
0000
0010
0000
,
0001
0000
1000
0000
,
0100
0000
1000
0000
,
0001
0000
0010
0000
,
0100
0000
1000
0000
,
0001
0000
0100
0000
,
0001
0000
1000
0000
;

//--------------- dance-single - B. M'Rey ----------------
#NOTEDATA:;
#STEPSTYPE:dance-single;
#DESCRIPTION:B. M'Rey;
#CREDIT:B. M'Rey;
#DIFFICULTY:Easy;
#METER:7;
#RADARVALUES:0,0,0,0,0;
#NOTES:
0000
0000
0000
0000
,
0000
0000
0000
0000
,
0010
1000
0010
1000
,
0010
0100
0001
0100
,
0110
0000
0100
0000
,
0010
0000
0100
0000
,
0001
0000
1000
0000
,
0001
0000
1000
0000
,
0010
0000
0100
0000
,
0001
0000
1000
0000
,
0010
0100
1000
1000
,
0001
1000
0001
1000
,
1100
0000
0010
0000
,
0001
0000
1000
0010
,
1000
0000
0000
0000
0100
0001
1000
0000
,
0001
1000
0100
0000
0010
0001
1000
0000
,
0100
0000
0010
0000
,
0001
0000
1000
0100
,
1000
0000
0000
0000
0001
0100
0010
0000
,
1000
0001
0010
0000
0100
1000
0001
0000
,
1000
0000
0000
0100
0000
0000
1000
0000
0000
0000
0000
0000
0000
0000
0000
0000
,
0010
0000
0000
0001
0000
0000
0010
0000
0000
0000
0000
0000
0000
0000
0000
0000
,
0010
0000
0000
1000
0000
0000
0010
0000
0000
0000
0000
0000
0000
0000
0000
0000
,
0100
0000
0000
1000
0000
0000
0100
0000
0000
0000
0000
0000
0000
0000
0000
0000
,
0001
0000
0000
0010
0000
0000
0001
0000
0000
0000
0000
0000
0000
0000
0000
0000
,
0100
0000
0000
1000
0000
0000
0100
0000
0000
0000
0000
0000
0000
0000
0000
0000
,
1000
0000
0000
0001
0010
0000
0000
0100
,
1000
0000
0000
0001
0010
0000
0000
0000
,
0010
0000
0100
1000
,
0001
0000
0010
0010
,
0001
0000
1000
0100
,
0010
0000
0001
0001
,
0100
0000
0010
1000
,
0001
0000
0001
0100
,
0001
1000
0001
1000
,
0010
1000
0010
0100
,
0011
0000
0000
0001
0000
1000
0000
0001
,
0000
0010
0000
0001
0000
0100
0000
0010
,
0000
0100
0000
0001
0000
1000
0000
0001
,
0000
1000
0000
0001
0000
0100
0000
0010
,
0000
1000
0000
0010
0000
1000
0000
0010
,
0000
0100
0000
0001
0000
0010
0000
0001
,
0000
0100
0000
0001
0000
0100
0000
0000
,
0010
0100
1000
0000
0100
0001
0010
0000
,
0110
0000
0000
0001
0000
1000
0000
0001
,
0000
1000
0000
0100
0000
1000
0000
0100
,
0000
0010
0000
0100
0000
0010
0000
0001
,
0000
1000
0000
0001
0000
1000
0000
0010
,
0000
1000
0000
0010
0000
0100
0000
0010
,
0000
0100
0000
0001
0000
0100
0000
0001
,
0000
1000
0000
0001
0000
1000
0000
0010
,
0000
1000
0000
0010
0000
0100
0000
0010
,
2000
0000
0000
0000
,
3001
0000
0000
0000
;

//--------------- dance-single - B. M'Rey ----------------
#NOTEDATA:;
#STEPSTYPE:dance-single;
#DESCRIPTION:B. M'Rey;
#CREDIT:B. M'Rey;
#DIFFICULTY:Medium;
#METER:10;
#RADARVALUES:0,0,0,0,0;
#NOTES:
0000
0000
0000
0000
,
0000
0000
0000
0000
,
0000
0000
0000
0000
,
0000
0000
0000
0000
0000
0010
0010
0000
,
0001
0010
0100
1000
,
0100
0010
0001
0010
,
0001
0000
0100
0000
1000
0001
0010
0000
,
0001
0000
0100
0000
0001
1000
0100
0000
,
0011
0000
0001
0000
0010
0001
0010
0000
,
1000
0000
0100
0000
1000
0100
1000
0000
,
0100
0000
1000
0000
0010
0100
0001
0000
,
1000
0100
0020
0000
0000
0000
0031
0000
,
1000
0000
1000
0001
0000
0000
1100
0011
,
0000
0000
0000
0001
0100
0001
0100
0000
,
0010
0000
1000
0100
1000
0000
0001
1000
,
0001
0100
0010
0100
0001
0010
0100
0000
,
0100
0000
0100
0001
0000
0000
0011
1010
,
0000
0000
0000
0100
1000
0001
0010
0001
,
0010
0100
0000
0001
0000
0100
0001
0000
,
0100
1000
0001
0010
1000
0000
1010
0000
,
0011
0000
0000
0110
0000
0000
1100
0000
0000
0000
0000
0000
1000
0000
0000
0000
,
1100
0000
0000
0110
0000
0000
0011
0000
0000
0000
0000
0000
0001
0000
0000
0000
,
1010
0000
0000
0110
0000
0000
0101
0000
0000
0000
0000
0000
0001
0000
0000
0000
,
1001
0000
0000
1010
0000
0000
0110
0000
0000
0000
0000
0000
0100
0000
0000
0000
,
1100
0000
0000
0011
0000
0000
1100
0000
0000
0000
1000
0000
0000
0000
0000
0000
,
0011
0000
0000
1100
0000
0000
0011
0000
0000
0000
0001
0000
0001
0000
0000
0000
,
0100
1000
0100
0010
0100
0010
0001
0010
,
0001
1000
0001
1000
0100
0000
0200
0000
,
0310
0000
0001
0000
1000
0001
0010
0000
,
0200
0000
1300
0000
0010
0001
0010
0000
,
0200
0000
0301
0000
0100
0010
0001
0000
,
2000
0000
3100
0000
0010
1000
0010
0000
,
0120
0000
0000
0000
0001
0000
0000
0030
1000
0000
0100
0000
0001
0000
0000
0000
,
0002
0000
0000
0000
1000
0000
0000
0003
0100
0000
0010
0000
0001
0000
0000
0000
,
0001
0100
0001
0100
0001
0010
0100
1000
,
0100
1000
0100
0010
0001
0010
0001
0000
,
2010
0000
0000
0010
0000
0001
3000
0100
,
0000
0010
0000
0001
0000
0010
0000
1000
,
0020
0000
0000
1000
0000
0001
0030
0010
,
0100
1000
0000
1000
0100
0001
0000
1000
,
0020
0000
0000
1000
0000
0100
0000
0001
,
0000
1000
0000
0100
0000
1000
0030
0100
,
0020
0000
0000
1000
0000
0100
0000
1000
,
0000
0100
0000
0001
0000
1000
0030
0100
,
1000
0000
0000
0001
0000
0010
0000
1000
,
0000
0001
0000
0001
0010
0100
1000
0001
,
1000
0000
0000
0100
0000
0001
0000
1000
,
0000
0010
0000
0001
0000
0000
0000
1000
,
0100
0000
0000
0100
0000
0001
0000
0100
,
0000
0010
0000
0010
0100
1000
0100
0001
,
0100
0000
0000
0010
0000
0100
0000
0001
,
0000
1000
0000
0010
0000
1000
0000
0100
,
0020
0000
0000
0000
0000
0000
0000
0030
,
1001
0000
0000
0000
;

//--------------- dance-single - B. M'Rey ----------------
#NOTEDATA:;
#STEPSTYPE:dance-single;
#DESCRIPTION:B. M'Rey;
#CREDIT:B. M'Rey;
#DIFFICULTY:Hard;
#METER:13;
#RADARVALUES:0,0,0,0,0;
#NOTES:
0000
0000
0000
0000
,
0000
0000
0000
0000
,
0100
0010
0001
0000
1000
0000
0100
0010
0001
1000
0010
0000
0100
0000
0001
0010
,
0100
1000
0001
0010
0100
0000
1000
0001
0010
0000
0100
0000
1100
0000
0000
0000
,
0100
1000
0100
0010
0001
0010
0100
1000
,
0001
0100
0010
0100
0010
0100
0001
1000
,
0010
0100
0010
0100
0010
1000
0001
0100
,
0010
1000
0100
0010
0001
0010
0100
1000
,
1100
0010
0100
0001
0010
0100
1000
0001
,
0100
0001
1000
0001
0100
0010
0100
0001
,
0010
0100
1000
0000
0010
0000
0100
0001
1000
0010
0100
0000
0001
0000
1000
0100
,
0010
0001
1000
0100
0010
0000
0001
1000
0100
0000
0010
0000
0011
0000
0000
0000
,
0010
1000
0100
1000
0001
1000
0100
0010
,
0001
0010
0001
0100
0010
1000
0010
0100
,
0001
1000
0100
1000
0001
0100
0010
0100
,
0001
0100
0001
1000
0001
0010
0100
0010
,
0001
0010
0100
1000
0100
1000
0010
1000
,
0100
0010
0100
0010
0001
1000
0001
0100
,
0010
1000
0001
0000
0001
0000
0010
0100
0010
0100
1000
0000
1000
0000
0001
0010
,
0001
0010
0001
0010
0100
0000
1000
0010
0100
0000
0001
0000
1100
0000
0000
0000
,
0010
0000
0001
1000
0000
1000
0001
0000
0000
0000
0202
0000
0000
0303
0000
0000
,
0010
0000
1000
0100
0000
0100
1000
0000
1100
0000
1000
0000
0001
0000
0000
0000
,
0001
0000
1000
0010
0000
0010
1000
0000
0000
0000
2200
0000
0000
3300
0000
0000
,
0010
0000
0001
0100
0000
0100
0001
0000
0101
0000
0001
0000
1000
0000
0000
0000
,
1000
0000
0010
0100
0000
0100
0010
0000
0000
0000
2020
0000
0000
3030
0000
0000
,
0001
0000
0010
0100
0000
0100
0010
0000
0110
0000
0010
0000
0001
0000
0000
0000
,
0001
0000
0001
1000
0000
1000
0010
0000
0010
0000
0010
0100
0000
0100
0001
0000
,
0001
0000
0001
1000
0000
1000
0100
0000
0010
0000
0000
0000
1100
0000
0000
0000
,
1000
0001
0100
0000
0010
0000
1000
0000
0002
0000
0000
0000
1003
0000
0000
0000
,
0001
0010
1000
0000
0010
0000
0001
0000
2000
0000
0000
0000
3001
0000
0000
0000
,
1000
0010
0001
0000
0010
0000
1000
0000
0002
0000
0000
0000
0103
0000
0000
0000
,
0001
0010
1000
0000
0010
0000
0001
0000
2000
0000
0000
0000
3001
0000
0000
0000
,
1000
0010
0100
0000
0001
0000
0100
0000
0020
0000
0000
0000
0130
0000
0000
0000
,
0001
0010
0100
0000
1000
0000
0100
0000
0020
0000
0000
0000
0130
0000
0000
0000
,
1000
0010
0100
0000
0001
0000
0100
0010
1000
0010
0100
0000
0001
0000
1000
0010
,
0001
0010
0100
0010
1000
0000
0100
1000
0001
0000
0010
0000
0011
0000
0000
0000
,
0100
1000
0001
1000
0010
0100
0001
0010
,
0001
1000
0001
1000
0010
0100
0001
0100
,
0001
0100
0010
1000
0010
0100
0001
1000
,
0100
0010
0100
1000
0001
1000
0010
1000
,
0010
0100
0001
1000
0100
0010
0001
1000
,
0010
1000
0010
1000
0100
0010
0001
0100
,
0001
0010
0100
0010
0100
0010
0001
0010
,
1000
0010
0100
0000
0001
0000
0010
0100
1000
0001
0010
0000
0100
0000
1000
0000
,
0010
0100
0001
0100
0010
1000
0010
0001
,
0010
0000
0100
0000
0001
1000
0001
0000
1000
0100
1000
0000
0001
1000
0001
0000
,
0001
0010
0001
0000
0101
0000
0000
0000
1010
0000
0000
0000
0101
0000
0000
0000
,
0110
0000
0000
0011
0000
1010
0000
1001
,
1000
0100
1000
0001
0010
0001
1000
0010
,
0100
0000
0010
0000
1000
0001
1000
0000
1000
0010
1000
0000
0010
0100
0010
0000
,
0100
0001
1000
0000
0100
0010
0001
0000
0100
1000
0100
0000
0001
0010
0100
0000
,
1000
0010
0100
0000
0001
0010
0100
0000
1000
0001
0100
0000
0010
0100
0001
1000
,
0020
0000
0000
0000
,
0130
0000
0000
0000
;
