#TITLE:Fascination MAXX;
#SUBTITLE:(K2 Chaos Remix);
#ARTIST:KITA KERU;
#GENRE:HARDCORE TECHNO;
#CREDIT:B. M'Rey;
#MUSIC:Fascination MaxX (K2 Chaos Remix).ogg;
#BANNER:Fascination MaxX (K2 Chaos Remix)-BN.png;
#BACKGROUND:Fascination MaxX (K2 Chaos Remix)-bg.png;
#CDTITLE:./CDTITLES/Konami Original Remix.png;
#SAMPLESTART:14.92;
#SAMPLELENGTH:12;
#OFFSET:-0.259;
#BPMS:0=400;
#STOPS:354=2.325;

//--------------- dance-single - B. M'Rey ----------------
#NOTES:
     dance-single:
     B. M'Rey:
     Beginner:
     5:
     0,0,0,0,0:
0000
0000
0000
0000
,
0000
0000
0000
0000
,
0000
0000
0000
0000
,
0000
0000
0000
0000
,
0000
0000
0010
0000
,
0100
0000
1000
0000
,
0000
0000
1000
0000
,
0010
0000
0100
0000
,
0000
0000
0010
0000
,
0001
0000
0100
0000
,
0000
0000
0100
0000
,
0010
0000
1000
0000
,
0000
0000
0010
0000
,
0001
0000
0100
0000
,
0000
0000
1000
0000
,
0010
0000
1000
0000
,
0000
0000
0010
0000
,
0100
0000
1000
0000
,
0000
0000
0100
0000
,
0010
0000
0100
0000
,
0000
0000
0011
0000
,
0000
0000
0110
0000
,
0000
0000
0101
0000
,
0000
0000
0011
0000
,
0000
0000
1000
0000
,
0100
0000
0010
0000
,
0200
0300
1000
0000
,
0001
0000
0100
0000
,
0020
0030
0100
0000
,
0001
0000
1000
0000
,
0002
0003
0010
0000
,
0100
0000
1000
0000
,
0002
0003
0010
0000
,
0100
0000
1000
0000
,
0020
0030
1000
0000
,
0100
0000
0010
0000
,
0002
0003
0100
0000
,
0010
0000
0100
0000
,
0002
0003
0010
0000
,
0100
0000
0010
0000
,
0002
0003
0100
0000
,
0010
0000
0100
0000
,
0020
0030
1000
0000
,
0100
0000
0010
0000
,
0002
0003
0010
0000
,
0100
0000
1000
0000
,
0020
0030
0100
0000
,
0001
0000
0010
0000
,
0200
0300
1000
0000
,
0010
0000
0100
0000
,
0002
0003
0010
0000
,
0001
0000
0100
0000
,
0020
0030
1000
0000
,
0010
0000
0100
0000
,
0002
0003
1000
0000
,
0100
0000
1000
0000
,
0020
0030
0100
0000
,
0000
0000
0100
0000
,
0000
0000
0010
0000
,
0000
0000
0010
0000
,
0000
0000
0100
0000
,
0000
0000
0100
0000
,
0000
0000
1100
0000
,
0000
0000
1100
0000
,
0000
0000
1000
0000
,
0000
0000
1000
0000
,
0000
0000
0001
0000
,
0000
0000
0001
0000
,
0000
0000
1000
0000
,
0000
0000
1000
0000
,
0000
0000
0110
0000
,
0000
0000
0110
0000
,
0000
0000
0001
0000
,
0000
0000
0001
0000
,
0000
0000
0100
0000
,
0000
0000
0100
0000
,
0000
0000
0001
0000
,
0000
0000
0001
0000
,
0000
0000
0011
0000
,
0000
0000
1100
0000
,
0000
0000
0010
0000
,
0000
0000
0010
0000
,
0000
0000
1000
0000
,
0000
0000
1000
0000
,
0000
0000
0010
0000
,
0000
0000
0010
0000
,
0000
0000
1010
0000
,
0000
0000
0110
0000
,
0000
0000
1001
0010
,
0000
1000
0000
0001
,
0000
0000
0000
0001
,
0000
0010
0000
0100
,
0000
0000
0000
0001
,
0000
0100
0000
0001
,
0000
0000
0000
0010
,
0000
1000
0000
0100
,
0000
0000
0000
0001
,
0000
1000
0000
0010
,
0000
0000
0000
0001
,
0000
1000
0000
0010
,
0000
0000
0000
0001
,
0000
0010
0000
0100
,
0000
0000
0000
0100
,
0000
1000
0000
0010
,
0000
0000
0000
1000
,
0000
0100
0000
0010
,
0000
0200
0300
1000
,
0000
0001
0000
0100
,
0000
0020
0030
0100
,
0000
0001
0000
1000
,
0000
0002
0003
0010
,
0000
0100
0000
1000
,
0000
0002
0003
0010
,
0000
0100
0000
1000
,
0000
0020
0030
1000
,
0000
0100
0000
0010
,
0000
0002
0003
0100
,
0000
0010
0000
0100
,
0000
0002
0003
0010
,
0000
0100
0000
0010
,
0000
0002
0003
0100
,
0000
0010
0000
0100
,
0000
0020
0030
1000
,
0000
0100
0000
0010
,
0000
0002
0003
0010
,
0000
0100
0000
1000
,
0000
0020
0030
0100
,
0000
0001
0000
0010
,
0000
0200
0300
1000
,
0000
0010
0000
0100
,
0000
0002
0003
0010
,
0000
0001
0000
0100
,
0000
0020
0030
1000
,
0000
0010
0000
0100
,
0000
0002
0003
1000
,
0000
0100
0000
1000
,
0000
0020
0030
0100
,
0000
0010
0000
0001
,
0000
0200
0300
0010
,
0000
0100
0000
0010
,
0000
2000
3000
0100
,
0000
1000
0000
0001
,
0000
0100
0000
0010
,
0000
0100
0000
0110
;

//--------------- dance-single - B. M'Rey ----------------
#NOTES:
     dance-single:
     B. M'Rey:
     Easy:
     7:
     0,0,0,0,0:
0000
0000
0000
0000
,
0000
0000
0000
0000
,
0000
0000
0000
0000
,
0000
0000
0000
0000
,
0000
0000
1000
0000
,
0010
0000
0100
0000
,
0010
0000
1000
0000
,
0001
0000
1000
0000
,
0010
0000
0100
0000
,
0001
0000
0100
0000
,
0001
0000
1000
0000
,
0100
0000
0010
0000
,
0100
0000
1000
0000
,
0001
0000
0010
0000
,
0001
0000
1000
0000
,
0100
0000
0010
0000
,
0001
0000
0010
0000
,
0100
0000
1000
0000
,
0100
0000
0010
0000
,
0001
0000
0010
0000
,
0100
0000
1001
0000
,
0000
0000
0110
0000
,
0000
0000
1000
0000
,
0001
0000
1000
0000
,
0100
0000
1000
0001
,
0010
0000
0010
0001
,
0100
0000
1000
0100
,
1000
0000
0100
0010
,
0100
0000
1000
0100
,
0010
0000
0010
0001
,
0100
0000
1000
0100
,
0010
0000
1000
0100
,
0010
0000
0100
0001
,
0010
0000
0010
0001
,
1000
0000
1000
0100
,
0010
0000
1000
0010
,
1000
0000
0100
0001
,
0010
0000
0010
0001
,
0100
0000
1000
0100
,
0010
0000
1000
0001
,
0010
0000
1000
0001
,
0100
0000
0100
0001
,
1000
0000
0010
0100
,
0010
0000
1000
0010
,
0100
0000
0010
0100
,
1000
0000
0010
0001
,
0100
0000
0010
0100
,
0010
0000
0100
0001
,
0010
0000
1000
0010
,
1000
0000
0100
0001
,
0010
0000
0100
0010
,
1000
0000
1000
0001
,
0100
0000
1000
0100
,
1000
0000
0010
0100
,
1000
0000
0100
0010
,
0100
0000
0010
0001
,
0100
0000
0200
0000
,
0302
0000
0023
0000
,
0032
0000
2003
0000
,
3020
0000
0230
0000
,
0302
0000
0203
0000
,
0320
0000
2030
0000
,
3020
0000
1030
0100
,
0001
0000
0100
0000
,
0011
0000
0200
0000
,
0320
0000
2030
0000
,
3002
0000
0023
0000
,
0032
0000
2003
0000
,
3200
0000
0320
0000
,
0032
0000
2003
0000
,
3002
0000
0103
1000
,
0010
0000
0100
0000
,
0110
0000
2000
0000
,
3200
0000
0320
0000
,
0230
0000
2300
0000
,
3002
0000
0203
0000
,
0320
0000
2030
0000
,
3002
0000
2003
0000
,
3200
0000
0310
0001
,
0100
0000
0010
0000
,
0101
0000
0200
0000
,
0320
0000
2030
0000
,
3200
0000
2300
0000
,
3200
0000
0320
0000
,
0032
0000
2003
0000
,
3020
0000
0230
0000
,
0302
0000
0103
0001
,
0010
0000
1000
0000
,
0001
0000
0110
1000
,
0000
0100
0000
0010
,
0000
0001
0000
0100
,
0000
0010
0000
1000
,
0000
0100
0000
0010
,
0000
0001
0000
0100
,
0000
0001
0000
0010
,
0000
0100
0000
0010
,
0000
0001
0000
0100
,
0000
0001
0000
0010
,
0000
0100
0000
0010
,
0000
0001
0000
0100
,
0000
0010
0000
1000
,
0000
0010
0000
1000
,
0000
0100
0000
0010
,
0000
0001
0000
0100
,
0000
0010
0000
1000
,
0001
0010
0000
0010
,
0001
0100
0000
1000
,
0100
1000
0000
0100
,
0010
0100
0000
1000
,
0100
0010
0000
0010
,
0001
0100
0000
1000
,
0100
0010
0000
1000
,
0100
0010
0000
0100
,
0001
0010
0000
0010
,
0001
1000
0000
1000
,
0100
0010
0000
1000
,
0010
1000
0000
0100
,
0001
0010
0000
0010
,
0001
0100
0000
1000
,
0100
0010
0000
1000
,
0001
0010
0000
1000
,
0001
0100
0000
0100
,
0001
1000
0000
0010
,
0100
0010
0000
1000
,
0010
0100
0000
0010
,
0100
1000
0000
0010
,
0001
0100
0000
0010
,
0100
0010
0000
0100
,
0001
0010
0000
1000
,
0010
1000
0000
0100
,
0001
0010
0000
0100
,
0010
1000
0000
1000
,
0001
0100
0000
1000
,
0100
1000
0000
0010
,
0100
1000
0000
0100
,
0010
0100
0000
0010
,
0001
0100
0000
0100
,
1000
0001
0000
0010
,
0001
0100
0000
1000
,
0100
0010
0000
0100
,
0001
0010
0000
0101
,
0000
0001
0100
0010
,
0000
0001
0010
0100
,
0000
0010
0100
1000
,
0000
0011
0000
0000
;

//--------------- dance-single - B. M'Rey ----------------
#NOTES:
     dance-single:
     B. M'Rey:
     Medium:
     9:
     0,0,0,0,0:
0000
0000
0000
0000
,
0000
0000
0000
0000
,
0000
0000
0000
0000
,
0000
0000
0000
0000
,
0000
0000
1000
0001
,
1000
0001
0100
0001
,
0100
0010
0100
0010
,
1000
0010
1000
0001
,
1000
0001
0010
0100
,
0010
0100
0010
0001
,
1000
0001
1000
0001
,
0010
0100
0010
0001
,
0010
0100
1000
0100
,
0010
0100
0010
0001
,
0010
0100
1000
0100
,
1000
0100
0010
0001
,
0010
0001
0010
0100
,
1000
0001
1000
0010
,
1000
0010
0100
0010
,
1000
0001
1000
0100
,
1000
0100
0110
0000
,
0011
0000
1010
0000
,
0110
0000
0100
0010
,
0100
0000
0010
0001
,
0100
0000
0100
0010
,
1000
0010
1000
0010
,
0200
0300
0100
0001
,
0100
0010
1000
0010
,
0200
0300
0100
0001
,
1000
0001
1000
0100
,
2000
3000
0010
0100
,
0010
0001
0010
0001
,
2000
3000
1000
0100
,
1000
0010
0100
0010
,
0200
0300
1000
0001
,
1000
0001
1000
0010
,
0200
0300
0100
0010
,
1000
0001
1000
0100
,
2000
3000
0010
0100
,
0010
0001
0010
0001
,
0200
0300
0100
0010
,
0100
0010
1000
0010
,
0200
0300
1000
0001
,
0010
0100
0010
0100
,
0020
0030
1000
0001
,
1000
0001
0100
0010
,
0200
0300
0100
0001
,
0010
0001
0010
0001
,
2000
3000
1000
0100
,
1000
0010
0100
0010
,
0200
0300
1000
0100
,
0010
0100
0010
0100
,
2000
3000
1000
0100
,
1000
0100
0010
0100
,
0020
0030
0010
0001
,
1000
0001
1000
0010
,
2000
3000
1001
0000
,
0110
0000
1001
0000
,
0110
0000
1001
0000
,
0110
0000
1100
0000
,
0011
0000
0110
0000
,
1100
0000
0011
0000
,
1100
0000
0010
0001
,
0010
0000
1000
0100
,
1000
0000
1001
0000
,
1001
0000
0110
0000
,
1010
0000
1001
0000
,
0011
0000
0110
0000
,
1100
0000
1001
0000
,
0101
0000
0110
0000
,
1010
0000
1000
0100
,
0010
0000
1000
0001
,
1000
0000
1001
0000
,
1001
0000
1001
0000
,
0110
0000
1010
0000
,
1010
0000
1001
0000
,
0011
0000
0110
0000
,
0110
0000
1001
0000
,
0011
0000
1000
0100
,
1000
0000
1000
0010
,
1000
0000
1001
0000
,
0110
0000
1100
0000
,
0011
0000
1010
0000
,
0101
0000
1100
0000
,
0011
0000
1010
0000
,
0101
0000
0110
0000
,
1001
0000
1000
0100
,
0010
0000
0010
0100
,
1000
0000
1010
1000
,
0001
0010
0001
0010
,
0100
1000
0100
1000
,
0010
0100
0010
0100
,
0001
1000
0010
0100
,
0010
0100
0001
1000
,
0001
0100
0010
0100
,
0010
1000
0001
1000
,
0010
0100
0010
1000
,
0100
1000
0100
0010
,
0001
0100
0001
0100
,
0010
1000
0010
1000
,
0001
0100
0001
0010
,
0100
0010
0100
1000
,
0010
1000
0010
0100
,
0001
0100
0001
0010
,
0100
0010
0001
0100
,
0010
1000
0010
1000
,
0010
0200
0300
0100
,
0001
0100
0010
1000
,
0010
0200
0300
0100
,
0001
1000
0001
1000
,
0100
2000
3000
0010
,
0100
0010
0001
0010
,
0001
2000
3000
1000
,
0100
1000
0010
0100
,
0010
0200
0300
1000
,
0001
1000
0001
1000
,
0010
0200
0300
0100
,
0010
1000
0001
1000
,
0100
2000
3000
0010
,
0100
0010
0001
0010
,
0001
0200
0300
0100
,
0010
0100
0010
1000
,
0010
0200
0300
1000
,
0001
0010
0100
0010
,
0100
0020
0030
1000
,
0001
1000
0001
0100
,
0010
0200
0300
0100
,
0001
0010
0001
0010
,
0001
2000
3000
1000
,
0100
1000
0010
0100
,
0010
0200
0300
1000
,
0100
0010
0100
0010
,
0100
2000
3000
1000
,
0100
1000
0100
0010
,
0100
0020
0030
0010
,
0001
1000
0001
1000
,
0010
2001
3000
0001
,
0010
0100
0010
0100
,
0010
0001
0100
0001
,
0100
0001
0010
0100
,
1000
0100
0010
0100
,
0000
0001
0010
0001
,
1000
0001
1000
0010
,
1000
0010
0100
0010
,
0100
0001
0000
0000
;

//--------------- dance-single - B. M'Rey ----------------
#NOTES:
     dance-single:
     B. M'Rey:
     Hard:
     10:
     0,0,0,0,0:
0000
0000
0000
0000
,
0000
0000
0000
0000
,
0000
0000
0000
0000
,
0000
0000
0000
0000
,
0000
0000
1000
0100
,
1000
0001
0010
0100
,
0010
0001
0010
0000
0100
0000
0001
0000
,
0010
0000
0100
0000
1000
0010
1000
0010
,
0100
0001
0100
0000
1000
0000
0010
0000
,
0100
0001
0010
0001
,
1000
0010
1000
0000
1000
0000
0100
0000
,
0010
0000
0100
0000
0010
0100
0010
0100
,
1000
0010
1000
0000
0100
0000
0010
0000
,
0100
0001
0010
0100
,
1000
0010
1000
0000
0100
0000
0001
0000
,
1000
0000
0010
1000
0010
1000
0100
0010
,
0100
0001
1000
0001
,
1000
0100
1000
0010
,
0100
0010
0100
0000
0100
0000
0010
0000
,
1000
0000
0100
0000
0010
0001
0010
0001
,
1000
0100
1000
0000
1001
0000
0101
0000
,
0110
1010
1010
0101
,
0101
0000
1001
0000
0010
0000
0100
0010
,
0100
0000
0010
0000
1000
0000
0100
0001
,
0100
0000
0001
0000
0100
0000
0100
0010
,
1000
0000
1000
0010
1000
0000
0010
0001
,
0010
0100
1000
0000
0100
0000
0010
0100
,
0010
0000
1000
0001
0100
0000
1000
0010
,
1000
0001
1000
0000
0100
0000
0100
0010
,
0001
0000
0001
0010
0001
0000
0010
1000
,
0010
0100
0001
0000
0100
0000
0010
0100
,
0010
0000
0001
1000
0100
0000
0001
0010
,
0001
1000
0001
0000
0010
0000
0010
0100
,
1000
0000
1000
0100
1000
0000
0100
0001
,
0100
0010
1000
0000
0010
0000
0100
0010
,
0100
0000
1000
0001
0010
0000
1000
0100
,
1000
0001
1000
0000
0010
0000
0010
0100
,
0001
0000
0001
0100
0001
0000
0100
1000
,
0100
0010
0001
0000
0010
0000
0100
0010
,
0100
0000
0001
1000
0010
0000
0001
0100
,
0001
1000
0001
0000
0001
0000
0001
1000
,
0010
0000
0010
1000
0010
0000
1000
0100
,
1000
0001
0010
0000
0001
0000
1000
0001
,
1000
0000
0010
0100
0001
0000
0010
1000
,
0010
0100
0010
0000
1000
0000
1000
0001
,
0010
0000
0010
0001
0010
0000
0001
0100
,
0001
1000
0010
0000
1000
0000
0001
1000
,
0001
0000
0010
0100
1000
0000
0010
0001
,
0010
0100
0010
0000
0001
0000
0001
1000
,
0100
0000
0100
1000
0100
0000
1000
0010
,
1000
0001
0100
0000
0001
0000
1000
0001
,
1000
0000
0100
0010
0001
0000
0100
1000
,
0100
0010
0100
0000
1000
0000
1000
0001
,
0100
0000
0100
0001
0100
0000
0001
0010
,
0001
1000
0100
0000
1000
0000
0001
1000
,
0001
0000
0100
0010
1000
0000
0100
0001
,
0100
0010
0100
0000
0100
0001
0010
0000
,
1000
0100
0010
0000
0010
0001
1000
0000
,
0010
0001
1000
0000
0010
0100
1000
0000
,
0010
0001
0100
0000
1000
0010
1000
0000
,
0100
0010
0100
0000
0100
0010
1000
0000
,
1000
0010
0100
0000
0010
0001
0100
0000
,
1000
0010
0100
0000
0110
0000
0110
0000
,
1000
0000
0100
0000
0010
0001
0010
0100
,
1000
0000
0100
0000
1000
0100
0010
0000
,
0010
0001
0100
0000
0010
0100
1000
0000
,
0100
0010
1000
0000
1000
0100
0010
0000
,
0100
0001
0010
0000
0010
0100
0010
0000
,
1000
0100
0010
0000
1000
0010
0100
0000
,
0010
0100
1000
0000
1000
0100
0010
0000
,
0100
0001
0010
0000
1001
0000
1001
0000
,
1000
0000
0010
0000
0100
0010
0100
0010
,
1000
0000
0010
0000
1000
0001
1000
0000
,
0010
0001
0010
0000
0010
0100
1000
0000
,
0010
0001
0010
0000
1000
0001
0100
0000
,
1000
0010
1000
0000
0100
0001
1000
0000
,
1000
0010
1000
0000
0100
0001
0100
0000
,
1000
0010
1000
0000
1000
0001
0100
0000
,
0100
0001
1000
0000
1010
0000
1010
0000
,
0100
0000
0001
0000
1000
0100
1000
0100
,
1000
0000
0001
0000
1000
0001
1000
0000
,
1000
0010
0100
0000
0100
0010
1000
0000
,
1000
0001
1000
0000
0100
0001
0100
0000
,
0100
0010
1000
0000
1000
0100
1000
0000
,
0010
0100
0010
0000
0010
0001
0100
0000
,
0100
0010
0100
0000
1000
0010
1000
0000
,
1000
0001
0010
0000
0110
0000
0110
0000
,
1000
0000
0100
0000
1000
0010
1000
0010
,
1000
0001
0110
1000
,
0010
1000
0001
0100
,
0010
0000
0100
0001
0100
0000
0010
0000
,
0001
0000
0100
0000
0010
0000
1000
0100
,
1000
0100
0010
0001
0010
0000
1000
0000
,
0100
0010
0001
0100
,
0001
0000
1000
0100
1000
0000
1000
0000
,
0010
0000
0100
0000
0010
0000
0100
0010
,
0100
0010
1000
0100
1000
0000
0010
0000
,
0100
0010
0001
0100
,
0010
0000
1000
0100
1000
0000
0010
0000
,
0001
0000
1000
0000
0100
1000
0100
1000
,
0010
0100
0010
0000
0001
0000
1000
0000
,
0001
1000
0010
1000
,
0100
0000
0010
0100
0010
0000
0010
0000
,
0100
0000
1000
0000
0010
0000
0100
0001
,
0100
0001
1000
0010
1000
0000
0100
0000
,
0100
0010
1000
0000
1000
0010
1000
0000
,
0010
0001
0010
0100
1000
0000
0100
0000
,
0010
0100
0010
0000
1000
0001
0100
0000
,
1000
0010
1000
0001
1000
0000
0100
0000
,
0100
0010
0001
0000
0001
0010
0001
0000
,
0010
1000
0010
0100
0001
0000
0100
0000
,
0010
0100
0010
0000
0001
1000
0100
0000
,
0001
0010
0001
1000
0001
0000
0010
0000
,
0010
0100
1000
0000
1000
0100
1000
0000
,
0100
0001
0100
0010
1000
0000
0010
0000
,
0100
0010
0100
0000
1000
0001
0010
0000
,
1000
0100
1000
0001
1000
0000
0010
0000
,
0010
0100
0001
0000
0001
0100
0001
0000
,
0100
1000
0100
0010
0001
0000
0010
0000
,
0100
0010
0100
0000
0001
1000
0010
0000
,
0001
0100
0001
1000
0001
0000
0001
0000
,
0001
1000
0010
0000
0010
1000
0010
0000
,
1000
0100
1000
0001
0010
0000
0001
0000
,
1000
0001
1000
0000
0010
0100
0001
0000
,
0010
1000
0010
0100
0010
0000
1000
0000
,
1000
0001
0010
0000
0010
0001
0010
0000
,
0001
0100
0001
1000
0010
0000
1000
0000
,
0001
1000
0001
0000
0010
0100
1000
0000
,
0010
0001
0010
0100
0010
0000
0001
0000
,
0001
1000
0100
0000
0100
1000
0100
0000
,
1000
0010
1000
0001
0100
0000
0001
0000
,
1000
0001
1000
0000
0100
0010
0001
0000
,
0100
1000
0100
0010
0100
0000
1000
0000
,
1000
0001
0100
0000
0100
0001
0100
0000
,
0001
0010
0001
1000
0100
0000
1000
0000
,
0001
1000
0001
0000
0100
0010
1000
0000
,
0100
0001
0100
0010
0100
0000
0010
0000
,
0100
0000
1000
0010
1000
0000
0100
0001
,
0100
0001
0010
0000
0100
0000
0010
0000
,
0100
0010
0001
0100
,
0010
1000
0001
0011
,
0000
0100
0010
0100
,
0010
0100
0001
0010
,
0100
1000
0010
0110
,
0110
0110
0000
0000
;

//--------------- dance-single - B. M'Rey ----------------
#NOTES:
     dance-single:
     B. M'Rey:
     Challenge:
     13:
     0,0,0,0,0:
0000
0000
0000
0000
,
0000
0000
0000
0000
,
0000
0000
0000
0000
,
0000
0000
0000
0000
,
0000
0000
0010
1000
,
0010
0100
0001
0100
,
0001
0100
0001
0000
0001
0000
0010
0000
,
0001
0000
0100
0000
1000
0001
1000
0001
,
1000
0001
1000
0010
0000
0000
0100
0000
0000
0010
0000
0000
,
0100
0001
1000
0001
,
0010
1000
0010
0100
0000
0000
0010
0000
0000
0001
0000
0000
,
1000
0000
0001
0000
0010
0001
0010
0001
,
1000
0100
1000
0010
0000
0000
0100
0000
0000
0010
0000
0000
,
1000
0010
1000
0001
,
0100
0010
0100
0001
0000
0000
0010
0000
0000
0001
0000
0000
,
1000
0000
0010
0000
1000
0100
1000
0100
,
1000
0100
1000
0001
0000
0000
0010
0000
0000
0100
0000
0000
,
0010
0001
1000
0100
,
0100
0010
0100
0010
0000
0000
0100
0000
0000
1000
0000
0000
,
0010
0000
1000
0000
0001
1000
0001
1000
,
0100
0000
0000
0000
1000
0000
0000
0000
0100
0000
0000
0000
1000
0000
0000
0000
0000
0000
0000
0000
0000
0000
0000
0000
2002
0000
0000
3003
0000
0000
0000
0000
0000
0000
0000
0000
0202
0000
0000
0303
0000
0000
0000
0000
0000
0000
0000
0000
,
0220
0330
0000
0000
2020
3030
0000
0000
2020
3030
0000
0000
0202
0303
0000
0000
,
0202
0303
0000
0000
2002
3003
0000
0000
0010
0000
0000
0000
0100
0000
0010
0000
,
0100
0000
0010
0000
1000
0000
0100
0001
,
0100
0000
0001
0000
0100
0000
0100
0001
,
0100
0000
1000
0010
1000
0000
0100
0001
,
0100
0000
0010
0000
0100
0000
0010
0000
0000
0000
0000
0000
0001
0000
0000
0000
0000
0000
0010
0000
0000
0001
0000
0000
,
0100
0000
1000
0001
0010
0100
1000
0100
,
0010
0000
0100
0000
0010
0000
0100
0000
0000
0000
0000
0000
1000
0000
0000
0000
0000
0000
0010
0000
0000
1000
0000
0000
,
0100
0000
1000
0100
0010
0000
1000
0010
,
0001
0000
0010
0000
0001
0000
0010
0000
0000
0000
0000
0000
0100
0000
0000
0000
0000
0000
1000
0000
0000
0100
0000
0000
,
1000
0000
1000
0001
0010
0001
0100
0010
,
0100
0000
1000
0000
0100
0000
1000
0000
0000
0000
0000
0000
1000
0000
0000
0000
0000
0000
0010
0000
0000
0001
0000
0000
,
1000
0000
1000
0010
1000
0000
0010
0001
,
0010
0000
0100
0000
0010
0000
0100
0000
0000
0000
0000
0000
1000
0000
0000
0000
0000
0000
1000
0000
0000
0010
0000
0000
,
0100
0000
1000
0001
1000
0010
1000
0010
,
0001
0000
0010
0000
0001
0000
0010
0000
0000
0000
0000
0000
1000
0000
0000
0000
0000
0000
0100
0000
0000
0010
0000
0000
,
0100
0000
0010
0100
1000
0000
1000
0100
,
1000
0000
0100
0000
1000
0000
0100
0000
0000
0000
0000
0000
0100
0000
0000
0000
0000
0000
0010
0000
0000
0001
0000
0000
,
0010
0000
0010
0001
1000
0010
0100
0001
,
0001
0000
0010
0000
0001
0000
0010
0000
0000
0000
0000
0000
0100
0000
0000
0000
0000
0000
0010
0000
0000
0001
0000
0000
,
0010
0000
1000
0010
0100
0000
1000
0100
,
0100
0000
1000
0000
0100
0000
1000
0000
0000
0000
0000
0000
0010
0000
0000
0000
0000
0000
1000
0000
0000
0100
0000
0000
,
1000
0000
1000
0010
0100
0001
0010
0001
,
0010
0000
0100
0000
0010
0000
0100
0000
0000
0000
0000
0000
0100
0000
0000
0000
0000
0000
1000
0000
0000
0100
0000
0000
,
1000
0000
1000
0010
0100
0000
0010
0100
,
0001
0000
0010
0000
0001
0000
1000
0000
0000
0000
0000
0000
0010
0000
0000
0000
0000
0000
0100
0000
0000
0010
0000
0000
,
1000
0000
0100
0010
1000
0100
0010
0001
,
0010
0000
1000
0000
0010
0000
0100
0000
0000
0000
0000
0000
1000
0000
0000
0000
0000
0000
1000
0000
0000
0010
0000
0000
,
0100
0000
0100
0010
1000
0000
0100
0010
,
0100
0000
0010
0000
0100
0000
0010
0000
0000
0000
0000
0000
1000
0000
0000
0000
0000
0000
1000
0000
0000
0010
0000
0000
,
1000
0000
0010
0001
0100
0001
0010
0001
,
0010
0000
0001
0000
0010
0000
0100
0000
0000
0000
0000
0000
0010
0000
0000
0000
0000
0000
0100
0000
0000
0001
0000
0000
,
0010
0000
1000
0001
0010
0100
0010
0100
,
1000
0000
0100
0000
1000
0000
0100
0000
0000
0000
0000
0000
1000
0000
0000
0000
0000
0000
1000
0000
0000
0001
0000
0000
,
1000
0000
0010
0100
1000
0000
1000
0100
,
1000
0000
0000
0000
0000
0000
0100
0000
0000
0010
0000
0000
2000
0000
3002
0000
0203
0000
0302
0000
0003
0000
0000
0000
,
2000
3020
2030
3200
0300
0000
0020
0230
2300
3002
0003
0000
,
2000
3200
0320
0230
0300
0000
0020
0032
0203
0302
0003
0000
,
2000
3002
2003
3002
0003
0000
0020
0230
0320
0230
0300
0000
,
2000
3020
0230
0320
0030
0000
2000
3200
0320
0230
0300
0000
,
0020
0032
0203
0302
0003
0000
0020
0230
0320
0032
0003
0000
,
0200
0302
0203
0302
0003
0000
1000
0000
0000
0010
0000
0000
,
1000
0000
0100
0000
0010
0000
0001
0100
,
1000
0000
0000
0001
0000
0000
0100
0000
0000
0000
0000
0000
2000
0000
3002
0000
2003
0000
3002
0000
0003
0000
0000
0000
,
0020
0230
0320
0032
0003
0000
2000
3200
0320
0230
0300
0000
,
0020
0032
2003
3002
0003
0000
0020
0230
0320
0032
0003
0000
,
2000
3002
0023
0230
0300
0000
0020
0032
0203
0320
0030
0000
,
0200
0302
2003
3002
0003
0000
0200
0320
0230
0320
0030
0000
,
0020
0032
0023
0032
0003
0000
0200
0320
0230
0302
0003
0000
,
2000
3002
0203
0320
0030
0000
0010
0000
0000
0001
0000
0000
,
1000
0000
0010
0000
0100
0010
0100
0010
,
1000
0000
0000
0010
0000
0000
0200
0302
0203
0302
0003
0000
,
2000
3200
2300
3002
0003
0000
0020
0230
0320
0230
0300
0000
,
0200
0302
0203
0302
0003
0000
0020
0230
2300
3200
0300
0000
,
2000
3002
0203
0302
0003
0000
0200
0320
2030
3020
0030
0000
,
2000
3002
0023
0032
0003
0000
0020
0230
2300
3200
0300
0000
,
2000
3020
0230
0320
0030
0000
0200
0302
0023
0032
0003
0000
,
0020
0230
2300
3200
0300
0000
1000
0000
0000
0010
0000
0000
,
0100
0000
0001
0000
1000
0100
1000
0100
,
1000
0000
0000
0010
0000
0000
0001
0000
0000
0000
0000
0000
2000
0000
3020
0000
2030
0000
3020
0000
0030
0000
0000
0000
,
0020
0230
0320
0230
0300
0000
0020
0032
0023
0032
0003
0000
,
2000
3002
2003
3020
0030
0000
0200
0302
2003
3002
0003
0000
,
0020
0032
0023
0032
0003
0000
2000
3020
2030
3002
0003
0000
,
0200
0302
0203
0320
0030
0000
2000
3020
2030
3002
0003
0000
,
0020
0032
2003
3200
0300
0000
2000
3020
0230
0302
0003
0000
,
0200
0000
0320
0000
2030
0000
3200
0000
0300
1000
0000
0000
0100
0000
0000
0000
0000
0000
0010
0000
0000
0000
0000
0000
,
1000
0000
0100
0000
1000
0010
1000
0010
,
1000
0100
1001
0100
,
0001
0100
0010
1000
,
0010
0000
1000
0010
1000
0000
1000
0000
,
0100
0000
1000
0000
0010
0000
0001
1000
,
0001
0000
0000
1000
0000
0000
0001
0000
1000
0000
0001
0000
0100
0000
0000
0000
0000
0000
0010
0000
0000
0000
0000
0000
,
0100
0010
1000
0001
,
1000
0000
0000
0100
0001
0100
0010
0000
0000
0100
0000
0000
,
1000
0000
0001
0000
1000
0000
0100
1000
,
0100
0000
0000
1000
0000
0000
0001
0000
0010
0000
0001
0000
0100
0000
0000
0000
0000
0000
0010
0000
0000
0000
0000
0000
,
0100
0001
0100
0001
,
1000
0000
0000
0010
0100
0010
1000
0000
0000
0100
0000
0000
,
1000
0000
0001
0000
0100
0000
0001
0010
,
0001
0000
0000
0010
0000
0000
0001
0000
0010
0000
0001
0000
1000
0000
0000
0000
0000
0000
0100
0000
0000
0000
0000
0000
,
0010
0100
1000
0001
,
0010
0000
0000
0010
0100
0010
0100
0000
0000
0010
0000
0000
,
0001
0000
0100
0000
0001
0000
1000
0001
,
1000
0000
0000
0001
0000
0000
0010
0000
0001
0000
0010
0000
0001
0000
0000
0000
0000
0000
0010
0000
0000
0000
0000
0000
,
0010
1000
0010
0000
0001
0100
0001
0000
,
0010
0000
0000
1000
0000
0000
0010
0000
0100
0000
0010
0000
0100
0000
0000
0000
0000
0000
1000
0000
0000
0000
0000
0000
,
0100
1000
0010
0000
0001
1000
0100
0010
,
0001
0000
0000
0010
0000
0000
0100
0000
0010
0000
0100
0000
0010
0000
0000
0000
0000
0000
0001
0000
0000
0000
0000
0000
,
0100
0001
0010
0000
0001
0010
0100
0000
,
0001
0000
0000
0100
0000
0000
1000
0000
0100
0000
1000
0000
0100
0000
0000
0000
0000
0000
0010
0000
0000
0000
0000
0000
,
0001
0010
0001
0000
0001
1000
0100
1000
,
0010
0000
0000
0100
0000
0000
0010
0000
0001
0000
0010
0000
0001
0000
0000
0000
0000
0000
0001
0000
0000
0000
0000
0000
,
0100
1000
0001
0000
0001
0100
0001
0000
,
0100
0000
0000
1000
0000
0000
0100
0000
0010
0000
0100
0000
0010
0000
0000
0000
0000
0000
0001
0000
0000
0000
0000
0000
,
0001
0100
0010
0000
0001
1000
0001
0100
,
0001
0000
0000
0100
0000
0000
1000
0000
0100
0000
1000
0000
0100
0000
0000
0000
0000
0000
0001
0000
0000
0000
0000
0000
,
0010
0100
0010
0000
0100
0010
0001
0000
,
0001
0000
0000
0010
0000
0000
0001
0000
0010
0000
0001
0000
0010
0000
0000
0000
0000
0000
0010
0000
0000
0000
0000
0000
,
0100
1000
0100
0000
0100
1000
0001
0100
,
0010
0000
0000
1000
0000
0000
1000
0000
0100
0000
1000
0000
0100
0000
0000
0000
0000
0000
0010
0000
0000
0000
0000
0000
,
0100
1000
0100
0000
0001
0100
0010
0000
,
0001
0000
0000
0010
0000
0000
0010
0000
0001
0000
0010
0000
0001
0000
0000
0000
0000
0000
0100
0000
0000
0000
0000
0000
,
0001
0010
0001
0000
0001
0100
0010
1000
,
0100
0000
0000
1000
0000
0000
0100
0000
0010
0000
0100
0000
0010
0000
0000
0000
0000
0000
0010
0000
0000
0000
0000
0000
,
0001
0010
0001
0000
0001
0100
0010
0000
,
0100
0000
0000
0010
0000
0000
1000
0000
0100
0000
1000
0000
0001
0000
0000
0000
0000
0000
0100
0000
0000
0000
0000
0000
,
0010
0100
0001
0000
0010
0100
0001
0010
,
0100
0000
0000
1000
0000
0000
0100
0000
0001
0000
0100
0000
0010
0000
0000
0000
0000
0000
0001
0000
0000
0000
0000
0000
,
0001
0100
0010
0000
0010
0100
0001
0000
,
0010
0000
0000
0100
0000
0000
0010
0000
0100
0000
0010
0000
0100
0000
0000
0000
0000
0000
0001
0000
0000
0000
0000
0000
,
0001
0100
0001
0000
0100
1000
0010
1000
,
0100
0000
0000
1000
0000
0000
0100
0000
1000
0000
0100
0000
0010
0000
0000
0000
0000
0000
0100
0000
0000
0000
0000
0000
,
0010
1000
0100
0000
0001
1000
0100
0010
,
0100
0000
0000
0010
0000
0000
0001
0000
0010
0000
0001
0000
0010
0000
0000
0000
0000
0000
0001
0000
0000
0000
0000
0000
,
0001
1000
0001
0000
0100
0010
0001
1000
,
0001
0000
0000
0010
0000
0000
0001
0000
0100
0000
0001
0000
0100
0000
0000
0000
0000
0000
0001
0000
0000
0000
0000
0000
,
0100
0000
0001
0000
1000
0010
0100
0000
,
0100
0000
0000
0001
0000
0000
0100
0000
0001
0000
0100
0000
0001
0000
0000
0000
0000
0000
0100
0000
0000
0000
0000
0000
,
0010
1000
0100
1000
,
0010
0100
0001
0110
,
0000
1000
0100
1000
,
0001
0010
0001
0100
,
0010
1000
0110
0011
,
0101
0101
0000
0000
;
