#TITLE:FLY AWAY;
#ARTIST:VINCENT DE MOOR;
#GENRE:TRANCE;
#CREDIT:B. M'Rey;
#MUSIC:FLY AWAY.ogg;
#BANNER:FLY AWAY.png;
#BACKGROUND:FLY AWAY-bg.png;
#CDTITLE:./CDTITLES/Cyber Trance.PNG;
#SAMPLESTART:39.382;
#SAMPLELENGTH:12;
#OFFSET:-0.252;
#BPMS:0=138;
#STOPS:126=1.304;

//--------------- dance-single - B. M'Rey ----------------
#NOTES:
     dance-single:
     B. M'Rey:
     Beginner:
     1:
     0,0,0,0,0:
0000
0000
0000
0000
,
0000
0000
0000
0000
,
0000
0000
0000
0000
,
0000
0000
0000
0000
,
0000
0000
1000
0000
,
0010
0000
0100
0000
,
0001
0000
0010
0000
,
0001
0000
0100
0000
,
0010
0000
1000
0000
,
0100
0000
1000
0000
,
0010
0000
0100
0000
,
0001
0000
0010
0000
,
0001
0000
1000
0000
,
0010
0000
0100
0000
,
0000
0000
0101
0000
,
0000
0000
0010
0000
,
0000
0000
1000
0000
,
0000
0000
0100
0000
,
0000
0000
0001
0000
,
0000
0000
0010
0000
,
0000
0000
0100
0000
,
0000
0000
1000
0000
,
0000
0000
0001
0000
,
1000
0000
0001
0000
,
0100
0000
0010
0000
,
1000
0000
0001
0000
,
0010
0000
0001
0000
,
0100
0000
0010
0000
,
1000
0001
0100
0000
,
0010
0000
1000
0000
,
0001
0000
1000
0001
,
0100
0000
1001
1000
,
0000
0010
0000
0100
,
0000
0001
0000
0010
,
0000
0001
0000
0100
,
0000
0010
0000
1000
,
0000
0010
0000
0100
,
0000
0001
0000
0010
,
0000
0001
0000
0100
,
0000
0010
0000
1000
,
0000
0000
0000
0101
,
0000
0000
0000
0010
,
0000
0000
0000
1000
,
0000
0000
0000
0100
,
0000
0000
0000
0001
,
0000
0000
0000
0100
,
0000
0000
0000
1000
,
0000
0000
0000
0010
,
0000
0000
0000
0100
,
0000
0000
0000
0001
,
0000
0000
0000
0010
,
0000
0000
0000
0001
,
0000
0000
0000
1000
,
0000
0000
0000
0100
,
0000
0000
0000
1000
,
0000
0000
0000
0010
,
0000
0000
0000
0100
,
0000
0001
0000
1000
,
0000
0010
0000
0100
,
0000
0010
0000
0001
,
0000
1000
0000
0010
,
0000
0100
0000
0001
,
0000
1000
0001
0100
,
0000
0010
0000
2000
,
0000
0000
0000
3001
;

//--------------- dance-single - B. M'Rey ----------------
#NOTES:
     dance-single:
     B. M'Rey:
     Easy:
     3:
     0,0,0,0,0:
0000
0000
0000
0000
,
0000
0000
0000
0000
,
0000
0000
1000
0000
,
0001
0000
1000
0000
,
0001
0000
0001
1000
,
0010
1000
0010
1000
,
0100
0010
0100
0010
,
0100
1000
0010
1000
,
0010
1000
0100
0010
,
0100
0010
0001
1000
,
0001
1000
0001
0010
,
0100
0010
0100
0010
,
0001
0100
0001
0100
,
0001
1000
0020
0000
,
0000
0000
0031
0000
,
1000
0000
0010
0000
,
0100
0000
0001
0000
,
0010
0000
0001
0000
,
0100
0000
0010
0000
,
1000
0000
0100
0000
,
1000
0100
0001
0000
,
0010
0000
0100
0000
,
1000
0000
0001
1000
,
0010
1000
0010
1000
,
0100
0010
0001
0010
,
0001
0010
0100
1000
,
0100
1000
0100
0010
,
0001
0010
0001
0010
,
0100
1000
0100
1000
,
0001
1000
0100
0010
,
0100
0010
0100
0000
,
0010
0000
1001
0001
,
1000
0001
1000
0001
,
0010
0100
0010
0100
,
0010
0001
1000
0001
,
1000
0001
0100
0010
,
0100
0010
0100
0001
,
1000
0100
1000
0001
,
1000
0001
0100
0001
,
0100
0010
0100
0020
,
0000
2030
0000
3001
,
0000
0100
0000
0010
,
0000
1000
0000
0010
,
0000
0100
0000
0001
,
0000
0010
0000
0001
,
0000
1000
0000
0010
,
0000
0001
0100
1000
,
0000
0010
0000
0100
,
0000
0001
1000
0110
,
0000
0101
0000
0110
,
0000
1010
0000
0110
,
0000
0101
0000
0110
,
0000
1010
0000
0110
,
0000
0101
0000
1010
,
0000
0110
0101
1010
,
0000
0110
0000
0101
,
0110
1010
0000
0001
,
1000
0001
1000
0001
,
0100
0010
0100
0001
,
0100
0001
0010
0001
,
1000
0010
1000
0010
,
1000
0100
0010
0100
,
0010
0100
1000
0001
,
1000
0001
1000
0020
,
0000
0200
0000
0330
;

//--------------- dance-single - B. M'Rey ----------------
#NOTES:
     dance-single:
     B. M'Rey:
     Medium:
     6:
     0,0,0,0,0:
0000
0000
0000
0000
,
0000
0000
0000
0000
,
0000
0000
0010
1000
,
0100
1000
0100
0010
,
0001
1000
0010
0010
,
0001
1000
0010
0000
0001
0000
0010
0000
,
0010
0100
0001
0000
0010
0000
0001
0000
,
0100
1000
0001
0000
0010
1000
0001
0000
,
0001
1000
0010
0000
0010
0000
0010
0000
,
0100
0010
0100
0000
0100
0000
0001
0000
,
0100
1000
0001
0000
0010
0000
0001
0000
,
0100
1000
0100
0000
0001
0000
0100
0000
,
0010
0100
0010
0000
0001
0000
0001
0000
,
0100
0010
0001
0000
1001
0000
1100
0000
,
0110
0011
0110
0000
,
0010
0000
0000
0010
0100
0000
0000
1000
,
0001
0000
0000
1000
0010
0000
0000
1000
,
0001
0000
0000
1000
0100
0000
0000
0100
,
0001
0000
0000
0100
0010
0000
0000
0010
,
0100
0000
0000
0100
0010
0000
0000
1000
,
0001
0000
0000
0010
0100
0000
0000
0010
,
0100
0000
0000
0100
1000
0000
0000
0001
,
0010
0000
0100
0000
0010
0000
0001
0100
,
0001
0000
0100
0010
0001
0000
0001
0010
,
0100
0000
0100
1000
0001
0000
0100
0010
,
0001
0000
0010
1000
0100
0000
0100
1000
,
0001
0000
0100
0010
0001
0000
0010
1000
,
0001
0000
0001
1000
0100
0000
0100
1000
,
0010
0000
0001
1000
0010
0000
0010
1000
,
0100
0000
0100
1000
0010
0000
0010
0100
,
0010
0001
0010
1100
,
0110
1001
0011
0100
,
0100
0000
0001
0010
0100
0000
0100
0000
,
0010
0000
0001
1000
0100
0000
0001
0000
,
0010
0000
0010
1000
0100
0000
0100
1000
,
0010
0000
0001
1000
0100
0000
0001
0000
,
0010
0000
0001
1000
0001
0000
1000
0000
,
0010
0000
0001
0010
0100
0000
0010
0000
,
0001
0000
0001
0010
0001
0000
0010
0100
,
0010
0000
0001
1000
0100
0000
1010
0000
,
0110
1010
1100
0110
,
0000
0000
0010
0100
0000
1000
0001
0000
,
0000
0100
0001
0000
0000
1000
0001
0000
,
0000
0001
0100
0000
0000
0010
0001
0000
,
0000
0001
0010
0000
0000
0010
1000
0000
,
0000
0010
0001
0000
0000
0100
0010
0000
,
0000
1000
0010
0000
0000
0001
0001
0000
,
0000
1000
0001
0000
0000
1000
0001
0000
,
0000
1000
0010
0000
0000
0010
0100
0000
,
0000
0000
0011
0000
0000
0110
0110
0000
,
0000
1001
1001
0000
0000
1010
1010
0000
,
0000
1010
0101
0000
0000
1001
0110
0000
,
0000
1100
0011
0000
0000
0101
0011
0000
,
0000
0011
0110
0000
0000
0101
0011
0000
,
0000
1010
0101
0000
0000
0101
0110
0000
,
0000
1100
0011
0000
0000
0101
0110
0000
,
0110
0011
0101
0010
,
0001
0100
0001
0000
0100
0010
0001
0000
,
0001
0010
0100
0000
0100
1000
0001
0000
,
0100
0010
0001
0000
0010
1000
0100
0000
,
0100
1000
0001
0000
0100
0010
0001
0000
,
0010
1000
0001
0000
0001
1000
0100
0000
,
0100
1000
0010
0000
0001
1000
0010
0000
,
0010
1000
0100
0000
0100
1000
1100
0000
,
0110
1001
0011
0110
;

//--------------- dance-single - B. M'Rey ----------------
#NOTES:
     dance-single:
     B. M'Rey:
     Hard:
     9:
     0,0,0,0,0:
0000
0000
0000
0000
,
0000
0000
0000
0000
,
0000
0000
0100
0010
,
0100
1000
0010
0100
,
0010
1000
0100
0001
,
0010
1000
0001
0000
0010
0100
0001
0000
,
0010
1000
0001
0000
0010
1000
0001
0000
,
0100
1000
0001
0000
0010
1000
0001
0000
,
0010
0100
0010
0000
0100
0010
0001
0000
,
0100
1000
0001
0000
0001
1000
0100
0000
,
0100
1000
0001
0000
0100
1000
0100
0000
,
0100
1000
0010
0000
0001
1000
0010
0000
,
0001
1000
0010
0000
0001
1000
0100
0000
,
0001
1000
0100
0000
1001
0000
0110
0000
,
0011
0000
0000
0000
1001
0000
0000
0000
0010
0000
0000
1000
0000
0100
0000
0000
,
0010
0000
0000
0100
0000
0001
0010
0000
0100
0000
0000
0010
0000
0001
1000
0000
,
0001
0000
0000
0010
0000
0001
1000
0000
0010
0000
0000
0100
0000
0000
1000
0000
,
0001
0000
0000
0010
0000
0000
1000
0000
0100
0000
0000
0010
0000
0000
0100
0000
,
0001
0000
0000
0010
0000
0000
0100
0000
0010
0000
0000
1000
0000
0000
0010
0000
,
0100
0000
0000
1000
0000
0000
0100
0000
0010
0000
0000
0100
0000
0000
1000
0000
,
0001
0000
0000
0100
0000
1000
0000
0001
0010
0000
0100
0010
0000
0100
0000
1000
,
0010
0000
0100
0010
0000
1000
0100
0000
0100
0000
1000
0010
0000
0010
0100
0000
,
0001
0000
0010
0001
0000
0001
0100
0001
0100
0000
0100
0010
0000
0010
1000
0000
,
0001
0000
0010
0100
0000
0100
1000
0000
0001
0000
0010
0100
0000
0100
1000
0000
,
0100
0000
0010
0001
0000
0001
0100
0000
0010
0000
0100
0010
0000
0010
1000
0000
,
0001
0000
0010
0001
0000
0001
0100
0000
0010
0000
1000
0001
0000
0001
0010
0000
,
0100
0000
1000
0001
0000
0001
0010
0000
0100
0000
1000
0001
0000
0001
0100
0000
,
0010
0000
0100
0001
0000
0001
0100
0000
0010
0000
1000
0001
0000
0001
0010
0000
,
0001
0000
1000
0100
0000
0100
0010
0100
0001
0000
0100
0010
0000
0010
1000
0000
,
0001
0000
0010
0100
0000
0100
1000
0000
0001
0000
0100
0010
0000
0010
1000
0000
,
0001
0000
1000
0010
0000
0010
1000
0010
1000
0000
0100
0000
0010
0000
0100
0000
,
0001
0010
0100
1000
1001
0000
0100
0010
,
0001
0000
0010
1000
0100
0000
0100
0010
,
0001
0000
0010
1000
0001
0000
0100
1000
,
0100
0000
0100
1000
0001
0000
0010
0100
,
0001
0000
0001
0010
0100
0000
0100
1000
,
0100
0000
0010
1000
0001
0000
0100
1000
,
0001
0000
0100
1000
0100
0000
0100
0010
,
0001
0000
0010
1000
0010
0000
0100
0010
,
0100
0000
0010
0100
0001
0000
0101
0000
,
0110
0000
0000
0000
1001
0000
0000
0000
0110
0000
0000
0000
0010
0000
0000
1000
,
0000
0010
0000
0000
0010
0000
0100
0001
0000
0000
1000
0000
0001
0000
0000
0010
,
0000
1000
0100
0000
0001
0000
0000
0010
0000
0100
1000
0000
0001
0000
0000
1000
,
0000
0010
0001
0000
0100
0000
0000
0010
0000
0100
0010
0000
0001
0000
0000
1000
,
0000
0000
0001
0000
0010
0000
0000
0100
0000
0000
0010
0000
1000
0000
0000
0100
,
0000
0000
0010
0000
0001
0000
0000
0010
0000
0000
0100
0000
0010
0000
0000
0001
,
0000
0000
1000
0000
0010
0000
0000
0100
0000
0010
0001
0100
0001
0000
0000
0100
,
0000
1000
0000
0000
0001
0000
0000
0100
0000
0010
0000
0000
0001
0000
0000
0100
,
0000
0001
0000
0000
0010
0000
0000
0100
0000
0000
0010
0100
0010
0000
0000
1001
,
0000
0110
0000
0000
0011
0000
0000
0100
0000
0001
0010
0000
0110
0000
0000
0010
,
0000
0001
1000
0000
1001
0000
0000
0010
0000
0001
1000
0000
0110
0000
0000
0101
,
0000
0000
1010
0000
0101
0000
0000
0110
0000
0000
1001
0000
0110
0000
0000
0110
,
0000
0000
1100
0000
0011
0000
0000
0110
0000
0000
0101
0000
0011
0000
0000
1100
,
0000
0000
0011
0000
0110
0000
0000
1100
0000
0000
0101
0000
0011
0000
0000
0110
,
0000
0000
1010
0000
0101
0000
0000
0110
0000
1000
0000
0001
0010
0000
0000
0110
,
0000
0110
0000
0000
0011
0000
0000
1100
0000
1010
0000
0000
0100
0000
0001
0000
,
0010
0000
0100
0000
0001
0000
0010
0000
0001
0000
0100
0001
0100
0000
0100
0010
,
0000
0010
1000
0000
0001
0000
0010
0100
0000
0100
1000
0000
0001
0000
0010
0100
,
0000
0100
1000
0000
0100
0000
0010
0001
0000
0001
0100
0000
0010
0000
0100
0010
,
0000
0010
1000
0000
0001
0000
0010
0001
0000
0001
0100
0000
0010
0000
1000
0001
,
0000
0001
0010
0000
0100
0000
1000
0001
0000
0001
0010
0000
0100
0000
1000
0001
,
0000
0001
0100
0000
0010
0000
0100
0001
0000
0001
0100
0000
0010
0000
1000
0001
,
0000
0001
0010
0000
0001
0000
1000
0100
0000
0100
0010
0100
0001
0000
0100
0010
,
0000
0010
1000
0000
0001
0000
0010
0100
0000
0100
1000
0000
1000
0000
0100
0000
,
0010
0100
0001
0010
0100
1000
1001
0000
;

//--------------- dance-single - B. M'Rey ----------------
#NOTES:
     dance-single:
     B. M'Rey:
     Challenge:
     11:
     0,0,0,0,0:
0000
0000
0000
0000
,
0000
0000
0000
0000
,
0000
0000
0100
0010
,
0100
0001
0010
0001
,
0100
0000
0010
0000
0100
0010
1000
0100
,
1000
0010
0100
0001
0010
0001
0100
0001
,
0010
0100
1000
0010
0100
0001
1000
0010
,
0100
0001
0010
0001
0100
0010
1000
0100
,
0010
0001
0100
0010
1000
0100
0010
0100
,
0010
0001
0010
0100
1000
0100
1000
0001
,
0010
0001
1000
0001
0010
0100
0010
0100
,
1000
0010
0100
0001
1000
0001
0010
0100
,
0010
0001
1000
0010
0100
0010
0100
0010
,
1000
0000
0100
0000
0010
0000
0001
0000
1000
0001
1000
0001
1000
0010
0100
0010
,
0100
0010
1000
0100
1000
0100
1000
0001
0010
0000
0010
0100
0000
0100
0001
0000
,
1000
0000
0100
0010
0000
0010
0001
0000
1000
0000
0100
0010
0000
0010
0001
0000
,
0010
0000
0100
1000
0000
1000
0010
0000
0100
0000
0010
0100
0000
0100
0001
0000
,
1000
0000
0100
1000
0000
1000
0010
0000
0100
0000
0001
1000
0000
1000
0100
0000
,
0010
0000
0001
1000
0000
1000
0100
0000
0010
0000
0001
1000
0000
1000
0010
0000
,
0100
0000
0010
1000
0000
1000
0010
0000
0100
0000
0001
1000
0000
1000
0100
0000
,
1000
0000
0001
0010
0000
0010
0100
0010
1000
0000
0010
0100
0000
0100
0001
0000
,
1000
0000
0100
0010
0000
0010
0001
0000
1000
0000
0010
0100
0000
0100
0001
0000
,
1000
0000
0001
0100
0000
0001
0100
0001
0100
0001
0100
0001
0100
0010
1000
0010
,
1000
0010
1000
0001
0010
0001
0010
0001
0010
0100
1000
0100
1000
0100
1000
0001
,
0010
0100
1000
0010
1000
0010
1000
0010
0100
0001
0100
0001
1000
0001
0100
0010
,
0100
0010
0100
0010
1000
0001
1000
0001
0010
0001
0010
0100
0010
0100
1000
0010
,
1000
0010
1000
0010
0100
0001
0100
0001
0100
0001
1000
0010
0100
0010
0100
0010
,
0100
0001
1000
0001
1000
0001
1000
0100
0010
0100
0010
0100
0010
0001
1000
0001
,
1000
0001
1000
0010
0100
0010
0100
0010
0100
0001
1000
0100
1000
0100
1000
0100
,
0010
0001
0010
0100
0010
0100
1000
0010
1000
0010
1000
0010
0100
0001
1000
0001
,
0010
0001
0010
0100
0010
0100
1000
0100
1000
0001
1000
0001
0010
0001
0010
0100
,
0010
0100
1000
0100
1000
0001
1000
0000
0011
0000
0000
0000
1000
0000
0100
0000
,
1000
0100
1000
0001
0100
0001
0010
0100
,
1000
0010
0100
0001
1000
0010
1000
0010
,
0100
0001
1000
0010
1000
0001
1000
0100
,
0010
0100
0010
0001
1000
0100
1000
0010
,
1000
0001
0010
0100
1000
0010
0100
0001
,
0010
0001
0010
0100
1000
0001
0010
0100
,
1000
0010
0100
0001
1000
0100
0010
0001
,
1000
0000
0001
0000
0010
0000
0100
0000
1000
0000
0001
0000
0001
1000
0001
1000
,
0010
1000
0010
0100
0010
0100
0001
1000
0001
1000
0001
1000
0010
0000
0010
0100
,
0000
0100
0001
0000
1000
0000
0100
0010
0000
0010
0001
0000
1000
0000
0100
0010
,
0000
0010
0001
0000
0010
0000
0100
1000
0000
1000
0010
0000
0100
0000
0010
0100
,
0000
0100
0001
0000
1000
0000
0100
1000
0000
1000
0010
0000
0100
0000
0001
1000
,
0000
1000
0100
0000
0010
0000
0001
1000
0000
1000
0100
0000
0010
0000
0001
1000
,
0000
1000
0010
0000
0100
0000
0010
1000
0000
1000
0010
0000
0100
0000
0001
1000
,
0000
1000
0100
0000
1000
0000
0001
0010
0000
0010
0100
0010
1000
0000
0010
0100
,
0000
0100
0001
0000
1000
0000
0100
0010
0000
0010
0001
0000
0001
0000
1000
0010
,
0000
1000
0001
0000
0100
0000
1000
0010
0000
0001
0100
0010
0100
0000
0000
1001
,
0000
0110
0000
0000
1100
0000
0000
0010
0000
1000
0100
0000
0110
0000
0000
0100
,
0000
1000
0001
0000
1001
0000
0000
0100
0000
1000
0001
0000
0110
0000
0000
1010
,
0000
0000
0101
0000
1010
0000
0000
0110
0000
0000
1001
0000
0110
0000
0000
0110
,
0000
0000
0011
0000
1100
0000
0000
0110
0000
0000
1010
0000
1100
0000
0000
0011
,
0000
0000
1100
0000
0110
0000
0000
0011
0000
0000
1010
0000
1100
0000
0000
0110
,
0000
0000
0101
0000
1010
0000
0000
0110
0000
0001
0000
1000
0100
0000
0000
0110
,
0000
0110
0000
0000
1100
0000
0000
0011
0000
0101
0000
0000
0001
1000
0001
1000
,
0001
1000
0100
0010
0100
1000
0001
1000
0001
1000
0001
0100
0001
1000
0001
1000
,
0001
1000
0010
0100
0010
1000
0100
1000
0100
1000
0100
0010
0001
0100
0001
0100
,
0001
1000
0010
1000
0010
1000
0010
0100
0001
0100
0001
0100
0010
1000
0010
1000
,
0001
1000
0001
0100
0010
0100
0010
0100
0010
1000
0100
1000
0100
1000
0100
0010
,
0001
0010
0001
0010
0001
1000
0010
1000
0010
1000
0001
0100
0010
0100
0010
0100
,
0010
1000
0100
1000
0001
0100
0010
0100
0001
0100
0001
1000
0001
1000
0010
1000
,
0010
0100
0010
0100
0001
0100
0001
0010
0001
0010
0100
0010
0100
1000
0100
0010
,
0001
0010
0001
0010
0100
1000
0001
1000
0001
0100
0001
1000
0100
0010
0100
0010
,
0100
0010
0001
1000
0001
1000
0001
1000
0010
0100
0010
0000
1001
0000
0000
0000
;
