#VERSION:0.83;
#TITLE:エブリデイ・ラブリデイ;
#ARTIST:Togo-chef feat.Sana;
#TITLETRANSLIT:Everyday lovelyday;
#GENRE:TWINKLE DANCE;
#CREDIT:B. M'Rey;
#MUSIC:Everyday lovelyday.OGG;
#BANNER:Everyday lovelyday-BN.png;
#BACKGROUND:Everyday lovelyday-bg.png;
#CDTITLE:./CDTITLES/POP'N MUSIC 10.png;
#SAMPLESTART:75.721;
#SAMPLELENGTH:15;
#OFFSET:-0.352;
#BPMS:0=122;

//--------------- dance-single - B. M'Rey ----------------
#NOTEDATA:;
#STEPSTYPE:dance-single;
#DESCRIPTION:B. M'Rey;
#CREDIT:B. M'Rey;
#DIFFICULTY:Beginner;
#METER:1;
#RADARVALUES:0,0,0,0,0;
#NOTES:
0000
0000
0000
0000
,
0000
0000
0000
0000
,
0000
0000
1000
0000
,
0000
0000
0001
0000
,
0000
0000
0100
0000
,
0000
0000
0010
0000
,
0000
0000
1000
0000
,
0000
0000
0001
0000
,
0000
0000
0010
0000
,
0000
0000
0100
0000
,
0000
0000
0001
0000
,
0000
0000
0000
0000
,
0000
0000
1000
0000
,
0000
0000
0010
0000
,
0000
0000
0100
0000
,
0000
0000
0001
0000
,
0000
0000
0010
0000
,
0000
0000
0100
0000
,
0000
0000
1000
0000
,
0000
0000
0001
0000
,
0000
0000
0010
0000
,
0000
0000
0100
0000
,
0000
0000
0001
0000
,
0000
0000
1000
0000
,
0000
0000
0010
0000
,
0000
0000
0100
0000
,
0000
0000
0001
0000
,
0000
0000
1000
0000
,
0000
0000
0010
0000
,
0000
0000
0100
0000
,
0000
0000
0001
0000
,
0000
0000
0010
0000
,
0000
0000
1000
0000
,
0000
0000
0001
0000
,
0000
0000
0010
0000
,
0000
0000
0100
0000
,
0000
0000
0001
0000
,
0000
0000
1000
0000
,
0000
0000
0001
0000
,
0000
0000
0100
0000
,
0000
0000
0010
0000
,
0000
0000
1000
0000
,
0000
0000
0001
0000
,
0000
0000
0100
0000
,
0000
0000
0010
0000
,
0000
0000
1000
0000
,
0000
0000
0001
0000
,
0000
0000
0010
0000
,
0000
0000
0001
0000
,
0000
0000
0100
0000
,
0000
0000
0010
0000
,
0000
0000
1000
0000
,
0000
0000
0001
0000
,
0000
0000
0010
0000
,
0000
0000
0200
0000
,
0000
0000
0000
0000
,
0000
0000
0310
0000
;

//--------------- dance-single - B. M'Rey ----------------
#NOTEDATA:;
#STEPSTYPE:dance-single;
#DESCRIPTION:B. M'Rey;
#CREDIT:B. M'Rey;
#DIFFICULTY:Easy;
#METER:3;
#RADARVALUES:0,0,0,0,0;
#NOTES:
0000
0000
0000
0000
,
0000
0000
0000
0000
,
0000
0000
1000
0000
,
0000
0000
0001
0000
,
0000
0000
0100
0000
,
0010
0000
1000
0000
,
0001
0000
0010
0000
,
0000
0000
0100
0000
,
0000
0000
0001
0000
,
0000
0000
1000
0000
,
0010
0000
0100
0000
,
0000
0000
0001
0000
,
0000
0000
1000
0000
,
0000
0001
0000
0010
,
0000
0001
0000
0000
,
0000
0100
0000
0010
,
0000
0100
0000
0000
,
0000
1000
0000
0001
,
0000
0010
0000
0001
,
0000
0100
0000
0010
,
0000
0000
1000
0000
,
0010
0000
1001
0000
,
0000
0010
0000
0100
,
0000
0001
0000
0000
,
0000
0010
0000
1000
,
0000
0010
0000
0000
,
0000
0100
0000
0010
,
0000
0100
0000
0001
,
0000
1000
0000
0010
,
0000
0100
0000
0001
,
1000
0001
0000
0000
,
0100
0000
0001
0000
,
0010
0000
0001
0000
,
1000
0000
0010
0001
,
1000
0000
0100
0001
,
0000
1000
0010
0000
,
0100
0000
0001
0010
,
1000
0000
0000
0000
,
0000
0000
1001
0000
,
0000
0000
0010
0000
,
0000
0000
0100
0000
,
0000
0000
0000
0000
,
0001
0000
1000
0000
,
0010
0000
1000
0000
,
0100
0000
0010
0000
,
0001
0000
0100
0000
,
0001
0000
1001
0000
,
0100
0000
0100
0000
,
0010
0000
0001
0000
,
1000
0000
0001
0000
,
0010
0000
0100
0000
,
0001
0000
1000
0001
,
0100
0000
0010
0100
,
0010
0000
1000
0000
,
0001
0000
0020
0000
,
0000
0000
0000
0000
,
0000
0000
0130
0000
,
0000
0000
0000
0000
,
0000
0000
0000
0001
;

//--------------- dance-single - B. M'Rey ----------------
#NOTEDATA:;
#STEPSTYPE:dance-single;
#DESCRIPTION:B. M'Rey;
#CREDIT:B. M'Rey;
#DIFFICULTY:Medium;
#METER:5;
#RADARVALUES:0,0,0,0,0;
#NOTES:
0000
0000
0000
0000
,
0000
0000
0000
0000
,
0000
0000
0001
0100
,
0001
0000
0001
1000
,
0010
0000
0100
1000
,
0000
0100
0001
0000
,
0001
0000
0010
1000
,
0010
1000
0001
0100
,
0010
0100
0001
0100
,
0001
0010
0001
0010
,
0100
1000
0100
0000
,
0010
0000
0001
0000
,
0100
0000
0101
0000
,
0100
1000
0001
1000
,
0100
0010
0100
0000
,
0100
1000
0001
0010
,
0001
0010
0001
0000
,
0010
0100
0001
0000
,
0001
0000
0100
1000
,
0000
0100
0010
0100
,
0000
0010
0100
0000
,
0001
0000
1001
0000
,
0001
1000
0100
1000
,
0100
0010
0100
0000
,
0010
1000
0010
1000
,
0100
0010
0100
0000
,
0100
1000
0001
0000
,
0001
0000
0001
1000
,
0000
1000
0001
1000
,
0001
0000
0010
0100
,
0010
0100
0001
0000
,
0001
0010
0001
0000
,
0100
1000
0001
0000
,
0010
0001
1000
0010
,
0100
0000
0100
1000
,
0100
0010
0001
1000
,
0001
0000
0001
0100
,
0020
0000
0030
0000
,
0000
0000
0100
0000
,
0010
0000
0100
0000
,
0001
0000
1000
0000
,
0001
0010
0100
0000
,
0110
0110
0001
1000
,
0010
1000
0010
1000
,
0001
0010
0001
0010
,
0001
1000
0010
1000
,
0010
1000
1001
0010
,
0001
0010
0001
1000
,
0010
1000
0001
1000
,
0001
0010
0001
0000
,
0100
0000
0010
0000
,
1000
0000
0010
1000
,
0001
0000
0010
0100
,
0001
1000
0100
1000
,
0100
1000
0020
0100
,
0100
1000
1000
0001
,
0001
0100
0230
0000
,
0000
2300
3200
0000
,
0320
0000
0000
0032
,
0000
0000
0000
0000
,
0003
0000
0000
0000
;

//--------------- dance-single - B. M'Rey ----------------
#NOTEDATA:;
#STEPSTYPE:dance-single;
#DESCRIPTION:B. M'Rey;
#CREDIT:B. M'Rey;
#DIFFICULTY:Hard;
#METER:9;
#RADARVALUES:0,0,0,0,0;
#NOTES:
0000
0000
0000
0000
,
0000
0000
0000
0000
,
0000
0000
0000
0000
1000
0001
1000
0001
,
1000
0010
0000
0100
0000
0010
1000
0001
,
1000
0001
0000
0100
0000
0100
0010
0000
,
1000
0001
1000
0001
0000
0010
0100
0010
,
0100
0010
1000
0000
1001
0000
1000
0010
,
0000
0001
0100
0000
0110
0000
1000
0001
,
0000
0001
1000
0000
0110
0000
0100
0010
,
0000
0001
1000
0001
1000
0010
0100
0010
,
0100
0010
1000
0001
1001
0000
0110
0000
,
0010
0100
1000
0000
1001
0000
0101
0000
,
0100
0010
1000
0000
0110
0000
1000
0000
,
0010
0001
1000
0001
1000
0000
1000
0010
,
0100
0000
0100
0010
1000
0000
0001
0000
,
1000
0100
0010
0100
0000
1000
0000
0010
,
0000
0001
0100
0001
0100
0000
0010
0000
,
0010
0100
0010
0001
0100
0000
0100
0001
,
1000
0000
0000
0010
0000
0000
0010
0000
1000
0000
0001
0000
0010
0000
0000
0000
,
0010
0000
0001
0000
0100
0000
0010
0000
0100
0000
0000
0010
0000
0000
0001
0000
,
1000
0000
0100
0001
0100
0010
0100
0010
,
0000
0100
1000
0000
1010
0000
0100
0000
,
0100
0010
1000
0001
1000
0000
0010
0001
,
0010
0000
0010
0100
1000
0000
0001
0000
,
1000
0001
0010
0001
0000
0100
0000
0001
,
0000
0010
1000
0010
1000
0000
0010
0000
,
0010
0100
1000
0001
1000
0000
1000
0100
,
0010
0000
0000
0000
0010
0000
0001
0000
0010
0000
0000
1000
0000
0000
0001
0000
,
1000
0000
0100
0010
0100
0010
1000
0001
,
0000
0001
0011
0001
0011
0000
0010
0000
,
1000
0000
0001
0100
0001
0000
0100
0010
,
0100
0010
1000
0000
0100
0000
1000
0001
,
0010
0001
0000
0001
1000
0000
0100
0010
,
1000
0010
1000
0000
0001
0000
0010
0000
,
0001
0000
0100
0010
0100
0001
0000
1000
,
0000
0001
1000
0100
1000
0000
0010
0100
,
0010
0000
0001
0000
1000
0001
1000
0010
,
0000
0010
0100
0000
0100
0000
0010
0000
,
0001
1000
0010
0000
0001
0000
1000
0000
,
0001
0000
0100
1000
,
0100
0000
0100
0010
,
0001
0010
0001
0001
,
1001
0000
1001
0000
1000
0100
1000
0001
,
0100
0001
0100
0001
1000
0100
1000
0100
,
1000
0001
0100
0001
1000
0001
1000
0010
,
1000
0010
0100
0010
0100
0001
0000
1000
,
0000
0010
0000
0010
0100
0010
0100
0001
,
0100
0001
0000
0001
1000
0010
1000
0010
,
0100
0010
0000
0001
0100
0001
1000
0000
,
1000
0100
1000
0010
0000
0010
0100
0010
,
0000
0001
1000
0001
1000
0000
0010
0100
,
0010
0000
0001
0000
1000
0001
1000
0010
,
0100
0010
0000
0010
1000
0001
1000
0001
,
0010
0001
0100
0000
0010
0100
1000
0000
,
0010
0001
0000
0001
0010
0100
1000
0100
,
1000
0100
0010
0001
0010
0001
0100
0001
,
0100
0010
0100
0010
2002
0000
0000
0000
,
3023
2030
3002
0000
,
0203
0000
0000
0000
0320
0000
0000
0000
0000
0032
0000
0000
,
0000
0000
0000
0000
,
0003
0000
0000
0000
;
