#TITLE:エブリデイ・ラブリデイ;
#SUBTITLE:-L.E.D.STYLE MIX-;
#ARTIST:Togo-chef feat.Sana;
#TITLETRANSLIT:Everyday lovelyday;
#GENRE:HOUSE REMIX;
#CREDIT:B. M'Rey;
#MUSIC:Everyday lovelyday -L.E.D.STYLE MIX-.ogg;
#BANNER:Everyday lovelyday -L.E.D.STYLE MIX--BN.png;
#BACKGROUND:Everyday lovelyday -L.E.D.STYLE MIX--bg.png;
#CDTITLE:./CDTITLES/BEATMANIA IIDX.png;
#SAMPLESTART:60.740;
#SAMPLELENGTH:12;
#OFFSET:-0.073;
#BPMS:0=134;

//--------------- dance-single - B. M'Rey ----------------
#NOTES:
     dance-single:
     B. M'Rey:
     Challenge:
     7:
     0,0,0,0,0:
0000
0000
0000
0000
,
0000
0000
0000
0000
,
0000
0000
0000
0000
,
0000
0000
0000
0000
,
0010
0001
0100
0000
0001
1000
0100
0000
,
0010
0100
0010
0100
0010
0000
1001
0000
,
0010
0001
0100
0000
0001
0100
1000
0000
,
0010
1000
0010
0000
0001
0000
1010
0000
,
0010
0000
0001
0000
0100
0000
0001
0100
,
0001
0000
0100
0010
1000
0000
0010
0100
,
0010
0000
0001
0000
0010
1000
0001
0100
,
0000
0001
0000
1000
0000
1000
0100
0010
,
0001
0000
0010
0000
0100
1000
0001
0100
,
0010
0000
0000
0000
0100
0000
0010
0000
0001
0000
0000
0100
0000
0000
0010
0000
,
0001
0010
0100
0000
0010
1000
0010
1000
,
0100
0000
0000
0001
0000
0000
0100
0000
0010
0000
0000
0000
0001
0000
0100
0000
,
0001
0100
0010
1000
0000
1000
0100
0000
,
1001
0000
0100
0000
0010
1000
0001
1000
,
0100
0000
0100
1000
0000
0100
0001
1000
,
0001
0000
0100
0000
0010
1000
0100
1000
,
0000
0010
0000
0100
0000
0100
0010
1000
,
0001
0000
0010
0000
0001
0100
0010
1000
,
0001
0000
1000
0001
0000
0010
0100
0010
,
0001
0000
0000
0010
0000
0000
0100
0000
0010
0000
0000
0000
0100
0000
0010
0000
,
0100
1000
0010
1000
0000
0010
0100
0000
,
0001
0010
0100
1000
0100
1000
0100
0010
,
0001
0000
0001
1000
0100
1000
0001
0100
,
0010
0000
0001
0100
0010
1000
0100
0010
,
0001
0010
0001
1000
,
0100
0010
0100
1000
0001
0000
0100
1000
,
0001
0100
0010
0100
0010
0000
0001
0010
,
0100
0000
0100
1000
0001
0000
0100
1000
,
1001
0011
1100
0110
,
0002
0000
0010
0010
,
1003
0001
1000
0001
0010
0001
0000
0100
,
0010
0100
1000
0100
1000
0001
0000
0001
,
0010
0001
0010
0000
0010
0100
1000
0100
,
1000
0000
1000
0010
0110
0000
1001
0000
,
1000
0010
1000
0010
0100
0010
0100
0001
,
0010
0001
1000
0001
1000
0100
1000
0100
,
0010
0100
0010
0001
0100
0001
1000
0001
,
1000
0010
0000
0001
0000
0100
0000
0010
,
0100
0010
1000
0010
0100
0001
0000
0001
,
1000
0001
0100
0010
0100
0001
0000
0001
,
1000
0001
1000
0000
0100
0010
1000
0010
,
1000
0000
1000
0001
0101
0000
1100
0000
,
1000
0010
1000
0010
0100
0010
0100
0001
,
0100
0000
1000
0000
1000
0100
1000
0000
,
0010
0100
1000
0001
0010
0001
0010
0000
,
0100
0010
0100
0010
0100
0001
0000
0010
,
1000
0001
1000
0100
0010
0100
0010
0100
,
1000
0010
1000
0010
1000
0001
0010
0100
,
1000
0001
0100
0000
0001
0010
1000
0000
,
0010
0001
0100
1000
0010
0001
1000
0000
,
0100
0010
1000
0000
0010
0100
1000
0000
,
0010
0001
0100
1000
0010
0001
0100
0000
,
0001
1000
0010
0000
0100
0001
0010
0000
,
0100
0010
1000
0100
0001
1000
0010
0000
;
