#VERSION:0.83;
#TITLE:Dutton Ranch Freestyle;
#ARTIST:David Morris;
#GENRE:COUNTRY;
#MUSIC:Dutton Ranch Freestyle.ogg;
#BANNER:Dutton Ranch Freestyle-bn.png;
#BACKGROUND:Dutton Ranch Freestyle-bg.png;
#CDTITLE:./CDTITLES/Licensed Music.PNG;
#SAMPLESTART:1.484;
#SAMPLELENGTH:15;
#OFFSET:-0.228;
#BPMS:0=122;

//--------------- dance-single - B. M'Rey ----------------
#NOTEDATA:;
#STEPSTYPE:dance-single;
#DESCRIPTION:B. M'Rey;
#CREDIT:B. M'Rey;
#DIFFICULTY:Beginner;
#METER:3;
#RADARVALUES:0,0,0,0,0;
#NOTES:
0000
0000
0000
1000
,
0000
1000
0000
1000
,
0000
0000
0000
0001
,
0000
0001
0000
0001
,
0000
0000
0000
0100
,
0000
0010
0000
0100
,
0000
0000
0001
0000
,
1000
0000
0001
0000
,
0000
1001
0000
0001
,
0000
0001
0000
1000
,
1000
0000
0010
0000
,
0100
0000
0010
0100
,
0100
0000
0001
0000
,
0010
0000
0001
0000
,
1000
0000
0010
0000
,
0100
0100
0000
0001
,
0001
0000
1000
0000
,
0000
0010
0000
0100
,
0000
0001
0000
0000
,
0000
0100
0000
0010
,
0000
0000
1000
0000
,
0001
1000
0000
0000
,
0010
0100
0000
0001
,
0000
0010
0000
0001
,
1000
1000
0000
0010
,
0000
0000
0100
0000
,
0001
0000
0010
0000
,
1000
0000
0010
0000
,
0100
0000
0001
0000
,
0001
1001
0000
0000
,
0010
0110
0000
1000
,
0000
0100
0000
1000
,
0000
0001
0001
0000
,
0000
0100
0100
0000
,
0000
0010
0000
0010
,
0000
1000
1000
0000
,
0000
0001
0000
0000
,
0000
0100
0000
0000
,
0000
0001
0000
0000
,
0000
1000
1000
0001
,
0001
0001
0000
1000
,
0000
0000
0000
0010
,
0000
0100
0000
0001
,
0000
0010
0000
0001
,
0000
1000
0000
0000
,
0010
0100
0000
0001
,
0010
0000
1000
0000
,
0001
1001
0000
0010
,
0100
0000
0001
0000
,
0000
0000
1000
0000
,
0000
0000
0010
0100
,
0000
0000
0000
0001
,
0010
0000
0000
0000
,
1000
0000
0000
0000
,
0010
0000
0000
0000
,
0100
0000
0000
0001
,
0000
1000
0000
0010
,
0000
0000
0000
0100
,
0001
0000
0000
0010
,
0000
1000
0000
0001
,
0000
0000
0010
0000
,
0100
0000
0001
0000
,
0000
1000
0000
0001
,
0000
0010
0000
0000
,
0000
1001
0000
0000
,
0000
0000
0000
0000
,
0000
0010
0000
0100
,
0000
0001
0000
0010
,
0000
1001
0000
0000
,
0000
0000
0000
0000
,
0000
1000
0000
0010
,
0000
0100
0000
0001
;

//--------------- dance-single - B. M'Rey ----------------
#NOTEDATA:;
#STEPSTYPE:dance-single;
#DESCRIPTION:B. M'Rey;
#CREDIT:B. M'Rey;
#DIFFICULTY:Easy;
#METER:5;
#RADARVALUES:0,0,0,0,0;
#NOTES:
0000
0000
0000
1000
,
0000
0001
0000
0100
,
0000
0000
0010
0000
,
0001
0000
1000
0000
,
0000
0000
0010
0000
,
0100
0000
0001
0000
,
0010
0000
1000
0000
,
0001
0000
0010
0000
,
0000
1001
0000
0010
,
1000
0010
1000
0010
,
0100
0000
0100
0001
,
0100
0010
1000
0001
,
0010
0000
0010
0001
,
1000
0100
0010
0100
,
1000
0001
0100
0001
,
0100
0001
1000
0100
,
1000
0000
0000
0001
0000
0000
1000
0000
,
0000
0010
0000
0110
,
0000
0001
0000
1000
,
0000
0100
0000
0110
,
0000
0000
1000
0100
,
0001
1001
0001
0010
,
0100
0110
0000
1000
,
0000
0001
0000
0010
,
0001
0101
0000
0010
,
0000
1000
0000
0001
,
0000
0010
0000
0001
,
0000
0100
0010
1000
,
0100
0000
0001
0010
,
0001
1001
0000
0010
,
1000
1010
0000
0100
,
0001
1000
0000
0001
,
1000
0001
0002
0000
,
0013
0100
0020
0000
,
0130
1000
0000
0001
,
0000
1000
2000
0000
,
3010
0100
0010
0000
,
0001
0010
0001
0000
,
0100
0002
0000
0000
,
0000
1000
1000
1000
,
1003
0010
0100
0000
,
0000
0000
0000
0001
,
0010
0001
0000
1000
,
0000
0010
0000
0100
,
0000
0001
0000
1000
,
1000
0001
0000
0010
,
0100
0000
0001
0010
,
0001
0001
0000
1000
,
0000
0010
0000
0100
,
0001
0000
0100
0001
,
0010
0000
1000
0100
,
1000
0000
0000
0001
,
0010
0000
0100
1000
,
0010
0000
0001
0100
,
1000
0000
0010
0100
,
0001
1000
0001
0001
,
0001
0001
0000
1000
,
0100
0010
0001
0100
,
0000
0000
0001
1000
,
0010
0100
0001
1000
,
0000
0000
0010
1000
,
0100
0010
0001
0010
,
0000
1001
0000
0110
,
0000
0100
0001
0010
,
1000
1001
0000
0010
,
0000
0100
0000
0001
,
0000
0001
0000
1000
,
0000
0001
1000
0001
,
1000
1001
0000
0010
,
0000
0100
0000
0001
,
0000
1000
0010
1000
,
0010
0100
0001
0100
,
0001
0000
0000
0000
;

//--------------- dance-single - B. M'Rey ----------------
#NOTEDATA:;
#STEPSTYPE:dance-single;
#DESCRIPTION:B. M'Rey;
#CREDIT:B. M'Rey;
#DIFFICULTY:Medium;
#METER:8;
#RADARVALUES:0,0,0,0,0;
#NOTES:
0000
0000
0000
0000
0000
1000
0100
1000
,
0100
0000
0001
0010
0001
0000
0010
0000
,
0001
0000
0000
0000
0001
0010
0001
0000
,
0010
0000
0100
1000
0100
0000
0010
0000
,
0100
0000
0000
0001
0010
0001
0010
0000
,
1000
0100
1000
0100
,
0010
0000
0001
0010
0001
0000
1000
0100
,
1000
0010
0100
0001
,
0010
0000
1001
0000
0000
0000
0001
0010
,
0001
0000
0100
1000
0100
1000
0100
0010
,
0001
0000
0000
0000
0001
0010
0001
0000
,
1000
0100
1000
0000
0010
0100
0010
0001
,
0010
1000
0000
0000
0010
0100
0010
0000
,
0001
0010
0001
0000
1000
0100
1000
0100
,
0010
0000
0000
0001
0000
0000
0000
0000
0001
0000
0010
0000
0001
0000
0010
0000
,
0001
0000
1000
0100
1000
0000
0001
1000
,
0001
1000
0000
0001
0010
0000
1000
0000
,
0000
0010
0000
0100
,
0000
0000
0000
0000
0001
0000
0001
0000
0000
0000
0000
0000
1000
0000
0000
1000
,
0000
0000
0000
0000
0010
0000
0000
0010
0000
0000
0000
0000
0100
0000
0000
0100
,
0000
0000
0000
0000
0001
0010
0001
0010
,
1001
0000
1001
0000
0001
0010
0100
0010
,
0110
0000
0110
0000
0001
1000
0100
0000
,
1000
0100
1000
0000
0010
0000
0100
0010
,
0101
0101
0001
1000
,
0010
0000
0000
0100
0000
0000
0000
0000
0001
0000
0000
0000
0010
0000
0000
0000
,
0001
0000
0000
0100
0000
0000
0000
0000
0010
0000
0000
0000
1000
0000
0000
0000
,
0100
0000
0000
0010
0000
0000
0000
0000
0001
0000
0000
0000
1000
0000
0000
0000
,
0010
0000
0000
0100
0000
0000
0000
0000
0001
0000
0010
0000
0001
0000
0000
0000
,
1000
0100
1000
0000
0010
0100
0100
0000
,
0010
0001
0001
0000
0001
0010
1000
0000
,
0100
1000
0100
1000
0100
0010
0100
0001
,
0010
0000
0000
0000
0101
0000
0000
0000
0202
0000
0000
0000
0000
0000
0000
0303
,
0010
0000
1000
0000
1010
0000
0000
0000
2020
0000
0000
0000
0000
0000
0000
3030
,
0010
0000
0100
0000
0001
0010
1000
0000
,
0100
0000
0010
0000
1001
0000
0000
0000
2002
0000
0000
0000
0000
0000
0000
3003
,
0010
0100
0001
0000
0010
0000
0000
0000
,
1000
0100
1000
0010
0100
0000
0000
0000
,
0001
0000
1000
0000
0000
0001
0000
0000
,
1000
0001
0001
1000
,
1000
0000
0001
0010
0001
0000
1000
0100
,
1000
0000
0000
0001
,
0010
0000
0001
0010
0001
0000
1000
0100
,
1000
0000
0010
0100
0010
0000
0001
0000
,
0001
0000
0010
0000
0001
1000
0100
0000
,
0010
1000
1000
0000
0001
0010
0001
0000
,
0001
0001
0010
0000
0100
0010
1000
0000
,
0001
0000
1001
0000
0001
0010
0100
0000
,
0001
0000
1000
0100
,
1000
0000
0001
0010
,
0001
0000
0000
0000
0100
0010
1000
0000
,
0100
0000
0000
0000
0000
0001
0001
1000
,
1000
0000
0000
0100
0000
0000
0000
0000
0010
0000
0010
0000
0100
0000
0000
0000
,
0001
0000
0000
0000
0010
0010
0100
0100
,
0001
0000
0000
0000
1000
1000
0010
0000
,
0100
0001
0010
1001
,
1001
0000
1001
0000
0000
0001
0010
0001
,
0000
0000
1000
0100
1000
0000
0010
0000
,
0100
0000
0001
0000
0001
0010
0001
0000
,
1000
0100
1000
0000
0010
0000
0100
0000
,
0000
0000
0001
0000
1000
0001
1000
0000
,
0010
0100
0001
0010
,
0001
0101
0000
1010
,
0000
0001
0100
0010
,
1000
0100
0010
0000
0001
0010
0100
0000
,
0001
1000
0100
1000
,
0100
0000
0001
0010
0001
0000
1000
0100
,
1000
0110
0001
1010
,
0010
0000
0101
0000
0000
0010
0000
0000
,
1000
0100
0001
0010
,
0001
0000
1000
0100
1000
0000
0001
0010
,
0001
0000
0100
1000
0100
0000
0010
0100
,
0010
0000
0000
0000
;

//--------------- dance-single - B. M'Rey ----------------
#NOTEDATA:;
#STEPSTYPE:dance-single;
#DESCRIPTION:B. M'Rey;
#CREDIT:B. M'Rey;
#DIFFICULTY:Hard;
#METER:11;
#RADARVALUES:0,0,0,0,0;
#NOTES:
0000
0000
0000
0000
0000
0000
0000
0000
0000
0000
1000
0010
0100
0000
0001
0000
,
0010
0000
1000
0100
0001
0000
0010
0000
1000
0000
0100
0000
1000
0000
0000
0010
,
0000
0000
0100
0000
0001
0000
0000
0000
0100
0000
0001
0000
0010
0000
0000
1000
,
0000
0000
0001
0000
0010
0000
0000
0100
0000
0000
0001
0000
0010
0000
0000
0001
,
0000
0000
0000
1000
0100
1000
0010
0100
,
1000
0000
0100
0000
0001
0000
0000
0010
0000
0000
0001
0000
0010
0000
0000
0100
,
0000
0000
0000
0000
0001
0000
0000
0010
0000
0000
0000
0000
1000
0000
0000
0100
,
0000
0000
0010
0000
0001
0000
1000
0010
0000
0100
0001
0000
0010
0000
0100
1000
,
0000
0001
0100
0000
1000
0000
0000
0000
0100
0000
0000
0000
0001
0000
0010
0000
,
0001
0100
0010
1000
0100
1000
0100
0010
,
0001
0010
0000
0000
0001
0010
0100
1000
,
0100
1000
0100
0010
0100
0001
0010
0001
,
0010
0001
0000
0001
0010
1000
0100
1000
,
0100
1000
0100
0010
1000
0001
0100
0010
,
0001
0000
0000
1000
0000
0000
0001
0000
0010
0000
0100
0000
0001
0000
0010
0000
,
1001
0010
0100
0010
0110
0001
0010
0001
,
1000
0100
0000
0001
0020
0000
0130
2000
,
0000
0000
3001
0020
0000
0000
1031
1001
,
0000
0000
0001
0020
0000
0000
1030
0200
,
0000
0000
0310
0200
0000
0000
1301
1001
,
0000
0000
0001
0000
0001
0010
1000
0100
,
1001
0000
0000
0000
0101
0000
0000
0000
0001
0000
0010
0000
1000
0100
1000
0000
,
1000
0000
1010
0000
0001
0100
0101
0000
,
0001
0010
1010
0000
0110
0000
0001
0010
,
1000
0000
0100
0000
0001
0010
1000
0100
,
1000
0000
0000
0100
0000
0000
0000
0000
0001
1000
0010
0000
0100
0000
0001
0000
,
0100
0001
0000
0010
0000
0000
0000
0000
1000
0100
1000
0100
1000
0000
0010
0000
,
0100
0000
0000
0001
0000
0000
0000
0000
0001
1000
0010
0000
0001
0100
1000
0000
,
0100
0000
0010
0100
1000
0000
0001
0000
0100
0000
1000
0000
0010
0000
0100
0000
,
0001
0000
0100
0000
0001
0100
0000
0000
0010
0000
1000
0000
0200
0000
0000
0000
,
1300
0000
0100
0000
0010
1000
0000
0000
0001
0000
0100
0000
0010
0000
0100
0000
,
0001
0010
1001
1001
0101
0101
0110
1001
,
0110
0101
1010
0101
,
0010
0001
1001
0000
0110
0000
0110
0000
,
1000
0100
1000
0010
0100
0001
0010
0001
,
0010
0001
1001
0000
0101
0000
0010
0000
,
0001
0010
1001
0000
0101
0000
0010
0000
,
0001
0010
1000
0100
1001
0000
0010
0000
,
0001
0000
0000
0000
0202
0000
0000
0000
0000
0000
2323
0000
0000
0000
0000
3030
,
0110
0101
1010
0101
,
1010
0000
0000
0001
1000
0001
1000
0001
0010
0100
0010
0100
,
0010
0001
1000
0010
1000
0100
1000
0001
0100
0001
0100
0001
,
1000
0100
0010
0100
0010
0100
1000
0010
1000
0001
0010
0100
,
1000
0100
1000
0001
0100
0010
0100
0010
0100
0001
1000
0001
,
1000
0000
0001
0000
0010
0000
1000
0000
0000
0000
0000
0000
0001
0000
0000
0010
0000
0000
0100
0000
0000
0010
0000
0000
,
1000
0000
0010
0000
1000
0010
0000
0000
0001
0000
0010
0000
0001
0000
0010
0000
,
0001
1000
0000
0000
0001
0000
0100
0000
0010
0000
1000
0000
0001
0000
0100
0000
,
0001
0100
0000
0000
2020
0000
0000
0000
3031
0000
0010
0000
0100
0000
0010
0000
,
1000
0000
1000
0000
1000
0001
0100
0010
,
0001
1000
0001
0000
0001
0010
1000
0100
,
1000
0100
0000
0000
0010
1000
0100
0010
,
0001
0000
1000
0000
0000
0010
0100
0001
,
1000
0000
0000
0100
0000
0000
0000
0000
0010
0000
0001
0000
0010
0000
1000
0000
,
0100
0000
0000
1000
0000
0000
0000
0000
0001
0000
0010
0000
0100
0000
0001
0000
,
0010
0000
0000
0001
0000
0000
0000
0000
0001
0000
1000
0000
0100
0000
0010
0000
,
1000
0001
0101
0101
1010
0010
0110
0000
,
0101
0000
0000
0000
1010
0000
0000
0000
0000
0000
0001
0010
0001
0000
0001
0000
,
1000
0000
0100
1000
0100
0000
1000
0000
0010
0000
0100
0000
0010
0000
0000
0001
,
0000
0000
0010
0000
0001
0000
0000
0000
0001
1000
0001
0000
1000
0000
0000
0010
,
0000
0000
0100
0000
0010
0000
0000
0100
0000
0000
0001
0000
0001
0000
0100
0001
,
0000
0000
0010
1000
0100
1000
0100
0010
,
1000
0000
0010
0000
1000
0010
0000
0001
1000
0000
0100
0000
0010
0000
0000
0001
,
0000
0000
0000
0000
0001
0100
0000
0010
0001
0000
0000
0000
0010
0000
1000
0100
,
0000
0000
0010
0000
0100
0000
0001
0010
0000
0001
0010
0000
1000
0000
0100
1000
,
0000
0100
0010
0000
0001
0000
0000
0000
0001
0000
0010
0000
0100
0000
0000
0000
,
0001
0000
1000
0000
0100
0010
1000
0100
,
1000
0000
0010
0000
0001
0000
0001
0010
0000
0000
1000
0000
0100
0000
1000
0100
,
0000
0000
0010
0000
0100
0000
0001
0100
0000
0001
0100
0000
0010
0000
1000
0010
,
0000
1000
0010
0000
0100
0000
0000
0000
0010
0000
0001
0000
0010
0000
0000
0000
,
0001
0000
1000
0100
0010
1000
0000
0001
,
0100
0000
0010
0000
0001
0000
0000
0100
0000
0000
0010
0000
1000
0000
0000
0000
,
0100
0000
0001
0000
0010
0000
0000
1000
0000
0000
0100
0000
0001
0000
0000
0010
,
0000
0100
0001
0000
0000
0000
0000
0000
;
