#VERSION:0.83;
#TITLE:Drunk (And I Don't Wanna Go Home);
#ARTIST:Elle King, Miranda Lambert;
#GENRE:COUNTRY;
#MUSIC:Drunk (And I Don't Wanna Go Home).ogg;
#BANNER:Drunk (And I Don't Wanna Go Home)-bn.png;
#BACKGROUND:Drunk (And I Don't Wanna Go Home)-bg.png;
#CDTITLE:./CDTITLES/COUNTRY MUSIC.PNG;
#SAMPLESTART:107.056;
#SAMPLELENGTH:15;
#OFFSET:-0.056;
#BPMS:0=120,72=60,76=120;

//--------------- dance-single - B. M'Rey ----------------
#NOTEDATA:;
#STEPSTYPE:dance-single;
#DESCRIPTION:B. M'Rey;
#CREDIT:B. M'Rey;
#DIFFICULTY:Beginner;
#METER:2;
#RADARVALUES:0,0,0,0,0;
#NOTES:
0000
0000
0000
0000
,
0000
0000
0000
0000
,
0000
0000
0000
0000
,
0000
0000
0000
0000
,
1000
0000
0010
0000
,
0100
0000
0001
0000
,
0010
0000
0001
0000
,
1000
0000
0010
0000
,
0110
0000
0000
0000
,
0000
0000
0000
0000
,
0011
0000
0000
0000
,
0000
0000
0000
0200
,
0000
0000
0000
0000
0000
0300
0010
0000
,
0001
0000
0010
0000
,
1000
0000
0000
0000
,
0000
0000
0100
0020
,
0000
0000
0000
0000
0000
0030
0010
0000
,
1000
0000
0100
0000
,
0002
0000
0000
0003
0000
0000
0000
0000
,
1000
0000
0010
0000
,
0100
0000
0010
0000
,
0001
0000
1000
0001
,
1001
0000
0010
0000
,
0100
0000
0010
0000
,
1000
0000
0001
0000
,
0010
0000
0100
0001
,
0101
0000
0000
0010
,
0000
0000
0000
0000
,
0000
0000
0000
0000
,
1000
0000
0010
0000
,
0100
0000
0001
0000
,
0010
0000
0100
0000
,
0010
0000
1000
0000
,
0011
0000
0000
0000
,
0000
0000
0000
0000
,
1100
0000
0000
0000
,
0000
0000
0000
0000
,
0010
0000
0100
0000
,
0010
0000
0001
0000
,
1000
0000
0010
0000
,
0100
0000
0001
0000
,
0110
0000
0000
0000
,
0000
0000
0000
0000
,
1001
0000
0000
0000
,
0000
0000
0000
0200
,
0000
0000
0000
0000
0000
0300
0010
0000
,
0001
0000
0010
0000
,
1000
0000
0000
0000
,
0000
0000
0100
0020
,
0000
0000
0000
0000
0000
0030
0010
0000
,
1000
0000
0100
0000
,
0002
0000
0000
0000
,
1003
0000
0000
0000
,
1000
0000
0010
0000
,
0100
0000
0010
0000
,
0001
0000
1000
0001
,
1001
0000
0010
0000
,
0100
0000
0010
0000
,
1000
0000
0001
0000
,
0010
0000
0100
0001
,
0101
0000
0010
0000
,
1000
0000
0200
0000
,
0000
0300
0001
0000
,
0010
0000
2000
0000
,
0000
3000
0001
0000
,
0100
0000
0010
0000
,
1000
0000
0100
0000
,
0010
0000
0100
0001
,
0110
0000
0000
1000
,
0020
0000
0000
0000
,
0000
0030
0000
0000
0000
0000
0000
0000
0000
0000
0000
0000
0000
0000
0000
0000
0100
0000
0000
0000
0000
0000
0000
0000
0000
0000
0000
0000
0000
0000
0000
0000
0001
0000
0000
0000
0000
0000
0000
0000
0000
0000
0000
0000
0000
0000
0000
0000
0000
0000
0000
0000
0000
0000
0000
0000
0000
0000
0000
0000
0000
0000
0000
0000
,
2000
0000
0000
0000
,
0000
0000
0000
0000
0000
3000
0000
0000
0000
0000
0000
0000
0000
0000
0000
0000
0000
0000
0000
0000
0000
0000
0000
0000
0000
0000
0000
0000
0000
0000
0000
0000
0000
0000
0000
0000
0000
0000
0000
0000
0000
0000
0000
0000
0000
0000
0000
0000
0000
0000
0000
0000
0000
0000
0000
0000
0000
0000
0000
0000
0000
0000
0000
0000
0000
0000
0000
0000
0000
0000
0000
0000
0000
0000
0000
0000
0000
0000
0000
0000
0000
0000
0000
0000
0000
0000
0000
0000
0000
0000
0000
0000
0000
0000
0000
0000
0100
0000
0000
0000
0000
0000
0000
0000
0000
0000
0000
0000
0000
0000
0000
0000
0000
0000
0000
0000
0000
0000
0000
0000
0000
0000
0000
0000
0000
0000
0000
0000
0000
0000
0000
0000
0000
0000
0000
0000
0000
0000
0000
0000
0000
0000
0000
0000
0000
0000
0000
0000
0000
0000
0000
0000
0000
0000
0000
0000
0000
0000
0000
0000
0000
0000
0000
0000
0000
0000
0000
0000
0000
0000
0000
0000
0000
0000
0000
0000
0000
0000
0000
0000
0000
0000
0000
0000
0000
0000
0000
0000
0000
0000
0000
0000
,
0020
0000
0000
0000
0000
0000
0000
0000
0000
0000
0000
0000
0000
0000
0000
0000
0000
0000
0000
0000
0000
0000
0000
0000
0000
0000
0000
0000
0000
0000
0000
0000
0000
0000
0000
0000
0000
0000
0000
0000
0000
0000
0000
0000
0000
0000
0000
0000
0000
0000
0000
0000
0000
0000
0000
0000
0000
0000
0000
0000
0000
0000
0000
0000
0000
0000
0000
0000
0000
0000
0000
0000
0000
0000
0000
0000
0000
0000
0000
0000
0000
0000
0000
0000
0000
0000
0000
0000
0000
0000
0000
0000
0000
0000
0000
0030
,
0000
0001
1000
0000
,
0200
0000
0000
0000
,
0300
0000
0010
0000
;

//--------------- dance-single - B. M'Rey ----------------
#NOTEDATA:;
#STEPSTYPE:dance-single;
#DESCRIPTION:B. M'Rey;
#CREDIT:B. M'Rey;
#DIFFICULTY:Easy;
#METER:5;
#RADARVALUES:0,0,0,0,0;
#NOTES:
0000
0000
0000
0000
,
0000
0000
0000
0000
,
0000
0000
0000
0000
,
0000
0000
0000
0000
,
1000
0000
0010
0000
,
0100
0000
0001
0000
,
0010
0000
0001
0000
,
0010
0000
1000
0000
,
0010
0000
0010
0000
0020
0000
0000
0030
,
0100
0100
0100
1001
,
0001
0000
0001
0000
0002
0000
0000
0003
,
1000
0000
1000
0000
1000
0000
0000
0020
,
0000
0000
0000
0000
0030
0001
0000
0100
,
0000
0001
0000
1000
0000
0010
0000
0100
,
0000
0002
0000
0000
0003
0000
0000
0000
,
1000
0000
0100
0002
,
0000
0000
0000
0000
0003
1000
0000
0010
,
0000
0100
0000
0001
0000
1000
0000
0002
,
0000
0000
0003
1000
,
1000
0001
1000
0010
,
0100
0010
0100
0001
,
0010
0001
0010
0100
,
1100
0000
1000
0001
,
0010
0001
0010
0100
,
1000
0100
1000
0001
,
0100
0001
0100
0010
,
1010
0000
1000
0001
,
0100
0000
0000
0000
,
0010
0000
0000
0000
,
1000
0001
1000
0001
,
0100
0010
0100
0010
,
1000
0001
1000
0001
,
0010
0100
0010
0100
,
0010
0000
0010
0000
0020
0000
0000
0030
,
0100
0100
0100
1001
,
0001
0000
0001
0000
0002
0000
0000
0003
,
1000
1000
1000
0000
,
1000
0001
0010
0100
,
0010
0001
1000
0001
,
1000
0010
0100
0010
,
0100
0001
0010
0001
,
0100
0000
0100
0000
0200
0000
0000
0300
,
0010
0010
0010
1001
,
1000
0000
1000
0000
2000
0000
0000
3000
,
0001
0000
0001
0000
0001
0000
0000
0020
,
0000
0000
0000
0000
0030
0001
0000
0100
,
0000
0001
0000
1000
0000
0010
0000
0100
,
0000
0002
0000
0000
0003
0000
0010
0000
,
1000
0001
0100
0002
,
0000
0000
0000
0000
0003
1000
0000
0010
,
0000
0100
0000
0001
0000
1000
0000
0002
,
0000
0000
0000
0000
,
1003
0000
0010
0100
,
1000
0001
1000
0010
,
0100
0010
0100
0001
,
0010
0001
0010
0100
,
1100
0000
1000
0001
,
0010
0001
0010
0100
,
1000
0100
1000
0001
,
0100
0001
0100
0010
,
1010
0000
1000
0001
,
0100
0010
0100
0020
,
0000
0030
0001
1000
,
0010
0100
0001
2000
,
0000
3000
1000
0001
,
0100
0001
0100
0010
,
1000
0010
1000
0001
,
0010
0001
0010
0100
,
1100
0000
1000
0001
,
0020
0000
0000
0000
,
1030
0010
0001
0100
,
0002
0000
0000
0000
,
1003
0010
0100
0000
,
0200
0000
0000
0000
,
0310
1000
0001
0010
,
2000
0000
0000
0000
,
3010
0100
0001
0000
;

//--------------- dance-single - B. M'Rey ----------------
#NOTEDATA:;
#STEPSTYPE:dance-single;
#DESCRIPTION:B. M'Rey;
#CREDIT:B. M'Rey;
#DIFFICULTY:Medium;
#METER:8;
#RADARVALUES:0,0,0,0,0;
#NOTES:
0000
0000
0000
0000
,
0000
0000
0000
0000
,
0000
0000
0000
0000
,
0000
0000
0000
0000
,
1000
0000
0010
0100
0010
0000
0001
0000
,
0010
0100
0010
0000
1000
0000
0001
0000
,
0100
0001
0100
0000
0010
0000
1000
0000
,
0001
1000
0001
0000
0010
0000
0100
0010
,
1000
0000
0000
0001
0000
0000
1000
0000
0000
0000
0020
0000
0000
0000
0130
0000
,
0010
0000
0000
1000
0000
0000
0001
0000
0000
0000
0100
0000
0000
0000
0001
0000
,
0100
0000
0000
1000
0000
0000
0001
0000
0000
0000
0200
0000
0000
0000
0310
0000
,
0100
0000
0000
0001
0000
0000
1000
0000
0000
0000
0000
0000
0100
0000
0020
0000
,
0000
0000
0000
0000
0030
0100
0010
0100
,
0000
1000
0000
0001
0000
0010
0000
0100
,
0000
0020
0000
0000
0030
0000
0100
0000
,
1000
0000
0100
0000
0001
0000
0010
0200
,
0000
0000
0000
0000
0300
1000
0010
1000
,
0000
0010
0000
0100
0000
0001
0000
0020
,
0000
0000
0000
0000
0030
1000
0001
0010
,
1000
0010
1000
0000
0010
0000
0100
0000
,
0001
0100
0010
0000
1000
0000
0010
0000
,
0100
0001
0010
0000
1000
0000
0110
0000
,
0110
0000
0001
0010
,
1000
0100
1000
0000
0010
0000
0001
0000
,
0100
0001
0100
0000
0010
0000
1000
0000
,
0010
0100
0010
0000
1000
0000
1001
0000
,
1001
0010
0100
0001
,
0011
0000
0000
1100
0000
0110
0000
0000
,
1010
0000
0000
0011
0000
1010
0000
0000
,
1000
0010
0001
0000
1000
0001
0100
0000
,
0010
1000
0001
0000
0110
0000
0001
0010
,
0100
0000
0010
1000
0100
0000
0001
0100
,
0010
0000
0001
0100
0010
0000
0100
0000
,
1000
0000
0000
0001
0000
0000
1000
0000
0000
0000
0020
0000
0000
0000
0130
0000
,
0010
0000
0000
1000
0000
0000
0001
0000
0000
0000
0100
0000
0000
0000
0001
0000
,
0100
0000
0000
1000
0000
0000
0001
0000
0000
0000
0200
0000
0000
0000
0310
0000
,
0100
0000
0000
0001
0000
0000
1000
0000
0000
0000
0001
0000
0010
0000
0001
0000
,
0100
0000
1000
0100
1000
0000
0010
0000
,
0100
0010
0100
0000
1001
0000
0001
0100
,
0010
0000
0100
0000
0010
0100
0010
0000
,
1000
0000
0100
1000
0100
0000
0001
0100
,
0001
0000
0000
1000
0000
0000
0001
0000
0000
0000
0200
0000
0000
0000
0310
0000
,
0100
0000
0000
0001
0000
0000
1000
0000
0000
0000
0010
0000
0000
0000
1000
0000
,
0010
0000
0000
0001
0000
0000
1000
0000
0000
0000
0020
0000
0000
0000
0130
0000
,
0010
0000
0000
1000
0000
0000
0001
0000
0000
0000
0000
0000
0010
0000
0200
0000
,
0000
0000
0000
0000
0300
0010
0100
0010
,
0000
0001
0000
1000
0000
0100
0000
0010
,
0000
0200
0000
0000
0300
0000
0010
0000
,
0001
0000
0010
0000
1000
0000
0100
0020
,
0000
0000
0000
0000
0030
0001
0100
0001
,
0000
0100
0000
0010
0000
1000
0000
0200
,
0000
0000
0020
0000
,
0330
0000
0001
0010
,
1000
0010
1000
0000
0010
0000
0100
0000
,
0001
0100
0010
0000
1000
0000
0010
0000
,
0100
0001
0010
0000
1000
0000
0110
0000
,
0110
0000
0001
0010
,
1000
0100
1000
0000
0010
0000
0001
0000
,
0100
0001
0100
0000
0010
0000
1000
0000
,
0010
0100
0010
0000
1000
0000
1001
0000
,
1001
0000
0010
0000
0100
0001
0100
0000
,
0010
1000
0010
1000
1010
0000
2020
0000
,
0000
3030
0000
0000
0100
0000
0001
0000
,
0100
0001
0100
0001
0101
0000
0202
0000
,
0000
0303
0001
0010
,
1000
0100
1000
0000
0010
0000
0001
0000
,
0100
0001
0100
0000
0010
0000
1000
0000
,
0010
0100
0010
0000
1000
0000
1001
0000
,
1001
0010
0100
0001
,
2002
0000
0000
0000
0000
0000
0000
3003
,
0001
0010
0000
0001
0100
0000
0100
0000
,
2002
0000
0000
0000
0000
0000
0000
3003
,
1000
0001
0110
0000
,
0220
0000
0000
0000
0000
0000
0000
0000
0000
0000
0000
0330
,
0010
1000
0000
1000
0010
0000
0010
0000
,
0220
0000
0000
0000
0000
0000
0000
0330
,
1000
0010
1001
0000
;

//--------------- dance-single - B. M'Rey ----------------
#NOTEDATA:;
#STEPSTYPE:dance-single;
#DESCRIPTION:B. M'Rey;
#CREDIT:B. M'Rey;
#DIFFICULTY:Hard;
#METER:11;
#RADARVALUES:0,0,0,0,0;
#NOTES:
0000
0000
0000
0000
,
0000
0000
0000
0000
,
0000
0000
0000
0000
,
0000
0000
0000
0000
0000
1000
0100
1000
,
0001
0100
0001
0100
0010
1000
0010
1000
,
0001
0100
0001
0100
0020
0030
0001
0100
,
0001
0100
0010
1000
0001
1000
0010
0100
,
0001
0100
0001
0010
0200
0300
0100
1000
,
1001
0000
0000
0110
0000
0000
0110
0000
0000
0000
2002
0000
0000
0000
3003
0000
,
0110
0000
0000
0101
0000
0000
0101
0000
0000
0000
0010
0000
0100
0010
0100
0000
,
1100
0000
0000
1010
0000
0000
1010
0000
0000
0000
0022
0000
0000
0000
0033
0000
,
1100
0000
0000
1001
0000
0000
1001
0000
0000
0000
0000
0000
0100
0000
0002
0000
,
0000
0000
0000
0000
0013
0001
1000
1000
,
0000
0001
0000
0100
0000
0001
0000
0100
,
0000
0010
0000
0001
0010
0000
0100
0000
,
0001
0000
1000
0000
1000
0100
1000
0200
,
0000
0000
0000
0000
0300
0100
0001
1000
,
0000
0001
0000
1000
0000
0001
0000
0200
,
0000
0000
0000
0000
0000
0000
0000
0000
0300
0000
0000
0001
0010
0001
1000
0100
,
0010
0001
0200
0000
1300
0010
1000
0010
,
0100
0001
2000
0000
3010
0100
0010
0200
,
0000
0310
1000
0010
0100
0001
0110
0000
,
1010
0000
0100
0000
1000
0100
0010
0100
,
0010
0001
0200
0000
0301
0010
1000
0002
,
0000
0003
0001
0000
2000
0000
0000
3000
1000
0000
0001
0000
0010
0000
0002
0000
,
0000
0103
1000
0100
1000
0001
0101
0000
,
0110
0000
1000
0000
0100
0000
0010
0100
,
0010
0000
0000
0001
0000
0000
1000
0000
0000
0000
0010
0000
0000
0000
0100
0000
,
0010
0000
0000
1000
0000
0000
0001
0000
0000
0000
1000
0000
0001
0000
1000
0000
,
0001
0100
0010
0100
0010
1000
0001
1000
,
0001
0010
0100
0010
0200
0000
0301
1000
,
0100
0010
0001
0010
0001
1000
0010
1000
,
0010
0100
0001
0010
0002
0000
0013
0100
,
1010
0000
0000
1100
0000
0000
1100
0000
0000
0000
0022
0000
0000
0000
0033
0000
,
0101
0000
0000
0110
0000
0000
0110
0000
0000
0000
1000
0000
0001
1000
0001
0000
,
0011
0000
0000
0110
0000
0000
0110
0000
0000
0000
2002
0000
0000
0000
3003
0000
,
0011
0000
0000
0110
0000
0000
0110
0000
0000
0000
1000
0000
0001
0000
1000
0000
,
0001
0100
0010
0100
0010
1000
0001
0010
,
0001
0010
0100
1000
0100
0000
0010
0100
,
0010
1000
0100
0010
0100
1000
0010
1000
,
0010
0000
0100
0000
0001
0000
1000
0000
0010
0000
0000
0000
0001
1000
0001
0000
,
0011
0000
0000
1100
0000
0000
1100
0000
0000
0000
2002
0000
0000
0000
3003
0000
,
0101
0000
0000
1010
0000
0000
1010
0000
0000
0000
0010
0000
0001
0010
0001
0000
,
1001
0000
0000
1010
0000
0000
1010
0000
0000
0000
0202
0000
0000
0000
0303
0000
,
1001
0000
0000
1100
0000
0000
1100
0000
0000
0000
0010
0000
0100
0000
0002
0000
,
0000
0000
0000
0000
0013
0001
1000
1000
,
0000
0001
0000
0100
0000
0001
0000
0100
,
0000
0010
0000
0001
0010
0000
0100
0010
,
0001
0000
1000
0000
1000
0100
1000
0200
,
0000
0000
0000
0000
0300
0100
0001
1000
,
0000
0001
0000
1000
0000
0001
0000
0200
,
0020
0000
0302
0000
,
1033
0000
0100
0000
0010
0001
0010
0100
,
0100
1000
0020
0000
0031
0100
0001
0100
,
0010
1000
0002
0000
0103
0010
0100
0020
,
0000
0130
0001
0100
0010
1000
0110
0000
,
0101
0000
0010
0000
0001
0010
0100
0010
,
0100
1000
0020
0000
1030
0100
0001
2000
,
0000
3000
1000
0000
0002
0000
0000
0003
0001
0000
1000
0000
0100
0000
2000
0000
,
0000
3010
0001
0010
0001
1000
1010
0000
,
0110
0000
0001
0000
1000
0001
0100
0010
,
1000
0010
1000
0100
0110
0000
0220
0000
,
0000
0330
0000
0010
1000
0010
1000
0100
,
0010
0100
0010
0001
1010
0000
2020
0000
,
0000
3030
0100
0010
1000
0100
0010
0100
,
0010
0001
0200
0000
0301
0010
1000
0020
,
0000
0030
0010
0000
0200
0000
0000
0300
0100
0000
0001
0000
0010
0000
0002
0000
,
0000
0103
1000
0100
1000
0001
0101
0000
,
0110
0000
1000
0000
0100
0001
0010
0000
,
2000
0001
0001
0001
,
3001
0010
1000
0001
0100
0001
0100
0000
,
0002
1000
1000
1000
,
1003
0001
1000
0001
0110
0000
0110
0000
,
2000
0001
0001
0001
,
3001
1000
0001
1000
0010
0100
0010
0000
,
0002
1000
1000
1000
,
1003
0001
0010
0001
0110
0000
0110
0000
;
