#VERSION:0.83;
#TITLE:Dr. M;
#ARTIST:BanYa;
#GENRE:TECHNO CLASSICS;
#MUSIC:Dr. M.ogg;
#BANNER:Dr. M.png;
#BACKGROUND:Dr. M-bg.png;
#CDTITLE:./CDTITLES/PUMP IT UP Rebirth.png;
#SAMPLESTART:6.442;
#SAMPLELENGTH:15;
#OFFSET:-0.028;
#BPMS:0=145;

//--------------- dance-single - B. M'Rey ----------------
#NOTEDATA:;
#STEPSTYPE:dance-single;
#DESCRIPTION:B. M'Rey;
#CREDIT:B. M'Rey;
#DIFFICULTY:Beginner;
#METER:3;
#RADARVALUES:0,0,0,0,0;
#NOTES:
0000
0000
0000
0000
,
0000
0000
0000
0000
,
0000
0000
0000
0000
,
0000
0000
0000
0000
,
1000
0000
0001
0000
,
0010
0000
0100
0000
,
0001
0000
1000
0000
,
0010
0000
0100
0000
,
0001
0000
0000
0000
,
1000
0000
0000
0000
,
0010
0000
0100
0000
,
0010
0000
0100
0000
,
0010
0000
0100
0010
,
0110
0000
0001
0000
,
1000
0000
0010
0000
,
0100
0000
0001
0000
,
0010
0000
0001
0000
,
0100
0000
0010
0000
,
1000
0000
0001
0000
,
0010
0000
0001
0000
,
0100
0000
0000
0000
,
0010
0000
1000
0000
,
1001
0000
0000
0000
,
0100
0000
0000
0000
,
0010
0000
0000
0000
,
0000
0000
0000
0000
,
0001
0000
1000
0000
,
0010
0000
0100
0000
,
0001
0000
0010
0000
,
0001
0000
1000
0000
,
0010
0000
0000
0000
,
0100
0000
0000
0000
,
0001
0000
0000
0000
,
1000
0000
0000
0000
,
0100
0000
0010
0000
,
1000
0000
0000
0000
,
0001
0000
0100
0000
,
0010
0000
0000
0000
,
1000
0000
0000
0000
,
0100
0000
0001
0000
,
0100
0000
0010
0000
,
1000
0000
0000
0000
,
1001
0000
0000
0000
,
0010
0000
0000
0000
,
0100
0000
0000
0000
,
0001
0000
0000
0000
,
1000
0000
0001
0000
,
0100
0000
0000
0000
,
0010
0000
0100
0000
,
0001
0000
1000
0000
,
0010
0000
0100
0000
,
0001
0000
1000
0000
,
0010
0000
0100
0000
,
0001
0000
0010
0000
,
1000
0000
0000
0000
,
0001
0000
0000
0000
,
0100
0000
0010
0000
,
0100
0000
0000
0000
,
0110
0000
0000
0000
;

//--------------- dance-single - B. M'Rey ----------------
#NOTEDATA:;
#STEPSTYPE:dance-single;
#DESCRIPTION:B. M'Rey;
#CREDIT:B. M'Rey;
#DIFFICULTY:Easy;
#METER:5;
#RADARVALUES:0,0,0,0,0;
#NOTES:
0000
0000
0000
0000
,
0000
0000
0000
0000
,
0000
1001
0000
1001
,
0000
1001
0000
0000
,
0001
0000
0100
0000
,
1000
0010
0100
0000
,
0001
0000
0010
0000
,
0100
0010
0100
0000
,
1000
0100
0010
0000
,
0001
0010
0100
0000
,
1000
0000
0010
0000
,
0100
0001
1000
0000
,
0001
0000
1000
0001
,
1001
0000
0010
0100
,
0010
0000
1000
0100
,
1000
0000
0001
0010
,
0001
0000
0100
0010
,
1000
0000
0010
0000
,
0100
0000
0001
0000
,
0010
0000
0001
0000
,
0100
0000
0000
0001
,
1000
1000
0001
0000
,
0010
0000
0100
0000
,
0001
0000
1000
0000
,
0020
0000
0000
0000
,
0000
0000
0030
0000
,
0001
0000
1000
0000
,
0001
1000
0001
0000
,
0100
0000
0010
0000
,
0010
0100
0010
0000
,
1000
0001
1000
0001
,
1000
0100
0010
0100
,
0010
0100
1000
0010
,
0100
0010
0100
0000
,
0001
0000
1000
0000
,
0010
0000
0100
0000
,
0010
0000
0001
0000
,
1000
0010
0000
0100
,
0001
0000
0010
0000
,
0100
0000
1000
0000
,
0001
0000
0100
0000
,
0010
0000
1000
0000
,
0001
1000
0001
0000
,
0010
0100
0010
0000
,
1000
0100
1000
0000
,
0001
0010
0001
0000
,
0100
0000
0010
0000
,
1000
0100
1000
0000
,
0001
0000
0010
0000
,
0001
0010
0001
0000
,
0100
0000
0010
0000
,
1000
0010
1000
0000
,
0001
0000
0100
0000
,
0001
0100
0001
0000
,
0010
0100
0010
0000
,
0100
0010
0100
0000
,
0110
0000
1100
0000
,
0101
0000
0000
0000
,
1001
0000
0000
0000
;

//--------------- dance-single - B. M'Rey ----------------
#NOTEDATA:;
#STEPSTYPE:dance-single;
#DESCRIPTION:B. M'Rey;
#CREDIT:B. M'Rey;
#DIFFICULTY:Medium;
#METER:9;
#RADARVALUES:0,0,0,0,0;
#NOTES:
0000
0000
0000
0000
,
0000
0000
0000
0000
,
0000
0001
0000
1000
,
0000
0000
0001
0000
1000
0000
0000
0001
,
0010
0000
0100
0000
0010
1000
0000
0000
,
0001
0000
1000
0000
0001
0000
0000
0001
,
0010
0000
0100
0000
0010
1000
0000
0000
,
1000
0000
0100
0000
1000
0000
0000
0010
,
0001
0010
0001
0000
0010
0000
0000
1000
,
0100
1000
0100
0000
0010
0000
0100
0000
,
1001
0000
0110
0000
,
0101
0010
1010
0010
,
0101
0010
1001
0110
,
0101
0000
0000
0010
0001
0000
0010
0000
,
1000
0001
0000
0000
0010
0000
0100
1000
,
0001
0000
0000
1000
0010
0000
0100
0000
,
0010
0100
0000
0000
0001
0000
1000
0000
,
0001
1000
0001
0000
0010
0100
0010
0000
,
0001
0010
0001
0000
1000
0100
1000
0000
,
0010
0100
0010
0000
0001
0010
0001
0000
,
1000
0000
0010
0000
0100
0000
0001
0010
,
0001
0010
1000
0100
,
1001
0000
0001
0010
0001
0000
1000
0000
,
0010
0000
1000
0100
1000
0000
0010
0000
,
0100
0010
0100
0010
,
0001
0000
1000
0000
1001
0000
0000
0010
,
0001
0000
1000
0000
0010
0001
0000
0000
,
0100
0000
0010
0000
1000
0000
0000
0001
,
0100
0000
0010
0000
0001
1000
0000
0000
,
0010
0100
1000
0000
,
0100
0010
0100
0010
0100
0001
1000
0100
,
1000
0100
1000
0001
0010
0001
0010
0001
,
0100
0010
1000
0001
0100
0010
0100
0010
,
0100
0001
0010
0100
0010
0000
0000
0000
,
0100
0010
1000
0100
,
1000
0000
0000
0010
,
0100
0010
0100
0001
,
1000
0010
0000
0010
,
0100
0000
0100
0001
,
1000
0000
1000
0010
,
1000
0000
0100
0000
,
1000
0000
0010
0000
,
0010
0000
0001
0000
0001
1000
0001
0000
,
0010
0000
0100
0000
0010
0100
0010
0000
,
1000
0000
0100
0000
0010
0100
0010
0000
,
0001
0000
0100
0000
0001
0100
0001
0000
,
1000
0010
1000
0000
0100
0010
0100
0000
,
0001
0010
1000
0010
,
0100
0010
0100
0000
0001
0100
0001
0000
,
0010
0000
1000
0000
1001
0000
0000
0001
,
0010
0000
1000
0000
0010
0100
0000
0000
,
0001
0000
0010
0000
1000
0000
0000
1000
,
0100
0000
0010
0000
0001
0100
0000
0000
,
0010
0000
1000
0000
0010
0000
0000
0100
,
0010
0000
0001
0000
1000
0001
0000
0010
,
0100
0000
0001
0000
1000
0001
1000
0000
,
0011
0000
1100
0000
,
0100
0010
0100
0010
0100
0010
0100
0000
,
0110
0000
0000
0000
;

//--------------- dance-single - B. M'Rey ----------------
#NOTEDATA:;
#STEPSTYPE:dance-single;
#DESCRIPTION:B. M'Rey;
#CREDIT:B. M'Rey;
#DIFFICULTY:Hard;
#METER:15;
#RADARVALUES:0,0,0,0,0;
#NOTES:
0000
0000
0000
0000
,
0000
0000
0000
0000
,
0010
0100
0010
1000
,
0001
0000
0000
0000
1000
0000
0000
0000
0101
0000
0000
0000
0000
0000
0001
1000
,
0010
0000
0010
1000
0001
0000
0001
1000
0001
0000
0010
0000
0000
0000
0010
0100
,
0001
0000
0001
1000
0001
0000
0100
0010
0100
0000
0000
0000
1000
0000
0010
0100
,
0010
0000
0001
0100
0001
0000
0010
1000
0010
0000
0001
0000
0000
0000
0001
0010
,
0100
0000
0100
0010
0001
0000
0010
1000
0010
0000
0000
0000
0001
0000
0001
0100
,
0010
0000
0010
0000
0100
0000
0001
0000
0010
0000
1000
0000
0000
0000
0001
0100
,
0001
0000
0001
0000
0100
0000
0001
0000
0100
0000
0001
0000
0100
0010
0100
0010
,
0100
0010
0100
0010
0001
0010
0001
0100
,
0010
0000
0100
0000
0001
0000
0100
1000
0100
0000
0010
0000
0001
0000
0001
0100
,
0001
0000
0010
0000
0100
0000
0010
0100
0001
0000
0001
0100
0010
0000
0010
1000
,
0200
0000
0000
0000
0300
0000
0001
1000
0100
0000
0100
1000
0010
0000
0010
0100
,
0010
0000
0100
0000
0000
0000
0001
0100
0001
0000
0010
0100
0010
0000
0010
0100
,
0001
0000
0100
0000
0010
0000
0010
1000
0010
0000
0001
0100
0001
0000
0001
1000
,
0010
0000
0100
0000
0000
0000
0001
0100
0001
0000
0001
1000
0100
0000
0100
0010
,
0001
1000
0001
1000
0001
0010
0100
0010
,
0100
0010
0001
1000
0010
1000
0010
1000
,
0001
0010
0001
0010
0001
0100
0010
0100
,
0001
0000
0010
0000
0001
0000
0010
0100
,
0010
0000
0001
0010
0001
0000
0001
1000
,
0001
0000
0010
0000
0100
0010
0100
0000
0100
1000
0100
0000
0100
0000
1000
0000
,
0010
0000
0100
0000
0001
0010
0001
0000
0001
0100
0001
0000
0001
0000
0010
0000
,
0100
1000
0100
1000
0100
0010
0001
0010
,
0100
0000
0000
0000
0001
0000
0000
0000
1000
0000
0000
0000
0000
0000
0010
1000
,
0010
0000
0001
0100
0001
0000
0001
0010
0100
0000
0001
0000
0000
0000
0001
0100
,
0010
0000
0001
1000
0001
0000
0001
0010
0100
0000
0000
0000
0110
0000
0001
1000
,
0001
0000
0100
0010
0100
0000
0100
1000
0010
0000
0100
0000
0000
0000
0100
1000
,
0010
0000
0100
1000
0001
0000
0001
0100
0001
0000
0010
0000
0100
0000
0010
0000
,
1000
0001
1000
0001
1000
0001
1000
0001
1000
0001
1000
0001
1000
0100
1000
0100
,
1000
0100
1000
0100
0010
0100
0010
0100
0010
0001
0010
0001
0010
0001
0100
0001
,
0100
0001
0100
0001
0100
0001
0100
0010
0100
0010
0100
0001
1000
0001
1000
0001
,
1000
0100
1000
0100
1000
0100
1000
0100
1000
0000
0001
0000
0100
0000
0010
0000
,
0100
0001
1000
0001
1000
0001
1000
0010
,
0200
0000
0010
0000
0010
0000
0310
0100
,
1000
0100
1000
0010
1000
0100
0010
0001
,
1000
0001
2000
0000
0100
0000
0100
3000
,
0010
0100
1000
0010
0100
0010
1000
0001
,
0100
0001
1000
0100
0010
0100
1000
0001
,
1000
0010
0100
0001
0100
0010
0100
0001
,
1000
0010
1000
0010
0100
0010
1000
0100
,
0100
0000
0100
0010
0100
0000
1000
0010
0100
0000
1000
0001
0010
0000
1000
0000
,
0010
0000
0100
0010
1000
0000
0010
0001
0100
0000
0010
0100
0010
0000
0010
0000
,
1000
0010
1000
0010
0100
0000
0010
0001
0010
0000
1000
0010
0100
0000
0100
0010
,
0100
0000
1000
0010
1000
0000
1000
0001
0100
0000
1000
0100
1000
0000
0001
0000
,
0100
0001
1000
0100
1000
0000
1000
0000
0100
0001
1000
0100
1000
0000
0001
0000
,
1000
0001
1000
0010
1000
0100
0010
0100
,
0010
0001
1000
0001
1000
0000
0010
0000
0100
0000
0010
0000
0001
0000
0100
0000
,
0010
0001
1000
0010
1000
0010
1000
0010
0200
0000
0000
0000
0300
0000
0100
0010
,
1000
0000
0100
0010
1000
0000
1000
0100
1000
0000
0100
0000
0000
0000
1000
0100
,
0010
0000
0010
0100
1000
0000
0100
0010
1000
0000
0000
0000
1000
0000
0010
0100
,
1000
0000
0100
0001
1000
0000
1000
0001
0100
0000
1000
0000
0000
0000
1000
0010
,
1000
0000
1000
0100
0010
0000
0010
0001
1000
0000
0000
0000
0100
0000
1000
0001
,
0010
0000
1000
0000
0001
0000
0010
0000
1000
0000
0010
0000
1000
0000
0010
0100
,
0010
0000
1000
0000
0100
0000
1000
0000
0100
0000
1000
0000
0100
0001
1000
0010
,
0100
0010
0100
0001
1010
0000
0100
0001
,
1001
0110
0101
0110
,
1001
0000
0000
0000
;
