#VERSION:0.83;
#TITLE:DYNAMO;
#ARTIST:OSCILLATOR X;
#GENRE:SYNTH-POP;
#MUSIC:DYNAMO.ogg;
#BANNER:DYNAMO-bn.png;
#BACKGROUND:DYNAMO-bg.png;
#CDTITLE:./cdtitles/KaW Originals.png;
#SAMPLESTART:89.079;
#SAMPLELENGTH:15;
#OFFSET:-0.017;
#BPMS:0=132.043;

//--------------- dance-single - B. M'Rey ----------------
#NOTEDATA:;
#STEPSTYPE:dance-single;
#DESCRIPTION:B. M'Rey;
#CREDIT:B. M'Rey;
#DIFFICULTY:Beginner;
#METER:3;
#RADARVALUES:0,0,0,0,0;
#NOTES:
0000
0000
0000
0000
,
0000
0000
0000
0000
,
0000
0000
0000
0000
,
0000
0000
0000
0000
,
0000
0000
0000
0000
,
0001
0000
0010
0000
,
0001
0000
0100
0000
,
0010
0000
1000
0000
,
1001
0000
0000
0000
,
0010
0000
0100
0000
,
0001
0000
0010
0000
,
1000
0000
0100
0000
,
1000
0000
0010
0000
,
0100
0000
0000
0000
,
0001
0000
0000
0000
,
1000
0000
0010
0000
,
0100
0000
0001
0001
,
0000
1000
0000
0010
,
0000
0100
0000
0001
,
0000
1000
0000
0010
,
0000
0100
0000
0001
,
1000
0000
0000
0000
,
0010
0000
0000
0000
,
0100
0000
0001
0000
,
1001
0000
0000
0000
,
1000
1000
0001
0001
,
1000
0000
0000
0000
,
0010
0000
0100
0000
,
0001
0000
0000
0000
,
0010
0010
0100
0100
,
1000
0000
0000
0000
,
0001
0000
0100
0000
,
1001
0000
0000
0000
,
1000
0000
0010
0000
,
0100
0000
0001
0000
,
0010
0000
0001
0000
,
0100
0000
0010
0000
,
1000
0000
0000
0000
,
0010
0000
0000
0000
,
0100
0000
0001
0000
,
1000
0000
0001
0001
,
0100
0000
0010
0000
,
1000
0000
0001
0000
,
0100
0000
0010
0000
,
1000
0000
0001
0000
,
0100
0000
0000
0000
,
0010
0000
0000
0000
,
1000
0000
0001
0000
,
1001
0000
0000
0000
,
0001
0001
1000
1000
,
0100
0000
0000
0000
,
0010
0000
0100
0000
,
0001
0000
0000
0000
,
1000
1000
0001
0001
,
0100
0000
0000
0000
,
0010
0000
1000
0000
,
1001
0000
0000
0000
,
0010
0000
0000
0000
,
0100
0000
0000
0000
,
0001
0000
0000
0000
,
1000
0000
0000
0000
,
1001
0000
0000
0000
,
0010
0000
0000
0000
,
0100
0000
0000
0000
,
1001
0000
0000
0000
;

//--------------- dance-single - B. M'Rey ----------------
#NOTEDATA:;
#STEPSTYPE:dance-single;
#DESCRIPTION:B. M'Rey;
#CREDIT:B. M'Rey;
#DIFFICULTY:Easy;
#METER:7;
#RADARVALUES:0,0,0,0,0;
#NOTES:
0000
0000
0000
0000
,
0000
0000
0000
0000
,
0000
0000
0000
0000
,
0000
0000
0000
0000
,
0000
0000
0000
0000
,
0001
1000
0010
0100
,
0001
0010
1000
0100
,
0001
0100
0010
1000
,
1001
0000
0000
0000
,
1000
0001
0010
0100
,
0010
0001
0100
0010
,
1000
0010
0100
0010
,
0100
0010
0100
0001
,
0100
0001
0010
0001
,
0100
0010
0100
0010
,
0100
0001
1000
0010
,
1000
0001
1000
0010
,
0100
0010
1000
0001
,
0100
0001
0010
0001
,
0010
0100
0010
0001
,
0100
0001
0100
0001
,
1000
0010
1000
0010
,
1000
0100
0010
0100
,
1000
0100
0010
0001
,
1001
0000
0000
0000
,
0010
0100
0010
0100
,
1000
0010
0100
0001
,
1000
0001
1000
0010
,
0100
0001
0100
0010
,
1000
0010
0100
0001
,
1000
0100
1000
0010
,
0100
0010
0100
0010
,
0101
0000
0000
0000
,
0010
0100
1000
0100
,
0010
0100
0010
0100
,
1000
0001
0100
0001
,
0100
0001
0100
0001
,
0010
0100
0010
0001
,
1000
0001
0100
0001
,
1000
0100
1000
0001
,
1000
0100
0010
0100
,
0010
0001
0010
0100
,
0010
0100
1000
0100
,
1000
0010
0100
0010
,
0100
0010
1000
0100
,
1000
0001
0100
0001
,
0100
0001
0100
0001
,
0010
0100
0010
0001
,
1001
0000
0000
0000
,
1000
0010
0100
0010
,
0100
0001
1000
0100
,
0010
0001
1000
0100
,
1000
0100
0010
0100
,
0010
0001
1000
0001
,
1000
0010
0100
0001
,
1000
0001
0100
0010
,
0110
0000
1000
0010
,
1001
0000
0100
0000
,
0001
0000
0010
0000
,
1000
0000
0010
0000
,
0100
0000
0001
0000
,
1001
0000
0010
0000
,
0100
0000
0010
0000
,
1000
0000
0010
0000
,
0110
0000
0000
0000
;

//--------------- dance-single - B. M'Rey ----------------
#NOTEDATA:;
#STEPSTYPE:dance-single;
#DESCRIPTION:B. M'Rey;
#CREDIT:B. M'Rey;
#DIFFICULTY:Medium;
#METER:9;
#RADARVALUES:0,0,0,0,0;
#NOTES:
0000
0000
0000
0000
,
0000
0000
0000
0000
,
0000
0000
0000
0000
,
0000
0000
0000
0000
,
0000
0000
0000
0000
,
1001
0000
0101
0000
0010
1000
0010
0100
,
0000
0010
0000
0000
0001
0010
0100
0010
,
0000
1000
0000
0010
0100
0001
0000
0010
,
0110
0000
0000
0000
,
1000
0000
0001
0010
0001
0100
0000
0010
,
0000
1000
0000
0010
0000
0100
0000
0001
,
0010
0000
1000
0000
0010
0100
0000
0010
,
0000
1000
0000
0001
0000
0010
0100
0001
,
1000
0000
0010
0100
0010
0000
0001
1000
,
0010
0000
0100
0010
1000
0000
0010
0100
,
0001
0000
0010
0000
1000
0000
0000
0001
,
0000
1000
0010
0100
0001
0000
0010
0000
,
0000
0000
1000
0100
1000
0010
0000
0100
,
0000
0001
0000
0010
0000
1000
0010
0000
,
0100
0000
0001
0000
1010
0000
0000
0010
,
0000
0100
0001
0100
0000
0000
0010
1000
,
0010
0000
0100
0000
0001
0000
0010
1000
,
0010
0000
0100
0001
0100
0000
0010
0000
,
0001
1000
0010
0100
0001
0000
0000
0000
,
1001
0000
0000
0000
,
1001
0000
0101
0000
0010
0100
0010
0000
,
1000
0010
0100
0001
,
1001
0000
1001
0000
0010
0100
0001
0100
,
0001
1000
0010
0000
,
1001
0000
0101
0000
0010
0100
0010
0000
,
1010
0101
0000
0000
,
0010
0000
1000
0010
0100
0001
1000
0000
,
1001
0000
0000
0000
,
0001
0001
1000
0010
0100
0001
0000
0010
,
0000
1000
0000
0100
0000
0010
1000
0000
,
0001
0000
0001
0010
0100
0010
0000
1000
,
0000
0010
0100
0001
0000
0010
1000
0100
,
1001
0000
0101
0000
0010
0000
1000
0001
,
1010
0000
0110
0000
0101
0000
0010
1000
,
0010
0100
0001
0100
0010
0000
1000
0010
,
0000
0001
0000
0010
1001
0000
1001
0000
,
0010
0000
0100
0000
0010
0100
0000
0001
,
0000
0010
0000
1000
0000
0100
0001
0000
,
1000
0000
0001
1000
0010
0100
0010
1000
,
0000
0010
0000
0100
0000
0001
1000
0010
,
0100
0000
0010
0000
0001
0000
0001
1000
,
0010
0100
0010
1000
,
0001
1000
0100
0001
0010
0000
0000
0000
,
1001
0000
0000
0000
,
1001
0000
0101
0000
0010
0100
0010
0000
,
1000
0010
0100
0001
,
1001
0000
1001
0000
0010
0100
0001
0100
,
0001
1000
0010
0000
,
1001
0000
0101
0000
0010
0100
0010
0000
,
1010
0101
0000
0000
,
0010
0000
1000
0010
0100
0001
1000
0000
,
1001
0000
0010
0100
,
1001
0000
0010
0000
0100
0001
0100
0000
,
0010
0000
0000
0000
,
1000
0000
0010
0000
0100
0001
0100
0010
,
0000
0000
0000
0000
,
1001
0000
0010
0000
0100
0001
0100
0010
,
0000
1000
0000
0000
0000
0000
0000
0000
,
0010
0000
0100
0001
0100
0010
1000
0000
,
0110
0000
0000
0000
,
1001
0000
0000
0000
;

//--------------- dance-single - B. M'Rey ----------------
#NOTEDATA:;
#STEPSTYPE:dance-single;
#DESCRIPTION:B. M'Rey;
#CREDIT:B. M'Rey;
#DIFFICULTY:Hard;
#METER:10;
#RADARVALUES:0,0,0,0,0;
#NOTES:
0000
0000
0000
0000
,
0000
0000
0000
0000
,
0000
0000
0000
0000
,
0001
0100
0010
1000
0001
0010
0001
0010
,
0000
0100
0000
1000
0010
1000
0100
0010
,
0100
0000
0100
0000
0010
0100
0001
0100
,
0000
1000
0000
1000
0001
1000
0100
0010
,
0000
0010
0000
1000
0001
0010
0000
0100
,
0002
0000
0000
0000
,
0013
0000
0001
0100
0001
1000
0000
0010
,
0000
0100
0000
2000
0000
0000
0000
0000
,
0000
3100
0001
0000
0001
0010
0000
0100
,
0000
0100
0010
1000
0000
1000
0001
0100
,
0001
0000
0001
0000
0100
0000
0010
0100
,
0010
0000
0010
0000
0100
0000
0100
0010
,
0100
1000
0010
1000
0010
0000
0001
0010
,
0000
1000
0100
1000
0010
0000
0010
0000
,
0001
0000
0001
0100
0001
1000
0000
0100
,
0000
0100
0000
1000
0100
0000
0001
0000
,
0001
0010
0100
0000
0001
0000
0001
0010
,
0000
0100
0010
0200
0000
1300
0100
0010
,
0001
0000
0001
0100
0001
0000
0100
0020
,
0000
0000
0000
0000
0000
0030
0010
1000
,
0001
0010
0100
1000
0010
0000
0001
1000
,
0020
0000
0000
0000
,
0130
0000
0011
0000
0001
0100
0001
0011
,
0000
1100
0000
0010
0000
0101
0000
0100
,
0010
0000
0100
0000
0001
1000
0100
0010
,
0000
1000
0001
0100
0000
1000
0100
0010
,
0110
0000
0011
0000
0100
1000
0100
1001
,
0000
0110
0000
0100
0000
0011
0000
0000
,
0010
0000
0010
0100
0010
1000
0100
1000
,
0002
0000
0000
0000
,
0013
1000
0010
0100
0001
0100
0010
0100
,
0000
0010
0000
0200
0000
0000
0000
0000
,
0310
1000
0100
1000
0001
0100
0000
0010
,
0000
1000
0000
1000
0010
0100
0001
0100
,
0001
0000
0100
0000
0100
0000
0010
1000
,
0100
0000
0001
0000
0001
0000
0001
0100
,
0010
0100
0001
0100
0001
0000
0100
0010
,
0000
0100
0000
1000
0010
0100
0010
0000
,
0001
0000
0011
0000
0100
1000
0000
0010
,
0000
0010
0000
0100
0010
0000
0001
0000
,
0100
1000
0001
1000
0100
0010
0001
0100
,
0000
1000
0000
1000
0000
0100
0001
0010
,
0100
0000
0010
0000
0001
1000
0010
0100
,
0001
0010
0001
0100
,
0001
0100
0010
0100
0001
0000
0100
1000
,
0020
0000
0000
0000
,
0130
0000
1100
0000
0010
0100
0010
0101
,
0000
1100
0000
1000
0000
0011
0000
0100
,
0101
0000
0011
0000
0100
0010
0100
1000
,
0000
0010
0001
0100
0000
0010
0100
0010
,
1001
0000
0101
0000
0001
1000
0010
1100
,
0000
1100
0000
0010
0000
1010
0000
0100
,
0010
0000
0001
1000
0010
0100
0001
0010
,
0000
0100
0001
0010
0100
0010
0001
0100
,
0010
0000
0010
0000
0010
1000
0001
1000
,
0000
1001
0000
0010
0000
0100
0000
0001
,
1010
0000
0011
0000
0100
0010
0001
0010
,
1000
0000
0100
0000
0001
0000
1000
0100
,
0011
0000
1010
0000
0001
1000
0001
0010
,
0000
1000
0000
0010
0000
0100
0000
0010
,
0001
0000
0001
1000
0010
0100
0010
1000
,
0200
0000
0000
0000
,
0300
0000
0000
0000
;
