#VERSION:0.83;
#TITLE:DYNAMO (Aqua Star Mix);
#ARTIST:OSCILLATOR X;
#GENRE:SYNTH-POP;
#MUSIC:Dynamo (Aqua Star Mix).ogg;
#BANNER:Dynamo (Aqua Star Mix)-bn.png;
#BACKGROUND:Dynamo (Aqua Star Mix)-bg.png;
#CDTITLE:./cdtitles/KaW Originals.png;
#SAMPLESTART:75.219;
#SAMPLELENGTH:15;
#OFFSET:-0.229;
#BPMS:0=128.018;

//--------------- dance-single - B. M'Rey ----------------
#NOTEDATA:;
#STEPSTYPE:dance-single;
#DESCRIPTION:B. M'Rey;
#CREDIT:B. M'Rey;
#DIFFICULTY:Challenge;
#METER:11;
#RADARVALUES:0,0,0,0,0;
#NOTES:
0000
0000
0000
0000
,
0000
0000
0000
0000
,
0000
0000
0000
0000
,
0000
0000
0000
0000
,
0100
0010
0100
0010
,
1000
0010
1000
0001
,
1000
0001
1000
0100
,
0010
0100
1000
0010
,
0100
0010
1000
0010
1000
0100
1000
0000
,
0100
0001
0100
0001
1000
0100
0010
0000
,
1000
0010
1000
0010
1000
0010
1000
0000
,
0010
0100
0010
0000
1000
0010
0100
0000
,
1000
0010
0100
0010
0100
0001
0100
0000
,
0100
0010
1000
0000
0100
0010
0100
0000
,
1001
0101
0110
0110
,
1001
0101
0110
0000
,
0100
0000
0100
0001
0100
0010
0000
0002
,
0000
2003
0000
3020
0000
2030
0000
3010
,
0100
0000
0010
0000
1000
0100
0000
0001
,
0000
0100
1000
0001
0000
0100
0010
0001
,
0100
0000
0010
1000
0000
1000
0010
0000
0100
0001
0000
0001
1000
0000
0001
0000
,
1000
0000
0100
0010
0000
0010
0001
0000
0010
0001
0000
0001
1000
0000
0100
0000
,
1000
0001
0100
0010
1000
0000
1000
0010
,
0000
0100
0010
0100
0110
0000
1001
0000
,
1000
0000
1000
0010
0100
0010
0000
0002
,
0000
0203
0000
0320
0000
0130
1000
0010
,
1000
0000
0010
0100
0010
0000
1000
0010
,
1000
0100
0010
0001
0000
0100
1000
0010
,
0100
0000
0001
0100
0000
0100
0001
0000
0100
0001
0000
0001
1000
0000
0010
0000
,
1000
0000
0100
1000
0000
1000
0100
0000
1000
0001
0000
0001
0100
0000
0001
0000
,
0100
0010
0100
0001
0100
0000
1000
0010
,
1000
0001
0100
0010
0100
0001
0200
0000
,
0000
0001
0000
0001
,
0000
0001
0000
0001
,
0000
1000
0000
1000
,
0000
1000
0000
0010
,
0310
0100
0010
0100
,
1000
0001
0100
0001
,
0100
0001
0010
0001
,
1000
0100
0010
0100
,
0011
0000
0101
0000
0010
0001
0100
0101
,
0000
0110
0000
0010
1000
0001
0100
0010
,
0100
0000
0001
0000
1000
0000
0100
1000
0100
1000
0001
1000
0001
0000
0010
0000
,
0100
0010
1000
0001
0010
0001
1000
0010
,
1010
0000
1100
0000
0010
0100
1000
1010
,
0000
0110
0000
0010
1000
0100
1000
0010
,
0100
0000
0001
0000
0100
0000
0010
1000
0010
1000
0100
0010
0100
0000
0001
0000
,
0100
0001
1000
0001
1000
0010
0100
0010
,
0101
0000
0110
0000
1000
0010
1000
0110
,
0000
1001
0000
0001
0010
0100
1000
0100
,
0010
0000
0001
0000
0010
0000
0001
0100
0001
0100
0010
0100
0010
0000
0010
0000
,
0100
0001
1000
0010
1000
0001
0100
0010
,
1100
0000
1001
0000
0100
0001
1000
0101
,
0000
0011
0000
0100
0010
0100
1000
0100
,
0010
0000
0001
0000
0100
0000
0010
1000
0010
1000
0001
1000
0001
0000
0100
0000
,
1000
0100
0010
0100
0010
0001
1000
0001
,
0010
0100
1000
0010
,
0100
0010
1000
0100
,
0010
0000
0001
1000
0000
0000
0000
0000
;
