#TITLE:DON'T LET ME GO;
#SUBTITLE:(Factory Team Mix) (Extended);
#ARTIST:T-ZONE;
#TITLETRANSLIT:;
#SUBTITLETRANSLIT:;
#ARTISTTRANSLIT:;
#GENRE:;
#CREDIT:;
#MUSIC:DON'T LET ME GO (Factory Team Mix) (Extended).ogg;
#BANNER:DON'T LET ME GO (Factory Team Mix) (Extended)-bn.png;
#BACKGROUND:DON'T LET ME GO (Factory Team Mix) (Extended)-bg.png;
#CDTITLE:./CDTITLES/SAIFAM.PNG;
#SAMPLESTART:101.399;
#SAMPLELENGTH:14.000;
#SELECTABLE:YES;
#OFFSET:-0.023;
#BPMS:0.000=151.538;
#STOPS:;
#BGCHANGES:;
#FGCHANGES:;

//--------------- dance-single - B. M'Rey ----------------
#NOTES:
     dance-single:
     B. M'Rey:
     Beginner:
     2:
     0.143,0.158,0,0.111,0:
0000
0000
0000
0000
,
0000
0000
0000
0000
,
0000
0000
0000
0000
,
0000
0000
0000
0000
,
0000
0000
0000
0000
,
0000
0000
0000
0000
,
0000
0000
0000
0000
,
0000
0000
0000
0000
,
0000
0000
0000
0000
,
0000
0000
0000
0000
,
0000
0000
0000
0000
,
0000
0000
0000
0000
,
0000
0000
0000
0000
,
0000
0000
0000
0000
,
0000
0000
0000
0000
,
0000
0000
0000
0000
,
1000
0000
0000
0000
,
0010
0000
0000
0000
,
0001
0000
0000
0000
,
0100
0000
0000
0000
,
0010
0000
0000
0000
,
0001
0000
0000
0000
,
1000
0000
0000
0000
,
0010
0000
0000
0000
,
0200
0000
0000
0000
,
0302
0000
0000
0000
,
0023
0000
0000
0000
,
0230
0000
0000
0000
,
2300
0000
0000
0000
,
3002
0000
0000
0000
,
0023
0000
0000
0000
,
0032
0000
0000
0000
,
1003
0000
0000
0000
,
0010
0000
0000
0000
,
0100
0000
0000
0000
,
0001
0000
0000
0000
,
0010
0000
0000
0000
,
1000
0000
0000
0000
,
0100
0000
0000
0000
,
0002
0000
0000
0000
,
0013
0000
0100
0000
,
0010
0000
0001
0001
,
1000
0000
0100
0000
,
1000
0000
0100
0010
,
0001
0000
0010
0000
,
0001
0000
1000
0010
,
0100
0000
1000
0000
,
0010
0000
0100
0001
,
0010
0000
1000
0000
,
0001
0000
0000
0000
,
0010
0000
1000
0000
,
0001
0000
0000
0000
,
0010
0000
0100
0000
,
0001
0000
1000
0000
,
0020
0000
0000
0000
,
0000
0030
0000
0000
,
1000
0000
0001
0000
,
0010
0000
0100
0000
,
0001
0000
0010
0000
,
1000
0000
0100
0000
,
0001
0000
0010
0000
,
0100
0000
0001
0000
,
2000
0000
0000
0000
,
0000
3000
0000
0000
,
0010
0001
0000
0000
,
0000
1000
0000
0000
,
0000
0010
0000
0000
,
0000
0001
1000
2000
,
0000
3001
0000
0000
,
0000
0001
0000
0000
,
0000
1000
0000
0010
,
0000
0100
0000
1000
,
0000
0010
0000
0000
,
0000
0010
0000
0000
,
0000
0001
0000
0000
,
0000
1000
0001
2000
,
0000
3010
0000
0000
,
0000
0010
0000
0000
,
0000
0001
0000
0100
,
0000
0001
0000
0100
,
0010
0000
0100
0000
,
0010
0000
0001
0001
,
1000
0000
0100
0000
,
1000
0000
0100
0010
,
0001
0000
0010
0000
,
0001
0000
1000
0010
,
0100
0000
1000
0000
,
0010
0000
0100
0001
,
1000
0000
0001
0000
,
1000
0000
0010
0010
,
0100
0000
0001
0000
,
0100
0000
0001
1000
,
0010
0000
1000
0000
,
0010
0000
0100
1000
,
0001
0000
0100
0000
,
1000
0000
0001
0010
,
1000
0000
0100
0000
,
0010
0000
0000
0000
,
1000
0000
0100
0000
,
0010
0000
0000
0000
,
0010
0000
1000
0000
,
0001
0000
0000
0000
,
0010
0000
1000
0000
,
0001
0000
0000
0000
,
0010
0000
0100
0000
,
0001
0000
1000
0000
,
0020
0000
0000
0000
,
0000
0030
0000
0000
,
1000
0000
0001
0000
,
0010
0000
0100
0000
,
0001
0000
0010
0000
,
1000
0000
0100
0000
,
0001
0000
0010
0000
,
0100
0000
0001
0000
,
2000
0000
0000
0000
,
0000
3000
0000
0000
,
0010
0001
0000
0000
,
0000
1000
0000
0000
,
0000
0010
0000
0000
,
0000
0001
1000
2000
,
0000
3001
0000
0000
,
0000
0001
0000
0000
,
0000
1000
0000
0010
,
0000
0100
0000
1000
,
0000
0010
0000
0000
,
0000
0010
0000
0000
,
0000
0001
0000
0000
,
0000
1000
0001
2000
,
0000
3010
0000
0000
,
0000
0010
0000
0000
,
0000
0001
0000
0100
,
0000
0010
0000
1000
,
0001
0000
0000
0000
,
0010
0000
0000
0000
,
1000
0000
0000
0000
,
0001
0000
0000
0000
,
0010
0000
0000
0000
,
0001
0000
0000
0000
,
0100
0000
0000
0000
,
0010
0000
0000
0000
,
1000
0000
0000
0000
,
0001
0000
0000
0000
,
0010
0000
0000
0000
,
0001
0000
0000
0000
,
0100
0000
0000
0000
,
0010
0000
0000
0000
,
1000
0000
0000
0000
,
0100
0000
0000
0000
,
0010
0000
0100
0000
,
0010
0000
0001
0001
,
1000
0000
0100
0000
,
1000
0000
0100
0010
,
0001
0000
0010
0000
,
0001
0000
1000
0010
,
0100
0000
1000
0000
,
0010
0000
0100
0001
,
1000
0000
0001
0000
,
1000
0000
0010
0000
,
0100
0000
0001
0000
,
0100
0000
0001
0000
,
0010
0000
1000
0000
,
0010
0000
0100
0000
,
0001
0000
0100
0000
,
1000
0000
0001
0000
,
1000
0000
0000
0000
,
0010
0000
0000
0000
,
1000
0000
0000
0000
,
0010
0000
0000
0000
,
0001
0000
0000
0000
,
0100
0000
0000
0000
,
0010
0000
0000
0000
,
0001
0000
0000
0000
,
0010
0020
0000
0000
,
0000
0032
0000
0000
,
0000
2003
0000
0000
,
0000
3020
0000
0000
,
0000
0230
0000
0000
,
0000
0320
0000
0000
,
0000
0032
0000
0000
,
0000
0203
0000
0000
,
0000
0320
0000
0000
,
0000
0032
0000
0000
,
0000
2003
0000
0000
,
0000
3020
0000
0000
,
0000
0230
0000
0000
,
0000
2300
0000
0000
,
0000
3002
0000
0000
,
0000
0023
0000
0000
,
0000
0030
0000
0000
;

//--------------- dance-single - B. M'Rey ----------------
#NOTES:
     dance-single:
     B. M'Rey:
     Easy:
     3:
     0.25,0.284,0.02,0.124,0:
0000
0000
0000
0000
,
0000
0000
0000
0000
,
0000
0000
0000
0000
,
0000
0000
0000
0000
,
0000
0000
0000
0000
,
0000
0000
0000
0000
,
0000
0000
0000
0000
,
0000
0000
0000
0000
,
0000
0000
0000
0000
,
0000
0000
0000
0000
,
0000
0000
0000
0000
,
0000
0000
0000
0000
,
0000
0000
0000
0000
,
0000
0000
0000
0000
,
0000
0000
0000
0000
,
0000
0000
0000
0000
,
2000
0000
0000
0000
,
3002
0000
0000
0000
,
0203
0000
0000
0000
,
0320
0000
0000
0000
,
0032
0000
0000
0000
,
2003
0000
0000
0000
,
3020
0000
0000
0000
,
0032
0000
0000
0000
,
0013
0010
0001
0001
,
1000
1000
0001
0001
,
0100
0100
0001
0001
,
0010
0010
0001
0001
,
1000
1000
0010
0010
,
0100
0100
1000
1000
,
0001
0001
1000
1000
,
0001
0001
1000
1000
,
0001
0000
1000
0000
,
0001
0000
0100
0100
,
0010
0000
1000
0000
,
0010
0000
1000
0001
,
0100
0000
0001
0000
,
0100
0000
0010
0001
,
1000
0000
0010
0000
,
0001
0000
1000
0100
,
0010
0001
0001
1000
,
0100
0001
0010
1000
,
0100
1000
0001
1000
,
0001
1000
0100
0001
,
0010
1000
0100
0100
,
1000
0001
0010
1000
,
0100
0100
1000
1000
,
0001
0010
1000
0100
,
0001
0001
0001
0010
,
0100
0000
1000
0000
,
0010
0010
0010
1000
,
0100
0000
1000
0000
,
0010
0010
0010
0010
,
0001
1000
1000
0000
,
0220
0000
0000
0000
,
0000
0330
0001
1000
,
0001
0001
0010
1000
,
0100
0000
0001
1000
,
0001
0010
1000
1000
,
0100
0000
0001
1000
,
0001
0100
1000
1000
,
0001
0010
1000
0000
,
2000
0000
0000
0000
,
3200
0000
0000
0000
,
0310
0001
0001
0010
,
0000
0100
1000
0001
,
0000
0001
1000
0001
,
0001
1000
1001
2000
,
0000
3100
0010
0001
,
0000
0001
1000
0001
,
0000
0100
0001
1000
,
0001
0010
0100
1000
,
1000
0010
0010
1000
,
0000
0001
0100
0010
,
0000
0010
0100
0010
,
0010
0100
0110
0200
,
0000
0301
1000
0010
,
0000
0010
0100
0010
,
0000
0001
0010
0100
,
0010
0000
0000
0000
,
0001
0001
0001
1000
,
0100
0001
0010
1000
,
0100
1000
0001
1000
,
0001
1000
0100
0001
,
0010
1000
0100
0100
,
1000
0001
0010
1000
,
0100
0100
1000
1000
,
0001
0010
1000
0100
,
1000
0010
0010
0100
,
0001
0010
1000
0100
,
0001
0100
0010
0100
,
0010
0100
0001
0010
,
1000
0100
0001
0001
,
0100
0010
1000
0100
,
0001
0001
0100
0100
,
0010
1000
0100
0001
,
0020
0030
0200
0300
,
0002
0000
0000
0003
,
0002
0003
2000
3000
,
0020
0000
0000
0030
,
0010
0010
0010
1000
,
0000
0000
0000
0000
,
1000
1000
1000
0100
,
0000
0000
0000
0000
,
1000
1000
1000
1000
,
0000
0100
0100
0000
,
2002
0000
0000
0000
,
0000
3003
0010
0100
,
0010
0010
1000
0100
,
0001
1000
0010
0100
,
0010
1000
0100
0100
,
0001
1000
0010
0100
,
0010
0001
0100
0100
,
0010
1000
0100
0000
,
0002
0000
0000
0000
,
0203
0000
0000
0000
,
0310
0001
0001
0010
,
0000
0100
1000
0001
,
0000
0001
1000
0001
,
0001
1000
1001
2000
,
0000
3100
0010
0001
,
0000
0001
1000
0001
,
0000
0100
0001
1000
,
0001
0010
0100
1000
,
1000
0010
0010
1000
,
0000
0001
0100
0010
,
0000
0010
0100
0010
,
0010
0100
0110
0200
,
0000
0301
1000
0010
,
0000
0010
0100
0010
,
0000
0001
0010
0100
,
2000
0000
0000
0000
,
3002
0000
0000
0000
,
0203
0000
0000
0000
,
0320
0000
0000
0000
,
2030
0000
0000
0000
,
3200
0000
0000
0000
,
0320
0000
0000
0000
,
0032
0000
0000
0000
,
0203
0000
0000
0000
,
0310
0000
0001
0000
,
1000
0000
0010
0000
,
0001
0000
0100
0000
,
0010
0000
0100
0000
,
0100
0000
0010
0000
,
0001
0000
1000
0000
,
0100
0000
0001
0000
,
0010
0000
0000
0000
,
0010
0001
0001
1000
,
0100
0001
0010
1000
,
0100
1000
0001
1000
,
0001
1000
0100
0001
,
0010
1000
0100
0100
,
1000
0001
0010
1000
,
0100
0100
1000
1000
,
0001
0010
1000
0100
,
1000
0010
0010
0100
,
0001
0010
1000
0100
,
0001
0100
0010
0100
,
0010
0100
0001
0010
,
1000
0100
0001
0001
,
0100
0010
1000
0100
,
0001
0001
0100
0100
,
0010
1000
0100
0001
,
0001
0000
1000
0000
,
0001
0000
1000
0000
,
0001
0000
0001
0000
,
1000
0000
1000
0000
,
1000
0000
0001
0000
,
1000
0000
1000
0000
,
0010
0000
0001
0000
,
0010
0000
1000
0000
,
0000
0001
0000
0000
,
0000
1000
0000
0000
,
0000
0010
0000
0000
,
0000
0001
1000
2000
,
0000
3001
0000
0000
,
0000
0001
0000
0000
,
0000
1000
0000
0010
,
0000
0100
0000
1000
,
0000
0010
0000
0000
,
0000
0010
0000
0000
,
0000
0001
0000
0000
,
0000
1000
0001
2000
,
0000
3010
0000
0000
,
0000
0010
0000
0000
,
0000
0001
0000
0100
,
0000
0001
0000
0100
;

//--------------- dance-single - B. M'Rey ----------------
#NOTES:
     dance-single:
     B. M'Rey:
     Medium:
     7:
     0.45,0.442,0.067,0.313,0:
0000
0000
0000
0000
,
0000
0000
0000
0000
,
0000
0000
0000
0000
,
0000
0000
0000
0000
,
0000
0000
0000
0000
,
0000
0000
0000
0000
,
0000
0000
0000
0000
,
0000
0000
0000
0000
,
0000
0000
0000
0000
,
0000
0000
0000
0000
,
0000
0000
0000
0000
,
0000
0000
0000
0000
,
0000
0000
0000
0000
,
0000
0000
0000
0000
,
0000
0000
0000
0000
,
0000
0000
0000
0000
,
1000
0001
0010
0100
,
0010
0000
1000
0000
0001
0010
0001
0010
,
0001
1000
0010
0100
,
0001
0000
1000
0000
0010
1000
0010
1000
,
0010
0100
0001
0010
,
1000
0000
0100
0000
0001
0100
0001
0100
,
0001
1000
0010
0100
,
0020
0000
0000
0000
,
1030
0001
1000
0000
0010
0000
0010
0000
,
0100
0010
0100
0000
0010
0000
0010
0000
,
0001
0010
0001
0000
0010
0000
0010
0000
,
1000
0100
1000
0000
0010
0000
0010
0000
,
0100
0010
0100
0000
0100
0000
0100
0000
,
0001
1000
0001
0000
0100
0000
0100
0000
,
0100
0001
0100
0000
0100
0000
0100
0000
,
0010
1000
0010
0000
0100
0001
0100
0000
,
0020
2030
3200
0302
,
0023
0230
0310
0001
,
2000
3020
0230
0320
,
2030
3002
0103
0010
,
0002
2003
3020
0230
,
0320
0032
1003
0010
,
0200
0320
2030
3002
,
0023
0230
0310
0001
,
1000
0001
0010
0000
0010
1000
0100
0000
,
0001
0010
1000
0100
,
0001
0010
0100
0000
0010
1000
0100
0000
,
0010
0100
0001
0010
,
1000
0010
0100
0000
0001
0010
0001
0000
,
0100
0010
1000
0100
,
0001
0010
0001
0000
0100
0010
0100
0000
,
0010
1000
0100
0001
,
0010
0100
0010
0100
0010
0000
1000
0000
,
0001
0010
0100
0010
,
1000
0001
1000
0001
1000
0000
0100
0000
,
0001
0010
0100
0010
,
1000
0001
1000
0001
1000
0001
1000
0000
,
0010
0000
0100
0010
0100
0010
0000
0000
,
2002
0000
0000
0000
,
0000
3003
0010
0100
,
0010
0100
0010
0001
1000
0010
0100
0000
,
0001
1000
0010
0100
,
0010
0001
1000
0010
0100
0010
0100
0010
,
0001
1000
0010
0100
,
0010
1000
0001
0010
0100
1000
0100
0001
,
0010
0000
1000
0001
0100
0010
0000
0000
,
0220
0000
0000
0000
,
0331
0101
0101
0101
,
1000
0000
0010
0100
0010
0001
1000
0010
,
0100
0000
0001
0010
0100
1000
0010
0100
,
0000
0000
0010
1000
0100
0001
0010
0100
,
0010
0100
0110
0220
,
0000
0000
0331
0010
1000
0100
0010
0001
,
0000
0000
0010
1000
0100
0001
0010
0000
,
1000
0001
0010
0100
,
0010
1000
0001
0100
,
0100
0000
1000
0001
1000
0010
0100
1000
,
0001
0000
0010
1000
0001
0100
1000
0001
,
0000
0000
1000
0100
0001
0010
1000
0001
,
1000
0001
1001
2002
,
0000
0000
3013
1000
0100
0001
1000
0010
,
0000
0000
1000
0100
0001
0010
1000
0000
,
0100
0010
1000
0001
,
1000
0100
0010
0001
,
1000
0001
0010
0000
0010
1000
0100
0000
,
0001
0010
1000
0100
,
0001
0010
0100
0000
0010
1000
0100
0000
,
0010
0100
0001
0010
,
1000
0010
0100
0000
0001
0010
0001
0000
,
0100
0010
1000
0100
,
0001
0010
0001
0000
0100
0010
0100
0000
,
0010
1000
0100
0001
,
0100
0010
1000
0000
1000
0100
0001
0000
,
0010
1000
0100
0001
,
0010
1000
0001
0000
1000
0100
0001
0000
,
1000
0001
0010
1000
,
0100
1000
0001
0000
0010
1000
0010
0000
,
0001
1000
0100
0001
,
0010
1000
0010
0000
0001
1000
0001
0000
,
1000
0100
0001
0010
,
1000
0001
1000
0000
0001
1000
0001
0000
,
0001
1000
0001
1000
0001
1000
0001
1000
,
0010
0100
0010
0000
0010
0100
0010
0000
,
0010
0100
0010
0100
0010
0100
0010
0100
,
1000
0001
1000
0001
1000
0000
0100
0000
,
0010
1000
0001
1000
,
0100
0010
0100
0010
0100
0000
0001
0000
,
0010
1000
0001
1000
,
0100
0010
0100
0010
0100
0010
0100
0000
,
1000
0000
0001
1000
0001
1000
0000
0000
,
0220
0000
0000
0000
,
0000
0330
1000
0001
,
1000
0001
1000
0010
0100
1000
0001
0000
,
0010
0100
1000
0001
,
1000
0010
0100
1000
0001
1000
0001
1000
,
0010
0100
1000
0001
,
1000
0100
0010
1000
0001
0100
0001
0010
,
1000
0000
0100
0010
0001
1000
0000
0000
,
2002
0000
0000
0000
,
3013
0011
0011
0011
,
0100
0000
1000
0001
1000
0010
0100
1000
,
0001
0000
0010
1000
0001
0100
1000
0001
,
0000
0000
1000
0100
0001
0010
1000
0001
,
1000
0001
1001
2002
,
0000
0000
3013
1000
0100
0001
1000
0010
,
0000
0000
1000
0100
0001
0010
1000
0000
,
0100
0010
1000
0001
,
1000
0100
0010
0001
,
0001
0000
0100
0010
0100
1000
0001
0100
,
0010
0000
1000
0100
0010
0001
0100
0010
,
0000
0000
0100
0001
0010
1000
0100
0010
,
0100
0010
0110
0220
,
0000
0000
1330
0100
0001
0010
0100
1000
,
0000
0000
0100
0001
0010
1000
0100
0000
,
0001
1000
0100
0010
,
0100
0001
1000
0010
,
0020
2030
3200
0302
,
0023
0230
0310
0001
,
2000
3020
0230
0320
,
2030
3002
0103
0010
,
0002
2003
3020
0230
,
0320
0032
1003
0010
,
0200
0320
2030
3002
,
0023
0230
0310
0001
,
2000
3200
0302
0023
,
2030
3002
1003
0010
,
0200
2300
3002
2003
,
3200
0320
0031
1000
,
0020
0230
2300
3002
,
2003
3020
0130
1000
,
0002
2003
3200
0320
,
2030
3002
1003
0001
,
1000
0001
0010
0000
0010
1000
0100
0000
,
0001
0010
1000
0100
,
0001
0010
0100
0000
0010
1000
0100
0000
,
0010
0100
0001
0010
,
1000
0010
0100
0000
0001
0010
0001
0000
,
0100
0010
1000
0100
,
0001
0010
0001
0000
0100
0010
0100
0000
,
0010
1000
0100
0001
,
0100
0010
1000
0000
1000
0100
0001
0000
,
0010
0100
1000
0000
0100
0010
0001
0000
,
0010
1000
0001
0000
1000
0100
0001
0000
,
1000
0100
0001
0000
0010
0001
1000
0000
,
0100
1000
0001
0000
0010
1000
0010
0000
,
0001
0010
1000
0000
0100
0010
0001
0000
,
0010
1000
0010
0000
0001
1000
0001
0000
,
1000
0010
0100
0000
0001
1000
0010
0000
,
0010
1000
0100
0001
,
0010
1000
0100
1000
,
0010
0100
0001
0010
,
0100
1000
0100
0010
,
0100
0001
0010
1000
,
0100
0001
0100
0010
,
1000
0100
0010
0100
,
1000
0010
0100
0001
,
0010
0000
1000
0000
0100
0000
0001
0010
,
0000
0100
1000
0010
,
0000
0000
0100
0000
0010
0000
1000
0100
,
0000
0001
0010
0000
0100
0000
2200
0000
,
0000
0000
3310
0000
0001
0000
1000
0100
,
0000
0010
0100
0001
,
0000
0100
0010
1000
,
0100
0001
1000
0100
,
0010
0000
1000
0000
0001
0000
0100
0010
,
0000
1000
0001
0100
,
0000
0000
0010
0000
1000
0000
0001
0010
,
0000
1000
0100
0000
0010
0000
0220
0000
,
0000
0000
1330
0000
0001
0000
0100
0010
,
0000
1000
0001
0100
,
0000
0010
1000
0001
,
0100
0000
0010
0000
1000
0000
0001
0010
;

//--------------- dance-single - B. M'Rey ----------------
#NOTES:
     dance-single:
     B. M'Rey:
     Hard:
     9:
     0.607,0.884,0.027,0.259,0.106:
0000
0000
0000
0000
,
0000
0000
0000
0000
,
0000
0000
0000
0000
,
0000
0000
0000
0000
,
0000
0000
0000
0000
,
0000
0000
0000
0000
,
0000
0000
0000
0000
,
0000
0000
0000
0000
,
2000
0000
0000
0000
,
0000
0000
0000
0000
,
3002
0000
0000
0000
,
0203
0000
0000
0000
,
0320
0000
0000
0000
,
0000
0000
0000
0000
,
2030
0000
0000
0000
,
3002
0000
0000
0000
,
1003
0010
0100
0001
,
0010
1000
0100
1000
,
0010
0001
0010
0001
,
0100
0010
1000
0100
,
0001
0010
0001
0100
,
0010
1000
0010
0100
,
0001
0010
0001
0100
,
0010
1000
0100
0010
,
1000
0100
1000
0000
0001
0000
0001
0000
,
0100
0010
0100
0000
0100
0000
0100
0000
,
0100
0001
0010
0000
0010
0000
0010
1000
,
0010
1000
0001
0100
0001
0100
0010
1000
,
0010
0000
0100
0000
0100
0000
0001
0010
,
0001
0000
0100
0010
0100
0010
1000
0000
,
1000
0100
0001
1000
0001
1000
0001
0010
,
0001
0010
0100
0010
0100
0010
0001
0010
,
0001
1000
0100
0000
0001
0000
0010
0000
,
0100
0000
1000
0000
0001
0000
0001
0100
,
0010
1000
0001
0010
,
0100
0000
0010
0000
1000
0000
0001
0010
,
0001
0000
0010
0100
0010
0000
1000
0001
,
1000
0000
0010
0100
0001
0000
0010
1000
,
0100
0001
0010
0001
1000
0010
0100
0001
,
0010
0100
0001
1000
0010
0100
0001
1000
0010
0100
0001
1000
0010
0100
0001
1000
,
0100
0001
0010
0100
0010
1000
0100
0001
,
0010
1000
0100
0000
0001
0000
0010
0100
,
0010
1000
0001
0010
0001
0100
0010
1000
,
0100
0001
0010
0000
1000
0000
0001
0010
,
0100
1000
0001
0010
0001
0100
0010
1000
,
0100
0001
0010
0000
1000
0000
0001
0010
,
0100
0001
1000
0010
0100
0001
0100
0010
,
1000
0001
0010
0100
,
1000
0001
0010
0100
0010
1000
0100
0001
,
1000
0010
0100
0001
0010
0100
0010
1000
,
0001
1000
0010
0100
0001
0010
0001
1000
,
0010
1000
0010
0100
0001
1000
0010
0001
,
0010
1000
0010
0100
0001
0010
0001
0100
,
0010
1000
0001
0010
0001
0100
0000
0000
,
0020
1000
0001
1000
,
0031
1000
0001
1000
0001
1000
0001
1000
0001
1000
0001
1000
0001
1000
0001
1000
,
0001
0010
0100
0001
1000
0010
0100
0001
,
0010
0100
0010
0000
1000
0100
1000
0000
0001
0100
0010
0000
0100
0001
0100
0000
,
0010
1000
0001
0010
0001
0100
0010
1000
,
0100
0010
0100
0000
0100
0001
0010
0000
0001
0100
0001
0000
0001
1000
0010
0000
,
1000
0100
0001
0010
0001
0100
0010
0100
,
0001
1000
0001
0010
0100
0010
0100
0010
,
0002
0010
1000
0010
,
1003
0000
0000
0000
0101
0000
0000
0010
1000
0000
0100
0000
0001
0000
0000
0000
,
1000
0001
1000
0001
1000
0001
1000
0001
,
1000
0010
1000
0010
1000
0010
1000
0010
,
1000
0100
1000
0100
1000
0100
1000
0100
,
1000
0001
1000
0001
1000
0001
1000
0001
,
1000
0001
0100
0001
0100
0001
0100
0001
,
0100
0010
0100
0010
0100
0010
0100
0010
,
0100
1000
0100
1000
0100
1000
0100
1000
,
0100
0010
0100
0010
0100
0010
0100
0010
,
0100
0001
0100
0001
0100
0001
0100
0001
,
0100
0010
0001
0010
0001
0010
0001
0010
,
0001
1000
0001
1000
0001
1000
0001
1000
,
0001
0010
0001
0010
0001
0010
0001
0010
,
0001
0100
0010
0100
0010
0100
0010
0100
,
0010
0001
0010
0001
0010
0001
0010
0001
,
0100
0010
0100
0010
0100
0010
0100
0010
,
0110
1001
0110
0101
,
0100
0001
0010
0100
0010
1000
0100
0001
,
0010
1000
0100
0000
0001
0000
0010
0100
,
0010
1000
0001
0010
0001
0100
0010
1000
,
0100
0001
0010
0000
1000
0000
0001
0010
,
0100
1000
0001
0010
0001
0100
0010
1000
,
0100
0001
0010
0000
1000
0000
0001
0010
,
0100
0001
1000
0010
0100
0001
0100
0010
,
1000
0000
0001
0000
0010
0000
0100
1000
,
0001
0010
1000
0001
1000
0100
0001
0010
,
1000
0100
0001
0000
0010
0000
1000
0001
,
1000
0100
0010
1000
0010
0001
1000
0100
,
0001
0010
1000
0000
0100
0000
0010
1000
,
0001
0100
0010
1000
0010
0001
1000
0100
,
0001
0010
1000
0000
0100
0000
0010
1000
,
0001
0010
0100
1000
0001
0010
0001
1000
,
0100
0000
0010
0000
1000
0000
0001
0100
,
1000
0010
1000
0010
1000
0010
1000
0000
1000
0010
1000
0010
1000
0010
1000
0000
,
0001
0100
0001
0000
0001
0100
0001
0000
0001
0100
0001
0100
0001
0100
0001
0000
,
0001
1000
0001
1000
0001
1000
0001
0000
0001
1000
0001
1000
0001
1000
0001
0000
,
0010
0100
0010
0000
0010
0100
0010
0000
0010
0100
0010
0100
0010
0100
0010
0000
,
1000
0001
0010
0100
0010
1000
0100
0001
,
2000
3020
0032
2003
,
3001
1000
0010
0100
0001
0010
0001
1000
,
0020
2030
3002
0203
,
0301
1000
0010
0100
0001
0010
0001
0000
,
0010
1000
0001
0010
0001
0100
0000
0000
,
0020
0000
0000
0000
,
0031
1000
0001
1000
0001
1000
0001
1000
0001
1000
0001
1000
0001
1000
0001
1000
,
0001
0010
0100
0001
1000
0010
0100
0001
,
0010
0100
0010
0100
0001
0010
0001
0100
,
0010
1000
0001
0010
0001
0100
0010
1000
,
0100
0010
0100
0010
0001
0100
0001
0010
,
1000
0100
0001
0010
0001
0100
0010
0100
,
0001
1000
0001
0010
0100
0010
0100
0010
,
0002
0010
1000
0010
,
1003
0000
0000
0000
0101
0000
0000
0010
1000
0000
0100
0000
0001
0000
0000
0000
,
1000
0001
1000
0001
1000
0001
1000
0001
,
1000
0010
1000
0010
1000
0010
1000
0010
,
1000
0100
1000
0100
1000
0100
1000
0100
,
1000
0001
1000
0001
1000
0001
1000
0001
,
1000
0001
0100
0001
0100
0001
0100
0001
,
0100
0010
0100
0010
0100
0010
0100
0010
,
0100
1000
0100
1000
0100
1000
0100
1000
,
0100
0010
0100
0010
0100
0010
0100
0010
,
0100
0001
0100
0001
0100
0001
0100
0001
,
0100
0010
0001
0010
0001
0010
0001
0010
,
0001
1000
0001
1000
0001
1000
0001
1000
,
0001
0010
0001
0010
0001
0010
0001
0010
,
1000
0010
0100
0001
,
0010
0100
1000
0010
,
0100
0001
0010
1000
,
0100
0000
0100
0000
0010
0000
0100
0001
,
0020
0230
2300
3002
0023
2030
3020
0032
,
0203
2300
3002
0003
0020
0030
2000
3002
,
0203
0320
2030
3020
0032
2003
3200
0302
,
2003
3020
2030
3000
0002
0003
0200
0300
,
0020
2030
3020
0032
2003
3200
0302
2003
,
3020
2030
3002
0003
0200
0300
0020
2030
,
3002
2003
3020
0230
2300
3002
2003
3020
,
0230
2300
3002
0003
0020
0030
2000
3002
,
0103
0010
1000
0010
0001
1000
0100
0001
,
0010
1000
0001
0000
0100
0000
0010
1000
,
0001
1000
0100
0001
0010
0100
1000
0001
,
0010
1000
0001
0100
1000
0000
0001
0010
,
1000
0100
0001
1000
0010
1000
0001
1000
,
0100
0001
0010
0000
1000
0000
0001
0100
,
0001
0010
1000
0100
0001
0010
1000
0001
,
1000
0010
0100
0010
0100
0010
0100
0010
0100
0010
0100
0010
0100
0010
0100
0000
,
0100
0001
0010
0100
0010
1000
0100
0001
,
0010
1000
0100
0000
0001
0000
0010
0100
,
0010
1000
0001
0010
0001
0100
0010
1000
,
0100
0001
0010
0000
1000
0000
0001
0010
,
0100
1000
0001
0010
0001
0100
0010
1000
,
0100
0001
0010
0000
1000
0000
0001
0010
,
0100
0001
1000
0010
0100
0001
0100
0010
,
1000
0000
0001
0000
0010
0000
0100
1000
,
0001
0010
1000
0001
1000
0100
0001
0010
,
1000
0100
0001
0100
0010
0001
1000
0001
,
1000
0100
0010
1000
0010
0001
1000
0100
,
0001
0010
1000
0001
0100
0010
0010
1000
,
0001
0100
0010
1000
0010
0001
1000
0100
,
0001
0010
1000
0001
0100
0001
0010
1000
,
0001
0010
0100
1000
0001
0010
0001
1000
,
0100
0001
0010
0100
1000
0010
0001
0100
,
0001
0010
1000
0100
,
0001
0010
1000
0010
,
0001
1000
0100
0001
,
1000
0010
1000
0001
,
1000
0100
0001
0010
,
1000
0100
1000
0001
,
0010
1000
0001
1000
,
0010
0001
1000
0100
,
0001
0000
0010
0000
1000
0000
0100
0001
,
0000
1000
0010
0001
,
0000
0000
1000
0000
0001
0000
0010
1000
,
0000
0100
0001
0000
1000
0000
2020
0000
,
0000
0000
3031
0000
0100
0000
0010
1000
,
0000
0001
1000
0100
,
0000
1000
0001
0010
,
1000
0001
0100
0000
0010
0001
1000
0100
,
0001
0000
0010
0000
0100
0000
1000
0001
,
0000
0010
0100
1000
,
0000
0000
0001
0000
0010
0000
0100
0001
,
0000
0010
1000
0000
0001
0000
2002
0000
,
0000
0000
3013
0000
0100
0000
1000
0001
,
0000
0010
0100
1000
,
0000
0001
0010
0100
,
1000
0000
0001
0000
0010
0000
0100
0001
;

//--------------- dance-single - B. M'Rey ----------------
#NOTES:
     dance-single:
     B. M'Rey:
     Challenge:
     13:
     0.862,1,0.027,0.292,0.912:
0000
0000
0000
0000
,
0000
0000
0000
0000
,
0000
0000
0000
0000
,
0000
0000
0000
0000
,
0000
0000
0000
0000
,
0000
0000
0000
0000
,
0000
0000
0000
0000
,
0000
0000
0000
0000
,
2000
0000
0000
0000
,
0000
0000
0000
0000
,
3002
0000
0000
0000
,
0203
0000
0000
0000
,
0320
0000
0000
0000
,
0000
0000
0000
0000
,
2030
0000
0000
0000
,
3002
0000
0000
0000
,
1003
0010
0100
0001
,
0010
1000
0100
1000
,
0010
0001
0010
0001
,
0100
0010
1000
0100
,
0001
0010
0001
0100
,
0010
1000
0010
0100
,
0001
0010
0001
0100
,
0010
1000
0100
0010
,
1000
0100
1000
0100
0001
0010
0001
0010
,
0100
0010
0100
1000
0100
1000
0100
0001
,
0100
0001
0010
0100
0010
0100
0010
1000
,
0010
1000
0001
0100
0001
0100
0010
1000
,
0010
1000
0100
0010
0100
0010
0001
0010
,
0001
0010
0100
0010
0100
0010
1000
0100
,
1000
0100
0001
1000
0001
1000
0001
0010
,
0001
0010
0100
0010
0100
0010
0001
0010
,
0001
1000
0100
0000
0001
0000
0010
0000
,
0100
0000
1000
0000
0001
0000
0001
0100
,
0010
1000
0001
0010
,
0100
0000
0010
0000
1000
0000
0001
0010
,
0001
0000
0010
0100
0010
0000
1000
0001
,
1000
0000
0010
0100
0001
0000
0010
1000
,
0100
0001
0010
0001
1000
0010
0100
0001
,
0010
0100
0001
1000
0010
0100
0001
1000
0010
0100
0001
1000
0010
0100
0001
1000
,
0100
1000
0100
1000
0100
1000
0100
1000
0100
1000
0100
1000
0100
1000
0100
1000
,
0100
0001
0100
0001
0100
0001
0100
0001
0100
0001
0100
0001
0100
0001
0100
0001
,
0100
0010
1000
0010
1000
0010
1000
0010
1000
0010
1000
0010
1000
0010
1000
0010
,
1000
0100
0001
0100
0001
0100
0001
0100
0001
0100
0001
0100
0001
0100
0001
0100
,
0001
1000
0001
1000
0001
1000
0001
1000
0001
1000
0001
1000
0001
1000
0001
1000
,
0010
0100
0010
0100
0010
0100
0010
0100
0010
0100
0010
0100
0010
0100
0010
0100
,
0010
0001
0010
0001
0010
0001
0010
0001
0010
0001
0010
0001
0010
0001
0010
0001
,
0200
0302
0023
0230
,
1300
0001
0010
0100
0010
1000
0100
0001
,
1000
0001
1000
0000
0010
0100
0010
0000
0001
0010
0100
0000
1000
0100
0010
0000
,
0001
1000
0010
0100
0001
0010
0001
1000
,
0010
0100
1000
0000
0010
0100
0010
0000
0001
0010
1000
0000
0010
0100
0001
0000
,
0010
1000
0010
0100
0001
0010
0001
0000
,
0010
1000
0001
0010
0001
0100
0000
0000
,
0020
1000
0001
1000
,
0031
1000
0001
1000
0001
1000
0001
1000
0001
1000
0001
1000
0001
1000
0001
1000
,
0001
0010
0100
0001
1000
0010
0100
0001
,
0010
1000
0100
0001
0010
0000
0100
0000
0001
0010
0001
0010
0001
0000
0100
0000
,
0010
1000
0001
0010
0001
0100
0010
1000
,
0100
0010
0100
0010
0100
0000
0010
0000
0001
0100
0001
0100
0001
0000
0010
0000
,
1000
0100
0001
0010
0001
0100
0010
0100
,
0001
0000
1000
0000
0001
0000
0010
0000
0100
0010
0100
0010
0100
0000
0010
0000
,
0002
0010
1000
0010
,
1003
0101
0110
0101
,
0010
1000
0010
1000
0010
1000
0010
1000
0010
1000
0010
1000
0010
1000
0010
1000
,
0010
0001
0010
0001
0010
0001
0010
0001
0010
0001
0010
0001
0010
0001
0010
0001
,
1000
0001
1000
0001
1000
0001
1000
0001
1000
0001
1000
0001
1000
0001
1000
0001
,
1000
0010
1000
0010
1000
0010
1000
0010
1000
0010
1000
0010
1000
0010
1000
0010
,
0100
0010
0100
0010
0100
0010
0100
0010
0100
0010
0100
0010
0100
0010
0100
0010
,
0100
0001
0100
0001
0100
0001
0100
0001
0100
0001
0100
0001
0100
0001
0100
0001
,
0010
0100
0010
0100
0010
0100
0010
0100
0010
0100
0010
0100
0010
0100
0010
0100
,
0010
1000
0010
1000
0010
1000
0010
1000
0010
1000
0010
1000
0010
1000
0010
1000
,
0100
1000
0100
1000
0100
1000
0100
1000
0100
1000
0100
1000
0100
1000
0100
1000
,
0100
0010
0100
0010
0100
0010
0100
0010
0100
0010
0100
0010
0100
0010
0100
0010
,
0100
0001
0100
0001
0100
0001
0100
0001
0100
0001
0100
0001
0100
0001
0100
0001
,
0010
0001
0010
0001
0010
0001
0010
0001
0010
0001
0010
0001
0010
0001
0010
0001
,
1000
0001
1000
0001
1000
0001
1000
0001
1000
0001
1000
0001
1000
0001
1000
0001
,
1000
0010
1000
0010
1000
0010
1000
0010
1000
0010
1000
0010
1000
0010
1000
0010
,
1000
0100
0010
0001
0010
0100
1000
0100
0010
0001
0010
0100
1000
0100
0010
0001
,
1000
0001
0010
0100
,
0001
0100
0001
0100
0001
0100
0001
0100
0001
0100
0001
0100
0001
0100
0001
0100
,
0001
0010
0001
0010
0001
0010
0001
0010
0001
0010
0001
0010
0001
0010
0001
0010
,
0001
1000
0100
1000
0100
1000
0100
1000
0100
1000
0100
1000
0100
1000
0100
1000
,
0100
0001
0010
0001
0010
0001
0010
0001
0010
0001
0010
0001
0010
0001
0010
0001
,
0010
0100
0010
0100
0010
0100
0010
0100
0010
0100
0010
0100
0010
0100
0010
0100
,
1000
0001
1000
0001
1000
0001
1000
0001
1000
0001
1000
0001
1000
0001
1000
0001
,
1000
0010
1000
0010
1000
0010
1000
0010
1000
0010
1000
0010
1000
0010
1000
0010
,
0100
1000
0100
1000
0100
1000
0100
1000
0100
1000
0100
1000
0100
1000
0100
1000
,
0100
0001
0100
0001
0100
0001
0100
0001
0100
0001
0100
0001
0100
0001
0100
0001
,
0100
0010
1000
0010
1000
0010
1000
0010
1000
0010
1000
0010
1000
0010
1000
0010
,
1000
0100
0001
0100
0001
0100
0001
0100
0001
0100
0001
0100
0001
0100
0001
0100
,
0001
1000
0001
1000
0001
1000
0001
1000
0001
1000
0001
1000
0001
1000
0001
1000
,
0010
0100
0010
0100
0010
0100
0010
0100
0010
0100
0010
0100
0010
0100
0010
0100
,
0010
0001
0010
0001
0010
0001
0010
0001
0010
0001
0010
0001
0010
0001
0010
0001
,
1000
0010
1000
0010
1000
0010
1000
0010
1000
0010
1000
0010
1000
0010
1000
0010
,
1000
0100
1000
0100
1000
0100
1000
0100
1000
0100
1000
0100
1000
0100
1000
0100
,
1000
0001
0010
0001
0010
0001
0010
0000
0010
0001
0010
0001
0010
0001
0010
0000
,
0100
1000
0100
1000
0100
1000
0100
1000
0100
1000
0100
1000
0100
1000
0100
1000
,
0100
0010
0100
0010
0100
0010
0100
0000
0100
0010
0100
0010
0100
0010
0100
0000
,
0001
1000
0001
1000
0001
1000
0001
1000
0001
1000
0001
1000
0001
1000
0001
1000
,
0010
0100
0001
1000
0001
0010
1000
0100
,
0020
0032
0203
0320
,
0130
0010
0001
1000
0100
0001
0100
0010
,
0002
0023
0230
2300
,
3100
0010
0001
1000
0100
0001
0100
0000
,
0001
0010
0100
0001
0100
1000
0000
0000
,
0002
0000
0000
0000
,
0103
0010
0100
0010
0100
0010
0100
0010
0100
0010
0100
0010
0100
0010
0100
0010
,
0100
0001
1000
0100
0010
0001
1000
0100
,
0001
1000
0001
1000
0100
0001
0100
1000
,
0001
0010
0100
0001
0100
1000
0001
0010
,
1000
0001
1000
0001
0100
1000
0100
0001
,
0010
1000
0100
0001
0100
1000
0001
1000
,
0100
0000
0010
0000
0100
0000
0001
0000
1000
0001
1000
0001
1000
0000
0001
0000
,
0200
0001
0010
0001
,
0310
1100
1001
1100
,
0001
0010
0001
0010
0001
0010
0001
0010
0001
0010
0001
0010
0001
0010
0001
0010
,
0001
0100
0001
0100
0001
0100
0001
0100
0001
0100
0001
0100
0001
0100
0001
0100
,
0010
0100
0010
0100
0010
0100
0010
0100
0010
0100
0010
0100
0010
0100
0010
0100
,
0010
0001
0010
0001
0010
0001
0010
0001
0010
0001
0010
0001
0010
0001
0010
0001
,
1000
0001
1000
0001
1000
0001
1000
0001
1000
0001
1000
0001
1000
0001
1000
0001
,
1000
0100
1000
0100
1000
0100
1000
0100
1000
0100
1000
0100
1000
0100
1000
0100
,
0001
1000
0001
1000
0001
1000
0001
1000
0001
1000
0001
1000
0001
1000
0001
1000
,
0001
0010
0001
0010
0001
0010
0001
0010
0001
0010
0001
0010
0001
0010
0001
0010
,
1000
0010
1000
0010
1000
0010
1000
0010
1000
0010
1000
0010
1000
0010
1000
0010
,
1000
0001
1000
0001
1000
0001
1000
0001
1000
0001
1000
0001
1000
0001
1000
0001
,
1000
0100
1000
0100
1000
0100
1000
0100
1000
0100
1000
0100
1000
0100
1000
0100
,
0001
0100
0001
0100
0001
0100
0001
0100
0001
0100
0001
0100
0001
0100
0001
0100
,
2000
3001
0020
0130
,
2000
3001
0002
0103
,
0020
0130
2000
3001
,
0010
1000
0001
1000
,
0002
2003
3020
0230
0302
0023
0032
0203
,
2300
3020
0230
0300
0002
0003
0020
0230
,
2300
3002
0023
0032
0203
0320
2030
3200
,
0320
0032
0023
0030
0200
0300
2000
3000
,
0002
0023
0032
0203
0320
2030
3200
0320
,
0032
0023
0230
0300
2000
3000
0002
0023
,
0230
0320
0032
2003
3020
0230
0320
0032
,
2003
3020
0230
0300
0002
0003
0020
0230
,
1300
0001
0010
0001
0100
0010
1000
0100
,
0001
0010
0100
0000
1000
0000
0001
0010
,
0100
0010
1000
0100
0001
1000
0010
0100
,
0001
0010
0100
1000
0010
0000
0100
0001
,
0010
1000
0100
0010
0001
0010
0100
0010
,
1000
0100
0001
0000
0010
0000
0100
1000
,
0100
0001
0010
1000
0100
0001
0010
0100
,
0010
0001
1000
0001
1000
0001
1000
0001
1000
0001
1000
0001
1000
0001
1000
0000
,
0100
1000
0100
1000
0100
1000
0100
1000
0100
1000
0100
1000
0100
1000
0100
1000
,
0100
0001
0100
0001
0100
0001
0100
0001
0100
0001
0100
0001
0100
0001
0100
0001
,
0100
0010
1000
0010
1000
0010
1000
0010
1000
0010
1000
0010
1000
0010
1000
0010
,
1000
0100
0001
0100
0001
0100
0001
0100
0001
0100
0001
0100
0001
0100
0001
0100
,
0001
1000
0001
1000
0001
1000
0001
1000
0001
1000
0001
1000
0001
1000
0001
1000
,
0010
0100
0010
0100
0010
0100
0010
0100
0010
0100
0010
0100
0010
0100
0010
0100
,
0010
0001
0010
0001
0010
0001
0010
0001
0010
0001
0010
0001
0010
0001
0010
0001
,
0010
0100
0010
0100
0010
0100
0010
0100
0010
0100
0010
0100
0010
0100
0010
0100
,
0010
0001
0010
0100
0010
1000
0100
0001
,
1000
0100
0010
0010
0001
0100
1000
0010
,
0001
1000
0010
0100
0001
0010
0001
1000
,
0010
1000
0010
0100
0001
1000
0010
0001
,
0010
1000
0010
0100
0001
0010
0001
1000
,
0010
1000
0001
0010
0001
0100
0001
0010
,
0100
0010
1000
0100
0001
0010
1000
0010
,
1000
0100
0001
0100
0010
0001
0010
1000
,
0001
0010
1000
0100
,
0001
0010
1000
0010
,
0001
1000
0100
0001
,
1000
0010
1000
0001
,
1000
0100
0001
0010
,
1000
0100
1000
0001
,
0010
1000
0001
1000
,
0010
0001
1000
0100
,
0001
0000
0010
0000
1000
0000
0100
0001
,
0000
1000
0010
0001
,
0000
0000
1000
0000
0001
0000
0010
1000
,
0000
0100
0001
0000
1000
0000
2020
0000
,
0000
0000
3031
0000
0100
0000
0010
1000
,
0000
0001
1000
0100
,
0000
1000
0001
0010
,
1000
0001
0100
0000
0010
0001
1000
0100
,
0001
0000
0010
0000
0100
0000
1000
0001
,
0000
0010
0100
1000
,
0000
0000
0001
0000
0010
0000
0100
0001
,
0000
0010
1000
0000
0001
0000
2002
0000
,
0000
0000
3013
0000
0100
0000
1000
0001
,
0000
0010
0100
1000
,
0000
0001
0010
0100
,
1000
0000
0001
0000
0010
0000
0100
0001
;
