#VERSION:0.83;
#TITLE:DISCOLAND;
#ARTIST:FLIP & FILL Feat. KAREN PARRY;
#GENRE:TRANCE;
#CREDIT:B. M'Rey;
#MUSIC:DISCOLAND.ogg;
#BANNER:DISCOLAND.png;
#BACKGROUND:DISCOLAND-bg.png;
#CDTITLE:CDTITLES/Super Best Trance Presents Natsutora 2007.png;
#SAMPLESTART:59.624;
#SAMPLELENGTH:15;
#OFFSET:-0.032;
#BPMS:0=144.986,133=72.493,137=144.986;
#STOPS:68=1.241;
#DISPLAYBPM:144;

//--------------- dance-single - B. M'Rey ----------------
#NOTEDATA:;
#STEPSTYPE:dance-single;
#DESCRIPTION:B. M'Rey;
#CREDIT:B. M'Rey;
#DIFFICULTY:Beginner;
#METER:1;
#RADARVALUES:0,0,0,0,0;
#NOTES:
0000
0000
0000
0000
,
0000
0000
0000
0000
,
0000
0000
0000
0000
,
0000
0000
0000
0000
,
0000
0000
0000
0000
,
0000
0000
0000
0000
,
0000
0000
0000
0000
,
0000
0000
0000
0000
,
0000
0000
0000
0000
,
1001
0000
0000
0000
,
0000
0000
0000
0000
,
0110
0000
0000
0000
,
0000
0000
0000
0000
,
0011
0000
0000
0000
,
1100
0000
0000
0000
,
0110
0000
0000
0000
,
1001
0000
0000
0000
,
1001
0100
0000
0000
,
0000
0010
0000
0000
,
0000
1000
0000
0000
,
0000
0001
0000
0000
,
0000
0010
0000
0000
,
0000
0001
0000
0000
,
0000
0100
0000
0000
,
0000
0010
0000
0000
,
0000
1000
0000
0000
,
0000
0100
0000
0000
,
0000
0001
0000
0000
,
0000
0010
0000
0000
,
0000
0001
0000
0000
,
0000
0100
0000
0000
,
0000
0010
0000
0000
,
0000
1000
0000
0000
,
0000
1001
0000
0000
,
0000
1000
0000
0000
,
0000
0000
0000
0000
,
0000
0001
0000
0000
,
0000
0000
0000
0000
,
0000
0100
0000
0000
,
0000
0000
0000
0000
,
0000
0010
0000
0000
,
0000
0000
0000
0000
,
0000
1001
0000
0000
,
0000
0000
0000
0000
,
0000
0100
0000
0000
,
0000
0000
0000
0000
,
0000
0010
0000
0000
,
0000
0000
0000
0000
,
0000
0100
0000
0000
,
0000
0000
0000
0000
,
0000
0011
0000
0000
,
0000
0000
0000
0000
,
0000
1000
0000
0000
,
0000
0000
0000
0000
,
0000
0100
0000
0000
,
0000
0000
0000
0000
,
0000
0001
0000
0000
,
0000
0000
0000
0000
,
0000
0010
0000
0000
,
0000
0000
0000
0000
,
0000
1000
0000
0000
,
0000
0100
0000
0000
,
0000
1001
0000
0000
,
0000
0000
0000
0000
,
0000
0010
0000
0000
,
0000
0100
0000
0000
,
0000
1010
0000
0000
;

//--------------- dance-single - B. M'Rey ----------------
#NOTEDATA:;
#STEPSTYPE:dance-single;
#DESCRIPTION:B. M'Rey;
#CREDIT:B. M'Rey;
#DIFFICULTY:Easy;
#METER:5;
#RADARVALUES:0,0,0,0,0;
#NOTES:
0000
0000
0000
0000
,
0000
0000
0000
0000
,
0000
0000
0000
0000
,
0000
0000
0000
0000
,
0000
0000
0000
0010
,
0100
0000
0000
0000
,
0000
0000
0000
0001
,
0010
0000
0000
0000
,
0000
0000
0000
0000
,
1100
0000
0010
0000
,
0100
0000
0001
0000
,
0101
0000
0010
0000
,
1000
0000
0010
0000
,
0110
0000
0011
0000
,
1100
0000
0110
0000
,
0101
0000
1010
0000
,
0101
0000
1010
0000
,
1001
0100
0000
0010
,
0000
0100
0000
0000
,
0000
1000
0000
0100
,
0000
1000
0000
0000
,
0000
0001
0000
0010
,
0000
0001
0000
0000
,
0000
0100
0000
0010
,
0000
0100
0000
0010
,
0000
0001
0010
0001
,
0000
1000
0100
1000
,
0000
0010
0000
0100
,
0000
0001
0000
1000
,
0000
0010
0100
0010
,
0000
0001
0010
0001
,
0000
1000
0000
0010
,
0000
0100
0010
0100
,
0000
0110
0000
0000
,
0000
1001
0000
0001
,
0000
1000
0000
0001
,
1000
0010
0000
0100
,
0000
0010
0000
1000
,
0100
1000
0000
0001
,
0000
0010
0000
0100
,
0001
0100
0000
0010
,
0000
1000
0000
0010
,
0000
0100
0010
0100
,
0000
0001
0010
0001
,
0000
1000
0000
0010
,
0000
0100
0000
0010
,
0000
1000
0100
1000
,
0000
0001
0010
0001
,
0000
0100
0000
0010
,
0000
1000
0000
0001
,
0000
0101
0000
0110
,
0000
1000
0000
0001
,
1000
0001
0000
0110
,
0000
1010
0000
0001
,
0010
0100
0000
0011
,
0000
0110
0000
1000
,
0010
0100
0000
0101
,
0000
0110
0000
1010
,
0000
0100
0010
0100
,
0000
0001
0010
0001
,
0000
1000
0100
1000
,
0000
0010
0100
0010
,
0000
1001
0000
0000
,
0000
0100
0000
0000
,
0000
0001
0000
0000
,
0000
0010
0000
0000
,
0000
1001
0000
0000
;

//--------------- dance-single - B. M'Rey ----------------
#NOTEDATA:;
#STEPSTYPE:dance-single;
#DESCRIPTION:B. M'Rey;
#CREDIT:B. M'Rey;
#DIFFICULTY:Medium;
#METER:7;
#RADARVALUES:0,0,0,0,0;
#NOTES:
0000
0000
0000
0000
,
0000
0000
0000
0000
,
0000
0000
0000
0000
,
0000
0000
0000
0000
,
0000
0000
0000
0001
,
1000
0000
0000
0000
,
0000
0000
0000
0001
,
1000
0000
0010
0000
,
0000
0000
0000
0000
,
0110
0000
1001
0000
,
1001
0000
1010
0000
,
0110
0000
0101
0000
,
1010
0000
1010
0000
,
0110
0000
1100
0000
,
0011
0000
0011
0000
,
0110
1100
1001
0101
,
1010
1010
1001
1001
,
0110
0000
0010
0000
0100
0000
0001
0010
,
0100
0010
1000
0100
,
0010
0001
0100
0000
1000
0000
0100
0000
,
1000
0001
0010
0000
1000
0100
0010
0000
,
0100
0010
0001
0000
1000
0000
0010
0000
,
1000
0001
0100
0000
0010
0000
0100
0000
,
0010
0000
0100
0001
1000
0000
0010
0000
,
0100
0000
0001
1000
0010
0000
0001
0100
,
1000
0000
0001
0000
0010
0000
0100
0010
,
1000
0100
0010
0100
,
0010
0100
0001
0000
1000
0000
0001
0000
,
0100
0010
0001
0000
0010
1000
0100
0000
,
0010
0001
0100
0000
1000
0000
0100
0000
,
0010
0001
0100
0010
,
1000
0010
0100
0000
0010
1000
0001
0000
,
0010
0001
0100
0000
1001
0000
0011
0000
,
0110
0100
0010
0001
,
0100
0001
1000
0001
,
1000
0000
0001
0000
0100
0000
0010
1000
,
0100
0010
0100
0001
,
0010
0000
0001
0000
0010
0000
0001
0100
,
1000
0010
1000
0010
,
1000
0000
0001
0000
0100
0000
0001
1000
,
0100
0000
0001
0100
0010
0000
0100
1000
,
0010
0000
0100
0001
0010
0000
0001
0100
,
1000
0001
0010
0001
,
0010
0000
0100
0000
0010
0000
0100
0001
,
1000
0100
0010
0001
,
0010
0000
0001
0000
0010
0000
0100
0001
,
1000
0100
1000
0001
,
0100
0000
0001
0000
0100
0000
0001
0010
,
1000
0000
0010
0100
1000
0000
0010
0100
,
1000
0000
0001
0010
0100
0000
0001
0100
,
1000
0001
1000
0100
,
0010
0000
0001
0000
0100
0000
0001
0010
,
0100
0001
0010
0100
,
1000
0000
0100
0000
1000
0000
0100
0001
,
0010
0001
0100
0001
,
1000
0000
0010
0000
1000
0000
0010
0001
,
0100
0000
0010
1000
0100
0000
0001
0010
,
1000
0101
1001
0011
,
0110
0000
0100
0001
0010
0000
0100
1000
,
0010
0000
0001
0010
1000
0000
0001
0000
,
0100
0000
0001
0100
0010
0000
0100
0001
,
0010
0000
0100
0010
1000
0000
0100
0000
,
1000
1001
0000
0001
,
0000
0010
0000
0100
,
0000
1000
0000
0100
,
0000
0001
0010
0001
,
0010
1100
0000
0000
;

//--------------- dance-single - B. M'Rey ----------------
#NOTEDATA:;
#STEPSTYPE:dance-single;
#DESCRIPTION:B. M'Rey;
#CREDIT:B. M'Rey;
#DIFFICULTY:Hard;
#METER:11;
#RADARVALUES:0,0,0,0,0;
#NOTES:
0000
0000
0000
0000
,
0000
0000
0000
0000
,
0000
0000
0000
0000
,
0000
0000
0000
0000
,
0000
0000
0000
0001
,
0020
0000
0000
0031
,
0020
0000
0000
0130
,
1000
0000
0000
0020
0000
0000
0031
0000
,
0200
0000
0000
0320
0000
0000
0000
0000
,
1030
0000
0001
1000
0010
0000
0001
0010
,
1000
0000
0001
0010
0100
0000
0110
0000
,
1001
0000
0100
0001
0010
0000
0100
0001
,
0010
0000
0100
0001
1000
0000
0110
0000
,
0101
0010
0101
0001
,
0110
0001
0110
0001
,
1010
0110
0011
0101
,
0011
1100
0110
0011
,
0110
0000
0110
0000
1001
0000
0100
1000
,
0100
1000
0000
0100
0000
0001
0000
1000
,
0010
0100
0010
0000
1000
0000
0100
1000
,
0001
1000
0000
0010
0001
0000
0010
0000
,
0001
0010
0100
0000
1100
0000
0100
0010
,
0001
1000
0000
0100
0000
0010
0000
0100
,
0001
0000
0010
1000
0010
1000
0000
0100
,
0000
0010
0100
1000
0000
0100
0010
0000
,
0110
0000
0011
0000
1100
0000
0001
1000
,
0010
0100
0000
1000
0000
0001
0000
0100
,
0010
0100
0001
0000
0100
0000
0100
1000
,
0100
0010
0000
1000
0001
0000
0100
1000
,
0001
0010
0100
1000
0000
0100
0010
1000
,
0000
1000
0100
0000
0001
0100
0010
0000
,
0011
1100
0011
0101
,
0110
0000
0001
0100
0001
1000
0100
1000
,
0010
1000
0101
0100
0010
1000
0110
0100
,
1010
1000
0001
1000
0001
1000
0001
0010
,
0100
0010
0100
0010
0001
1000
0001
1000
,
0001
0010
0100
0010
0100
0010
0001
1000
,
0001
1000
0001
0100
0010
1000
0010
1000
,
0100
1000
0100
0010
0100
0010
0001
0010
,
0001
0100
0001
0100
0010
0100
0010
1000
,
0010
1000
0100
1000
0001
0100
0001
0100
,
0001
0000
1000
0000
0010
0000
0000
1000
0000
0000
1000
0000
0001
0000
0000
0001
,
0000
0010
0001
1000
0010
0100
0010
1000
,
0010
1000
0001
1000
0001
0100
0001
0100
,
0010
0100
0010
1000
0010
1000
0001
1000
,
0001
0100
0001
0100
0010
1000
0100
1000
,
0001
0100
0010
0100
0010
0100
0001
0010
,
0100
0010
0100
0010
0001
0100
0001
1000
,
0010
1000
0001
1000
0100
0010
0001
0010
,
0001
0000
1000
0000
0001
0000
0000
1000
0000
0000
1000
0000
0010
0000
0000
0100
,
0000
0100
0001
0100
0010
1000
0010
1000
,
0010
0100
0001
0100
0001
1000
0001
0010
,
0100
0010
0100
0010
0001
1000
0001
1000
,
0001
0010
0100
0010
0001
0010
0001
1000
,
0001
1000
0010
1000
0010
0100
0010
1000
,
0001
1000
0100
0010
0100
1000
0100
1000
,
0001
0010
0001
0010
0001
0100
0010
0100
,
0010
0100
0001
1000
0001
1000
0001
0000
,
0110
0000
0010
0100
0001
0010
0001
0010
,
0001
1000
0100
1000
0100
1000
0001
0010
,
0001
0010
0100
0010
0100
1000
0100
1000
,
0010
1000
0001
0010
0100
0010
0001
1000
,
0001
1000
0001
0000
0100
0000
0001
0000
,
0010
0001
0010
0100
,
1000
0100
1000
0100
,
0010
0001
0010
0001
,
0010
1100
0000
0000
;

//--------------- dance-double - B. M'Rey ----------------
#NOTEDATA:;
#STEPSTYPE:dance-double;
#DESCRIPTION:B. M'Rey;
#CREDIT:B. M'Rey;
#DIFFICULTY:Easy;
#METER:4;
#RADARVALUES:0,0,0,0,0;
#NOTES:
00000000
00000000
00000000
00000000
,
00000000
00000000
00000000
00000000
,
00000000
00000000
00000000
00000000
,
00000000
00000000
00000000
00000000
,
00000000
00000000
00000000
00001000
,
00020000
00000000
00000000
00000000
,
00000000
00030000
00000000
00000100
,
00000020
00000000
00000000
00000000
,
00000000
00000000
00000030
00000000
,
00001010
00000000
00010000
00000000
,
00000100
00000000
00001000
00000100
,
00001100
00000000
00000010
00000000
,
00010000
00000000
00001000
00010000
,
00101000
00000000
00101000
00000000
,
00010010
00000000
00001010
00000000
,
00011000
00000000
01001000
00000000
,
01001000
00000000
01001000
00000000
,
00110000
10000000
00000000
00100000
,
00000000
01000000
00000000
00000000
,
00000000
00010000
00000000
10000000
,
00000000
00100000
00000000
00000000
,
00000000
10000000
00000000
01000000
,
00000000
00100000
00000000
00000000
,
00000000
00010000
00000000
00100000
,
00000000
00010000
00000000
01000000
,
00000000
00010000
10000000
00010000
,
00000000
01000000
00000000
00001000
,
00000000
00010000
00000100
00010000
,
00000000
00000010
00000000
00000100
,
00000000
00000001
00000010
00000001
,
00000000
00001000
00000100
00001000
,
00000000
00000010
00000000
00000100
,
00000000
00000001
00001000
00000100
,
00000000
00011000
00000000
00000000
,
00000000
00010000
00000000
00010000
,
00000000
00001000
00000000
00001000
,
00000000
01000000
00000000
01000000
,
00000000
00100000
00000000
00100000
,
00000000
10000000
00000000
10000000
,
00000000
01000000
00000000
01000000
,
00000000
00100000
00000000
00100000
,
00000000
00010000
00000000
00010000
,
00000000
00100000
00000000
00100000
,
00000000
00001000
00000000
00001000
,
00000000
00010000
00000000
00010000
,
00000000
00000100
00000000
00000100
,
00000000
00000010
00000000
00000010
,
00000000
00000001
00000000
00000001
,
00000000
00001000
00000000
00000100
,
00000000
00010000
00000100
00010000
,
00000000
00010010
00000000
00001001
,
00000000
00010100
00000000
01001000
,
00000000
00101000
00000000
00010100
,
00000000
00001010
00000000
00011000
,
00000000
01001000
00000000
10010000
,
00000000
01001000
00000000
00010010
,
00000000
01001000
00000000
10010000
,
00000000
01001000
00000000
00010100
,
00000000
00010000
00000000
00001000
,
00000000
01000000
00000000
00100000
,
00000000
10000000
00000000
00010000
,
00000000
01000000
00000000
00010000
,
00000000
01100000
00000000
00000000
,
00000000
01001000
00000000
00000000
,
00000000
00010100
00000000
00000000
,
00000000
00001100
00000000
00000000
,
00000000
00000011
00000000
00000000
;

//--------------- dance-double - B. M'Rey ----------------
#NOTEDATA:;
#STEPSTYPE:dance-double;
#DESCRIPTION:B. M'Rey;
#CREDIT:B. M'Rey;
#DIFFICULTY:Medium;
#METER:7;
#RADARVALUES:0,0,0,0,0;
#NOTES:
00000000
00000000
00000000
00000000
,
00000000
00000000
00000000
00000000
,
00000000
00000000
00000000
00000000
,
00000000
00000000
00000000
00000000
,
00000000
00000000
00000000
00001000
,
01000000
00000000
00000000
00010000
,
10000000
00000000
00000000
00010000
,
10000000
00000000
00010000
00000000
,
00000000
00000000
00000000
00000000
,
10010000
00000000
11000000
00000000
,
10100000
00000000
01100000
00000000
,
01001000
00000000
00011000
00000000
,
00101000
00000000
00110000
00000000
,
00011000
00000000
00010100
00000000
,
00010100
00000000
00001010
00000000
,
00000110
00000110
00000011
00000011
,
00001100
00001100
00001100
00001100
,
00010010
00000010
00010000
00000010
,
00010000
00001000
00100000
00001000
,
01000000
00010000
00100000
00001000
,
01000000
00010000
01000000
00001000
,
01000000
00010000
00100000
00001000
,
01000000
00001000
00010000
00001000
,
00100000
00010000
01000000
00001000
,
00010000
00001000
00010000
00001000
,
00100000
00000000
01000000
10000000
00100000
00000000
01000000
00010000
,
10000000
00010000
00100000
00001000
,
00100000
00000000
00001000
00100000
01000000
00000000
00010000
01000000
,
10000000
01000000
10000000
00010000
,
10000000
00000000
00010000
01000000
00001000
00000000
00010000
00100000
,
00001000
00000000
00100000
00010000
00001000
00000000
00000010
00001000
,
00010000
00010100
00010010
00000110
,
00001100
00000000
00000010
00000001
00000100
00000000
00001100
00000000
,
00001001
00000001
00001000
00000100
,
00000010
00000100
00010000
00000100
,
00010000
00000000
00000100
00000000
00000010
00000000
00000001
00001000
,
00000010
00010000
00000010
00001000
,
00010000
00000000
00001000
00000000
00010000
00000000
00001000
01000000
,
00010000
00000100
00010000
00000100
,
00010000
00000000
00000010
00000000
00000100
00000000
00000010
00001000
,
00000100
00000000
00000001
00000100
00001000
00000000
00000100
00010000
,
00001000
00000000
01000000
00100000
10000000
00000000
00100000
01000000
,
10000000
00010000
00100000
00010000
,
00100000
00000000
01000000
00000000
00100000
00000000
01000000
00001000
,
00100000
00010000
01000000
00001000
,
01000000
00000000
00001000
00000000
01000000
00000000
00010000
00001000
,
00010000
00000010
00010000
00000100
,
00001000
00000000
00000100
00000000
00001000
00000000
00000100
00000010
,
00001000
00000000
00000010
00000001
00001000
00000000
00000010
00010000
,
00001000
00000000
00000100
00010000
00001000
00000000
00000010
00001000
,
00010000
00000010
00010000
00001000
,
01000000
00000000
00010000
00000000
00100000
00000000
00010000
10000000
,
01000000
00100000
10000000
00010000
,
01000000
00000000
00010000
00000000
01000000
00000000
00010000
00001000
,
00100000
00001000
00010000
00001000
,
01000000
00000000
00010000
00000000
01000000
00000000
00010000
00001000
,
00010000
00000000
00000100
00001000
00000001
00000000
00000100
00000010
,
00001000
00001100
00010100
00001100
,
00000011
00000000
00000010
00000100
00001000
00000000
00000001
00000100
,
00000010
00000000
00000001
00000010
00001000
00000000
00000100
00000000
,
00010000
00000000
00000100
00010000
00000010
00000000
00010000
00001000
,
00100000
00000000
01000000
00100000
10000000
00000000
01000000
00000000
,
10000000
10010000
00000000
00010000
,
00000000
00100000
00000000
01000000
,
00000000
10000000
00000000
01000000
,
00000000
00010000
00100000
00010000
,
00100000
01001000
00000000
00000000
;

//--------------- dance-double - B. M'Rey ----------------
#NOTEDATA:;
#STEPSTYPE:dance-double;
#DESCRIPTION:B. M'Rey;
#CREDIT:B. M'Rey;
#DIFFICULTY:Hard;
#METER:11;
#RADARVALUES:0,0,0,0,0;
#NOTES:
00000000
00000000
00000000
00000000
,
00000000
00000000
00000000
00000000
,
00000000
00000000
00000000
00000000
,
00000000
00000000
00000000
00000000
,
00000000
00000000
00000000
00010000
,
00000200
00000000
00000000
00010300
,
00000200
00000000
00000000
00001300
,
00000001
00000000
00000000
00000020
00000000
00000000
00001030
00000000
,
00000020
00000000
00000000
00020030
00000000
00000000
00000000
00000000
,
00031000
00001000
01000000
00001000
,
01000000
00001000
00010000
00000100
,
00011000
00001000
00100000
00010000
,
01000000
00100000
01000000
00100000
,
01010000
00010000
10100000
00100000
,
01010000
00100000
01100000
00001000
,
00010010
00000010
00010010
00000010
,
00001001
00010100
00001100
00001001
,
00001100
00000000
00001100
00000000
00000011
00000000
00000100
00001000
,
00000100
00001000
00000000
00000100
00000000
00000010
00000000
00010000
,
00001000
00100000
00001000
00000000
01000000
00000000
00100000
01000000
,
00010000
01000000
00000000
00100000
00010000
00000000
00100000
00000000
,
00010000
00100000
01000000
00000000
11000000
00000000
01000000
00100000
,
00010000
10000000
00000000
01000000
00000000
00010000
00000000
01000000
,
00001000
00000000
00100000
00010000
00000010
00010000
00000000
00000100
,
00000000
00000010
00000100
00001000
00000000
00000100
00010000
00000000
,
00010100
00000000
00011000
00000000
00001100
00000000
00000001
00001000
,
00000010
00000001
00000000
00001000
00000000
00000010
00000000
00010000
,
00000100
00010000
00001000
00000000
00010000
00000000
00010000
00100000
,
00010000
00001000
00000000
00100000
00010000
00000000
01000000
10000000
,
00010000
00100000
01000000
10000000
00000000
01000000
00100000
10000000
,
00000000
10000000
01000000
00000000
00010000
01000000
10000000
00000000
,
10010000
01001000
00010010
00001010
,
00001100
00000000
00000001
00001000
00000001
00000010
00000100
00000010
,
00000001
00000010
00001100
00001000
00000010
00010000
00001010
00001000
,
00010010
00010000
00000100
00010000
00000100
00010000
00000100
00001000
,
00000001
00001000
00000001
00001000
00000100
00010000
00000100
00010000
,
00000100
00001000
00000001
00001000
00000001
00001000
00000010
00010000
,
00000010
00010000
00000010
00001000
00000100
00010000
00000100
00010000
,
00001000
00010000
00001000
01000000
00001000
01000000
00100000
01000000
,
00100000
10000000
00100000
10000000
00010000
10000000
00010000
00100000
,
00010000
00100000
01000000
00100000
00001000
01000000
00001000
01000000
,
00001000
00000000
00010000
00000000
00000100
00000000
00000000
00010000
00000000
00000000
00010000
00000000
00001000
00000000
00000000
00001000
,
00000000
01000000
00001000
00100000
00010000
01000000
00010000
10000000
,
00010000
10000000
00100000
10000000
00100000
01000000
00100000
01000000
,
00001000
01000000
00001000
00010000
00001000
00010000
00000100
00010000
,
00000100
00001000
00000100
00001000
00000001
00000010
00000100
00000010
,
00000001
00001000
00000010
00001000
00000010
00001000
00000100
00010000
,
00000010
00010000
00000010
00010000
00001000
01000000
00001000
00010000
,
00000100
00010000
00001000
00010000
00000100
00000010
00000001
00000010
,
00000001
00000000
00001000
00000000
00000001
00000000
00000000
00001000
00000000
00000000
00001000
00000000
00000010
00000000
00000000
00010000
,
00000000
00010000
00000100
00010000
00001000
01000000
00001000
01000000
,
00001000
00100000
00010000
00100000
00010000
10000000
00010000
01000000
,
00001000
01000000
00001000
01000000
00010000
10000000
00010000
10000000
,
00010000
00100000
01000000
00100000
00001000
00100000
00001000
00010000
,
00001000
00010000
00000100
00010000
00000100
00000010
00000100
00001000
,
00000001
00001000
00000100
00000010
00000100
00010000
00000100
00010000
,
00001000
01000000
00001000
01000000
00001000
00100000
01000000
00100000
,
01000000
00100000
00010000
10000000
00010000
10000000
00010000
00000000
,
01001000
00000000
00001000
01000000
00100000
10000000
00100000
10000000
,
00100000
01000000
00010000
01000000
00010000
01000000
00001000
00010000
,
00001000
00010000
00000100
00010000
00000100
00001000
00000100
00001000
,
00000001
00001000
00000010
00000100
00000001
00000100
00000010
00001000
,
00000010
00001000
00000010
00000000
00000100
00000000
00000010
00000000
,
00010000
00000010
00010000
00001000
,
00100000
00001000
00100000
00001000
,
01000000
00010000
01000000
00010000
,
01000000
10100000
00000000
00000000
;
