#TITLE:Chicken wing;
#ARTIST:BanYa;
#GENRE:OLDIES;
#MUSIC:Chiken wing.ogg;
#BANNER:Chiken wing.png;
#BACKGROUND:Chiken wing-bg.png;
#CDTITLE:./CDTITLES/PUMP IT UP.png;
#SAMPLESTART:4.852;
#SAMPLELENGTH:12;
#OFFSET:-0.052;
#BPMS:0=200.000;
#BGCHANGES:0.000=Chicken Wing.avi=1.000=0=0=1,;

//--------------- dance-single - B. M'Rey ----------------
#NOTES:
     dance-single:
     B. M'Rey:
     Beginner:
     4:
     0,0,0,0,0:
0000
0000
0000
0000
,
0000
0000
0000
0000
,
0000
0000
0000
0000
,
1000
0000
0001
0000
,
0010
0000
0100
0000
,
0001
0010
1000
0000
,
0010
0000
0100
0000
,
1000
0100
0010
0000
,
0001
0000
1000
0000
,
0001
0000
0000
0000
,
1000
0000
0001
0000
,
1000
0000
0000
0000
,
0010
0000
0100
0000
,
1000
0100
0010
0000
,
0001
0000
0100
0000
,
0010
0100
1000
0000
,
0010
0000
0100
0000
,
0010
0000
0100
0000
,
0001
0000
1000
0000
,
1001
0000
0000
0000
,
0010
0000
0100
0000
,
0001
0000
0000
0000
,
1000
0000
0010
0000
,
0100
0100
0100
0000
,
0001
0000
0010
0000
,
1000
0000
0000
0000
,
0100
0000
0010
0000
,
1000
0000
0001
0000
,
0100
0000
0010
0000
,
1000
0100
0010
0000
,
0001
0000
0100
0000
,
0010
1000
0100
0000
,
1000
0000
0001
0000
,
1000
0000
0000
0000
,
0001
0000
0000
0000
,
0100
0000
0000
0000
,
0010
0000
0100
0000
,
0010
0000
0100
0000
,
0001
0000
1000
0000
,
0001
0000
0000
0000
,
1000
0000
0000
0000
,
0010
0000
0000
0000
,
0100
0000
0000
0000
,
0010
0000
0000
0000
,
0001
0000
0000
0000
,
1000
0000
0000
0000
,
0010
0000
0000
0000
,
0100
0000
0000
0000
,
0001
1000
0001
1000
,
0001
0100
0010
0100
,
0010
0100
0001
1000
,
0001
0010
0001
0010
,
0100
0010
0100
1000
,
0100
1000
0001
1000
,
0001
0010
0001
0010
,
0200
0000
0000
0000
,
0301
1000
0001
1000
,
0010
0100
0010
0100
,
0001
0100
0001
1000
,
0001
1000
0100
1000
,
0100
0010
0100
0010
,
0001
0010
0001
1000
,
0001
1000
0100
1000
,
0200
0000
0000
0000
,
0301
0000
1000
0000
,
0001
0010
0100
0000
,
0010
0000
1000
0000
,
1000
0100
0010
0000
,
0001
0000
1000
0000
,
0001
0000
0000
0000
,
0001
0000
1000
0000
,
0001
0000
0000
0000
,
0010
0000
0100
0000
,
0010
0000
0000
0000
,
1000
0000
0001
0000
,
1000
0000
0001
0000
,
1001
0000
1001
0000
,
0110
0000
0110
0000
,
2002
0000
0000
0000
,
3003
0000
0000
0000
;

//--------------- dance-single - B. M'Rey ----------------
#NOTES:
     dance-single:
     B. M'Rey:
     Easy:
     7:
     0,0,0,0,0:
0000
0000
0000
0000
,
0000
0000
0000
0000
,
0000
0000
0000
0000
,
1000
0000
0001
0000
,
0100
0010
0100
0001
,
1000
0001
1000
0001
,
0100
0010
0100
0010
,
1000
0001
1000
0001
,
1001
0000
0110
0000
,
0001
0100
1000
0000
,
0110
0000
0101
0000
,
0010
1000
0010
0000
,
1000
0010
1000
0010
,
0100
0001
0100
0001
,
0010
1000
0010
1000
,
0100
0001
0100
0001
,
1000
0000
0010
0000
,
0100
0000
0001
0000
,
0001
0010
0100
1000
,
2002
0000
0000
3003
,
1000
0001
0100
0010
,
1000
0100
0000
0000
,
0001
0100
0010
0000
,
1000
0100
0110
0000
,
0001
0100
0010
0000
,
1000
0010
0100
0000
,
0001
1000
0100
0000
,
0001
1000
0010
0000
,
1000
0001
1000
0001
,
0100
0010
0100
0010
,
1000
0001
1000
0001
,
0100
0010
0100
0010
,
0101
0000
1010
0000
,
0100
0010
0100
0000
,
0100
0000
0010
0000
,
0100
0000
0001
0000
,
1001
0000
1001
0000
,
0100
0010
0100
0010
,
0001
1000
0100
0010
,
0200
0000
0000
0000
,
0301
0000
0010
0000
,
0001
0000
0100
0000
,
0010
0000
1000
0000
,
0100
0000
1000
0000
,
0010
0000
0100
0000
,
0001
0000
0010
0000
,
0001
0000
0100
0000
,
0010
0000
1000
0000
,
0010
0100
0010
0000
0100
1000
0100
0000
,
0001
0100
0001
0000
0001
1000
0100
0000
,
0100
1000
0010
0000
0010
1000
0010
0000
,
0001
1000
0001
0000
0001
1000
0100
0000
,
0100
1000
0001
0000
0001
0100
0001
0000
,
0100
1000
0010
0000
0010
0100
0010
0000
,
0001
1000
0001
0000
0100
0010
0100
0000
,
0200
0000
0000
0000
0000
0000
0000
0300
,
0010
1000
0010
0000
0001
0010
0001
0000
,
0001
1000
0010
0000
0010
1000
0001
0000
,
0001
0010
0001
0000
0010
0100
0010
0000
,
0010
1000
0001
0000
0001
0010
0001
0000
,
0010
1000
0010
0000
0010
0100
0001
0000
,
0001
1000
0001
0000
0010
1000
0010
0000
,
0010
0100
0001
0000
0100
0010
0100
0000
,
0001
1000
0010
0100
,
0001
0010
0001
0010
,
1000
0100
1000
0100
,
0001
0010
0001
0010
,
1000
0100
1000
0100
,
1001
0000
0110
0000
,
0001
0010
0100
0000
,
1010
0000
0101
0000
,
0010
0100
1000
0000
,
0110
0000
1001
0000
,
1000
0100
0010
0000
,
0001
0001
1000
1000
,
0001
0001
1000
1000
,
1001
0000
0110
0000
,
0101
0000
0110
0000
,
2002
0000
0000
0000
,
3003
0000
0000
0000
;

//--------------- dance-single - B. M'Rey ----------------
#NOTES:
     dance-single:
     B. M'Rey:
     Medium:
     9:
     0,0,0,0,0:
0000
0000
0000
0000
,
0000
0000
0000
0000
,
0000
0000
0000
0000
,
0001
1000
0001
1000
,
0001
0000
0010
0100
0010
0100
0000
0001
,
0000
0010
0000
0001
0010
0000
0001
0000
,
1000
0000
0010
1000
0010
1000
0000
0010
,
0000
1000
0000
0010
1000
0000
0010
0000
,
0100
0000
0010
0000
,
0001
1000
0010
0000
,
0100
0000
0010
0000
,
0001
0100
1000
0000
,
0010
0000
0100
0000
0010
0100
0000
0001
,
0000
0010
0000
1000
0010
0000
0100
0000
,
0010
0000
0001
0010
1000
0100
0000
0010
,
0000
0100
0000
0001
0100
0000
0010
0000
,
1000
0100
0010
0001
,
0010
0100
1000
0100
,
1100
0011
0101
1010
,
0202
0000
0000
0000
0000
0000
0000
0303
,
1000
0000
0010
0000
0100
0010
0000
0001
,
0000
0100
0010
1000
0000
0000
0000
0000
,
0100
0000
0001
0000
0010
0001
0000
1000
,
0000
0010
0100
0000
0010
0000
0000
0000
,
0001
0000
0010
0000
0001
0010
0000
1000
,
0000
0010
1000
0010
0000
0000
0000
0000
,
0100
0100
0010
0010
,
0001
0001
1000
1000
,
0010
0000
0100
0010
0100
0010
0000
0001
,
0000
0010
0000
1000
0100
0000
0010
0000
,
1000
0000
0001
1000
0001
1000
0000
0010
,
0000
0100
0000
0001
0010
0000
0001
0000
,
1000
0000
0010
0000
,
0100
0001
0010
0000
,
1000
0000
0010
0000
,
0100
0000
0000
0000
,
0001
0000
1000
0000
,
0001
1000
0001
1000
,
0001
1000
0001
1000
0001
1000
0001
1000
,
0001
0000
0000
0000
,
0010
0000
0100
0000
,
1000
0000
0010
0000
,
0100
0000
0010
0000
,
0001
0000
1000
0000
,
0010
0100
0010
0000
,
1000
0100
1000
0000
,
0001
0010
0001
0000
,
0010
0000
0100
0000
,
0001
1000
0001
0100
0001
0100
0010
0100
,
0010
1000
0010
1000
0001
1000
0001
0010
,
0001
0010
0100
0010
0100
1000
0100
1000
,
0010
1000
0010
0100
0010
0100
0001
0100
,
0010
1000
0010
1000
0010
0100
0001
0100
,
0010
0100
0010
1000
0010
1000
0001
1000
,
0001
0100
0010
1000
0010
1000
0001
1000
,
0002
0000
0000
0000
2000
0000
0000
3003
,
0001
1000
0001
0010
0001
0010
0100
0010
,
0100
1000
0100
1000
0010
1000
0010
0100
,
0010
0100
0001
0100
0001
0010
0001
1000
,
0010
0100
0010
0100
0010
1000
0100
1000
,
0100
1000
0010
0100
0010
0100
0010
1000
,
0001
1000
0001
1000
0010
0100
0010
0100
,
0010
1000
0001
1000
0001
0010
0001
0100
,
0001
1000
0010
0100
,
0001
0000
1000
0001
1000
0001
0000
0100
,
0000
0010
0000
0100
0010
0000
0100
0000
,
0001
0000
0100
0001
0100
0001
0000
0010
,
0000
1000
0000
0100
0010
0000
1000
0000
,
1001
0000
0000
0100
0010
0000
0000
0000
,
0001
0010
1000
0000
,
0110
0000
0000
1000
0010
0000
0000
0000
,
0001
0100
0010
0000
,
0110
0000
0000
0010
0100
0000
0000
0000
,
0001
1000
0010
0000
,
0100
0010
0001
1000
,
0100
0010
0001
1000
,
1001
0000
0110
0000
,
0101
0101
0101
1010
,
2020
0000
0000
0000
0000
0000
0000
3030
,
1001
0000
0000
0000
;

//--------------- dance-single - B. M'Rey ----------------
#NOTES:
     dance-single:
     B. M'Rey:
     Hard:
     11:
     0,0,0,0,0:
0000
0000
0000
0000
,
0000
0000
0000
0000
,
0000
0000
0000
0000
,
0010
1000
0010
0100
,
0010
0000
0100
0010
0100
0010
0000
1000
,
0000
0100
0000
1000
0100
0000
1001
0000
,
0010
0000
0001
0010
0001
0010
0000
0100
,
0000
0010
0000
0100
0001
0000
0110
0000
,
0100
0000
0000
0001
1000
0000
0000
0010
,
0100
0001
0100
0010
0000
0000
0000
0000
,
0010
0000
0000
1000
0010
0000
0000
1000
,
0010
0100
0010
1000
0000
0000
0000
0000
,
0110
0000
0100
0010
0100
0001
0000
0010
,
0000
1000
0000
0100
1000
0000
0110
0000
,
0010
0000
0100
0010
0100
0010
0000
0100
,
0000
0001
0000
0010
0001
0000
1010
0000
,
1000
0100
0010
0001
,
0010
0100
0010
1000
,
0001
1000
0001
1000
0001
1000
0001
0000
,
2002
0000
0000
0000
0000
0000
0000
3003
,
0010
0000
0100
0000
0010
0100
0000
0001
,
0000
0010
0001
0020
0000
0000
0030
0000
,
1000
0000
0010
0000
1000
0010
0000
0100
,
0000
0010
0001
0000
1001
0000
0000
0000
,
0010
0000
0100
0000
0010
0100
0000
0010
,
0000
0001
0010
0002
0000
0000
0000
0003
,
1000
0010
0100
0010
,
0001
0010
0100
1000
,
0110
0000
0100
0010
0100
0010
0000
0001
,
0000
0010
0000
1000
0100
0000
1010
0000
,
0010
0000
0100
0010
0100
0010
0000
1000
,
0000
0100
0000
0001
0010
0000
0110
0000
,
1001
0000
0000
0010
0100
0000
0000
0001
,
0010
0001
1000
0010
0000
0000
0000
0000
,
0001
0001
1000
1000
0001
0001
1000
1000
,
0001
1000
0001
1000
0001
1000
0001
1000
0001
1000
0001
1000
,
1001
0000
0110
0000
,
0101
0110
1010
0011
,
0001
0100
0001
0100
0010
1000
0010
0100
,
0001
1000
0001
1000
,
0001
1000
0010
0001
0000
1000
0100
0010
,
0000
0001
0010
0001
0000
1000
0010
0000
,
1000
0010
1000
0010
0000
0100
0001
0100
,
0000
0010
0001
0100
0000
0010
1000
0000
,
0010
1000
0010
1000
0000
0001
0100
0001
,
0000
0100
0001
0100
0000
0010
1000
0000
,
0010
1000
0010
0100
0000
0001
0010
0000
,
1000
0010
0100
0001
,
0001
0100
0010
0000
0010
1000
0010
0000
0001
0100
0001
0000
0010
1000
0010
0000
,
0010
0100
0001
0000
0001
1000
0001
0000
0100
0010
0100
0000
0001
1000
0001
0000
,
0001
0010
0100
0000
0001
0010
0001
0000
0010
0100
0001
0000
0001
0010
0001
0000
,
0010
1000
0010
0000
0001
0010
0001
0000
0001
0100
0010
0000
0010
1000
0010
0000
,
0001
1000
0010
0000
0010
1000
0010
0000
0100
1000
0100
0000
0100
1000
0010
0000
,
0100
0010
0100
0000
0100
1000
0001
0000
0010
1000
0001
0000
0001
1000
0001
0000
,
0010
1000
0001
0000
0001
0100
0001
0000
0100
0010
0100
0000
0100
1000
0001
0000
,
0002
0000
2000
3003
,
0001
1000
0001
1000
0100
0000
0010
0000
0100
0010
0001
0010
0001
0000
1000
0000
,
0010
1000
0010
0100
0010
0000
0100
0000
0001
0010
0001
0010
0100
0000
0100
0000
,
0001
1000
0001
0000
0100
0010
0001
0000
0001
0100
0001
0000
0010
1000
0010
0000
,
0001
0010
0001
0000
0001
1000
0100
0000
0100
1000
0001
0000
0010
0100
0010
0000
,
0001
0010
0100
0000
0100
0010
0001
0000
0010
0100
0001
0000
0010
1000
0010
0000
,
0100
0010
0100
0000
0100
1000
0001
0000
0001
0010
0001
0000
0010
0100
0010
0000
,
0001
1000
0010
0000
0010
1000
0100
0000
0001
1000
0100
0000
0010
1000
0010
0000
,
0001
1000
0010
1000
,
0110
0000
0001
0010
0001
0010
0000
1000
,
0000
0010
0000
0100
0010
0000
0110
0000
,
0001
0000
0010
0001
0010
0001
0000
1000
,
0000
0010
0000
0100
0010
0000
0101
0000
,
0110
0000
0000
1000
0010
0000
0000
0100
,
0001
0100
0010
1000
0000
0000
0000
0000
,
0010
0000
0000
0100
0001
0000
0000
0010
,
1000
0010
0100
0010
0000
0000
0000
0000
,
0101
0000
0000
0010
0100
0000
0000
0001
,
0100
0010
1000
0100
0000
0000
0000
0000
,
0010
0100
0001
0010
,
1000
0010
0100
0001
,
1001
0000
0110
0000
,
0101
0110
1010
0101
,
0002
0000
0000
0000
,
1003
0000
0000
0000
;

//--------------- dance-single - B. M'Rey ----------------
#NOTES:
     dance-single:
     B. M'Rey:
     Challenge:
     13:
     0,0,0,0,0:
0000
0000
0000
0000
,
0000
0000
0000
0000
,
0000
0000
0000
0000
,
1000
0001
1000
0001
1000
0000
0001
0000
0100
0010
0100
0010
0100
0010
0100
0000
,
0110
0000
0001
1000
0001
0010
0000
1010
,
0000
0101
0000
0010
1100
0000
0011
0000
,
1100
0000
0100
1000
0100
0010
0000
0101
,
0000
1010
0000
0100
0110
0000
0011
0000
,
0101
0000
0001
1000
0100
0000
0100
0010
,
0001
0100
0010
0100
0000
0010
0000
0001
,
0010
0000
0010
0100
0010
0000
0001
0010
,
0100
0000
1000
0000
0010
0000
1000
0000
0100
0010
0001
1000
0100
0010
0001
0100
,
0010
0000
0010
0100
0010
1000
0000
0110
,
0000
1001
0000
0010
0101
0000
1010
0000
,
1001
0000
0010
0100
0001
0100
0000
1001
,
0000
1100
0000
0010
0011
0000
0101
0000
,
0010
0010
0100
0100
0001
0001
1000
1000
,
0100
0100
0010
0010
0001
0001
0100
0100
,
0001
0001
1000
1000
0100
0100
0010
0010
,
0001
0100
0001
0100
0001
0100
0001
0100
0001
0100
0001
0100
0001
0100
0001
0100
,
0010
0000
0010
1000
0001
0010
0000
0010
,
0001
0100
0010
0100
1000
0000
0100
0000
,
0001
0000
0001
1000
0010
1000
0000
0100
,
0010
0100
0001
0000
0011
0000
1100
0000
,
0001
0100
0010
1000
0010
0100
0000
0010
,
0100
1000
0010
0200
0000
0000
0300
0000
,
0010
0000
0010
0000
0001
0000
0100
1000
0001
0100
0010
1000
0001
0010
1000
0000
,
0100
0000
0100
0000
0001
1000
0100
0010
0001
0100
0010
1000
0001
0010
0100
1000
,
0001
0000
0100
1000
0100
0010
0000
1001
,
0000
0110
0000
0010
0110
0000
1001
0000
,
0101
0000
0010
1000
0010
0100
0000
1100
,
0000
0011
0000
0100
1001
0000
0101
0000
,
0110
0000
0010
0100
0001
0000
0100
1000
,
0010
0100
0010
0100
0000
0010
0000
0001
,
0100
0010
0001
1000
0010
0100
0010
1000
,
0001
1000
0001
1000
0001
0010
0100
1000
0100
1000
0100
0010
,
0001
0000
1001
0000
,
0110
0101
0110
1010
,
0011
0011
0011
1100
1100
1100
0011
0011
,
0011
0110
0101
1010
,
0100
1000
0100
0020
0000
0130
0001
0020
,
0000
0130
0010
0200
0000
1300
0100
0000
,
0010
1000
0100
0020
0000
0130
0010
2000
,
0000
3001
1000
0002
0000
0013
0001
0000
,
0110
0000
0100
1000
0000
1000
1010
1000
,
0000
0010
0110
0010
0000
1000
1001
0000
,
0010
1000
0110
0100
0000
0100
0101
0100
,
0010
0001
1000
0010
,
0010
1000
0010
1000
0010
0100
0001
0100
0001
1000
0001
1000
0010
1000
0010
0100
,
0001
0100
0001
0100
0010
1000
0010
1000
0010
0100
0001
1000
0001
1000
0001
0010
,
0100
0010
0100
0010
0001
1000
0100
1000
0100
1000
0001
0100
0001
0100
0001
1000
,
0100
1000
0100
1000
0010
0100
0010
0100
0010
1000
0001
1000
0001
1000
0100
0010
,
0001
1000
0100
0010
0001
0100
0010
1000
0100
0010
0001
1000
0100
0010
0001
1000
,
0010
0100
0001
0010
0100
1000
0010
0100
0001
1000
0010
0100
0001
0010
0100
1000
,
0001
0100
0010
1000
0001
0100
0010
1000
0100
0010
0001
0100
0010
1000
0100
0010
,
0001
0000
0000
0100
0000
0000
0010
0000
0000
1000
0000
0000
0001
0000
0000
0100
0000
0000
0010
0000
0000
1000
0000
0000
0100
0000
0010
0000
0100
0000
0010
0000
0100
0000
0010
0000
0100
0000
0000
0000
0000
0000
0010
0000
0000
0000
0000
0000
,
0001
1000
0001
1000
0100
0010
0100
0010
0001
0100
0001
0100
0010
1000
0010
1000
,
0001
0010
0001
0010
0100
1000
0100
1000
0010
0100
0010
0100
0001
1000
0001
1000
,
0100
0010
0100
0010
0001
0100
0001
0100
0010
1000
0010
1000
0100
0010
0001
0010
,
0001
1000
0010
1000
0001
0100
0001
1000
0010
1000
0010
0100
0001
0100
0001
1000
,
0001
1000
0010
0100
0001
1000
0100
0010
0001
1000
0010
0100
0001
1000
0010
0100
,
0001
0010
0100
1000
0010
0100
0001
1000
0100
0010
0001
1000
0010
0100
0001
0010
,
0100
1000
0001
0010
0100
1000
0010
0100
0001
1000
0010
0100
0001
0010
0100
1000
,
0100
1000
0010
0100
0001
1000
0010
0100
0001
0010
0100
1000
0010
0100
0001
0010
,
0001
0000
0001
1000
0010
0100
0000
0101
,
0000
1010
0000
0100
0011
0000
1001
0000
,
0110
0000
0001
0100
0010
1000
0000
0110
,
0000
1010
0000
0100
0101
0000
0110
0000
,
0011
0000
0100
1000
0100
0000
0010
1000
,
0001
0010
0100
1000
0000
0010
0000
1000
,
0001
0000
0001
0010
0100
0000
0001
1000
,
0010
0100
0001
0100
0000
1000
0000
0001
,
1100
0000
0010
0100
0001
0000
0100
1000
,
0001
0010
0100
0010
0000
0100
0000
1000
,
1001
1010
1010
0101
0101
0011
0110
0011
,
1100
1010
1001
0101
0101
0110
1010
1010
,
1100
0000
0101
0000
,
0110
1010
0110
0101
,
0001
1000
0001
1000
0001
0010
0100
1000
0100
1000
0100
0010
0001
0010
0001
0010
,
0200
0000
0300
0000
;
