#TITLE:CRAZY IN LOVE;
#SUBTITLE:(Maurice's Nu Soul Remix);
#ARTIST:BEYONCE;
#GENRE:LATIN HOUSE;
#CREDIT:B. M'Rey;
#MUSIC:Crazy In Love (Maurice's Nu Soul Remix).ogg;
#BANNER:CRAZY IN LOVE (Maurice's Nu Soul Remix)-bn.png;
#BACKGROUND:CRAZY IN LOVE (Maurice's Nu Soul Remix)-bg.png;
#CDTITLE:./CDTITLES/ZIPMANIA 7.PNG;
#SAMPLESTART:30.75;
#SAMPLELENGTH:12;
#OFFSET:-0.055;
#BPMS:0=125.012;

//--------------- dance-single - B. M'Rey ----------------
#NOTES:
     dance-single:
     B. M'Rey:
     Beginner:
     1:
     0,0,0,0,0:
0000
0000
0000
0000
,
0000
0000
0000
0000
,
0000
0000
0000
0000
,
0000
0000
0000
0000
,
1000
0000
0000
0000
,
0001
0000
0000
0000
,
0100
0000
0000
0000
,
0010
0000
0000
0000
,
1001
0000
1000
0000
,
0001
0000
1000
0000
,
0010
0000
0100
0000
,
0010
0000
0100
0000
,
0001
0001
0001
0000
,
0100
0100
0100
0000
,
0010
0000
1000
0000
,
0001
1000
0001
0000
,
1001
0000
0010
0000
,
0100
0000
0001
0000
,
1000
0000
0010
0000
,
0100
0000
0010
0000
,
1000
0000
0001
0000
,
0010
0000
0001
0000
,
0100
0100
0100
0000
,
0100
0100
0100
0000
,
0010
0010
0010
0000
,
0010
0010
0010
0000
,
1000
0000
0001
0000
,
1000
0000
0001
0000
,
1000
0000
0001
0000
,
1000
0000
0001
0000
,
0100
0000
0000
0000
,
0010
0000
0010
0000
,
0001
0000
0000
0000
,
1000
0000
1000
0000
,
0010
0000
0000
0000
,
0100
0000
0001
0000
,
1000
0001
1000
0000
,
1000
0001
1000
0000
,
0010
0100
0010
0000
,
0110
0000
0000
0000
,
1000
0000
0001
0000
,
0010
0000
0100
0000
,
0010
0000
1000
0000
,
0001
0000
0010
0000
,
0001
0000
0100
0000
,
0010
0000
1000
0000
,
0010
0010
0010
0000
,
0010
0010
0010
0000
,
1001
0000
0000
0000
,
0100
0000
0000
0000
,
0010
0000
0000
0000
,
1000
0000
0000
0000
,
1001
0000
0000
0000
;

//--------------- dance-single - B. M'Rey ----------------
#NOTES:
     dance-single:
     B. M'Rey:
     Easy:
     4:
     0,0,0,0,0:
0000
0000
0000
0000
,
0000
0000
0000
0000
,
0000
0000
0000
0000
,
0000
0000
0000
0000
,
1000
0100
1000
0100
,
0010
0100
0010
0100
,
0001
0100
0001
0100
,
0001
0000
1000
0000
,
0010
0100
0001
1000
,
0010
0001
0010
0100
,
1000
0010
0100
0001
,
1000
0010
0100
0001
,
1000
0010
0100
0010
,
0001
0010
1000
0100
,
1000
0010
0100
0001
,
0010
1000
0001
0100
,
0010
0000
0100
0000
0001
0100
0001
0000
,
0010
0000
1000
0000
0010
1000
0010
0000
,
0100
0000
0010
0000
0100
0001
0100
0000
,
0010
0000
1000
0000
0010
1000
0010
0000
,
0100
0000
0010
0000
0100
0001
0100
0000
,
0010
0000
1000
0000
0010
1000
0010
0000
,
1001
0110
0101
1010
,
0110
0101
1001
0010
,
0101
0110
1010
0101
,
0110
1001
0101
0000
,
0010
1000
0010
1000
,
0001
0100
0001
0100
,
0010
1000
0010
1000
,
0100
0001
0100
0001
,
0010
0000
1000
0000
,
0001
0001
1000
1000
,
0010
0000
0100
0000
,
0001
0001
0010
0010
,
1000
0000
0100
0000
,
0010
0100
0010
0000
,
1000
0001
0010
0000
,
0100
0010
1000
0000
,
1001
0110
0101
0000
,
1010
0000
0010
0000
,
1000
0000
0001
0000
0010
0100
0010
0000
,
0001
0000
0100
0000
0010
0100
0010
0000
,
1000
0000
0001
0000
0010
0100
0010
0000
,
1000
0000
0010
0000
0100
0010
0100
0000
,
0001
0000
0010
0000
0100
0010
0100
0000
,
0001
0000
1000
0000
0010
0100
0010
0000
,
0101
1010
1001
0101
,
0110
1010
1001
0000
,
0010
0100
0001
1000
,
0010
0000
0100
0000
0001
0000
1000
0001
,
1000
0000
0001
1000
0001
0000
1000
0001
,
1000
0010
0100
0001
,
1001
0000
0000
0000
;

//--------------- dance-single - B. M'Rey ----------------
#NOTES:
     dance-single:
     B. M'Rey:
     Medium:
     6:
     0,0,0,0,0:
0000
0000
0000
0000
,
0000
0000
0000
0000
,
0000
0000
0000
0000
,
0000
0000
0000
0000
,
0010
0000
0100
0000
1000
0100
1000
0000
,
0010
0000
0001
0000
0100
0001
0100
0000
,
0010
0000
0001
0000
1000
0010
1000
0000
,
0100
0000
0001
0000
,
0010
0000
0001
0000
1000
0010
0100
0000
,
0010
0000
0100
0000
0010
0001
0100
0010
,
1000
0001
0010
0000
0100
0001
1000
0000
,
0100
0001
0100
0000
1000
0010
0001
0000
,
0010
0100
0010
0100
1000
0000
0010
0000
,
0100
0000
0010
0100
1000
0100
0010
0001
,
1000
0000
0010
0000
1000
0001
0100
0010
,
1000
0000
0100
0000
0100
0001
1000
0100
,
1000
0000
0010
0000
0001
0010
0100
0000
,
0001
0000
0010
0100
0010
1000
0100
0000
,
0001
0000
0001
0010
0100
0010
0001
0000
,
0010
0000
0100
0010
0100
1000
0001
0000
,
0001
1000
0010
0000
0001
0010
0100
0000
,
0010
0100
0001
0000
0010
1000
0001
0000
,
1010
0000
0011
0000
0101
0000
0001
0100
,
0010
0100
0001
0000
0100
0000
0101
0000
,
0011
0000
1100
0000
0101
0000
0010
1000
,
0100
1000
0010
0000
1010
0000
0110
0000
,
0100
0100
0010
0010
1000
1000
0100
0000
,
0010
0010
0100
0100
0010
0010
0001
0000
,
0010
0010
0100
0100
1000
1000
0100
0000
,
1000
1000
0001
0001
0010
0010
0100
0000
,
1000
0001
0010
0000
0100
0000
0001
0000
,
0110
0100
0011
0001
,
0010
0001
0100
0000
1000
0100
0010
0000
,
1010
0010
1100
0100
,
0010
0001
0100
0000
0010
1000
0001
0000
,
0100
0000
0010
0000
0100
0000
0001
1000
,
0010
0000
0100
0001
0010
0000
0001
1000
,
0010
0000
0100
0001
1000
0000
0010
1000
,
0100
0000
0010
0001
1000
0000
0010
0000
,
1001
0011
0110
1010
,
0001
0000
0100
0000
1000
0100
0010
0000
,
1000
0000
0100
0010
0100
0001
0010
0000
,
1000
0000
1000
0100
0010
0100
1000
0000
,
0100
0000
0010
0100
0010
0001
1000
0000
,
1000
0001
0100
0000
1000
0100
0010
0000
,
0100
0010
1000
0000
0100
0001
1000
0000
,
0101
0000
1100
0000
1010
0000
1000
0010
,
0100
0010
1000
0000
0010
0000
1010
0000
,
1000
0000
0010
0000
1000
0100
0001
0000
,
0010
0000
0001
0000
1000
0010
0100
0000
,
1000
0000
0010
0000
0100
1000
0001
0000
,
0010
0000
0100
0000
1000
0001
0100
0000
,
0011
0000
0000
0000
;

//--------------- dance-single - B. M'Rey ----------------
#NOTES:
     dance-single:
     B. M'Rey:
     Hard:
     8:
     0,0,0,0,0:
0000
0000
0000
0000
,
0000
0000
0000
0000
,
0000
0000
0000
0000
,
0000
0000
0000
0000
,
0100
0001
0100
0000
1000
0100
0010
0000
,
1000
0001
0010
0000
0100
0010
0100
0000
,
0010
0001
1000
0000
0100
0010
1000
0000
,
1000
0100
0010
0001
,
1000
0001
0010
0100
1000
0100
0010
0001
,
0010
0000
1000
0100
0010
0001
1000
0100
,
0010
0000
0100
0001
1000
0010
1000
0001
,
0000
0010
0100
0001
0010
0100
1000
0100
,
0000
0001
0010
0100
1000
0100
0010
0001
,
0000
0010
1000
0001
0100
0010
0100
0001
,
0000
0101
0000
0010
0100
0001
0010
0100
,
0000
0001
0100
0010
0101
0000
0011
0000
,
1000
0010
1000
0010
1000
0100
0010
0100
,
0010
0001
0010
0100
1000
0100
0010
0000
,
1000
0010
0100
0010
0100
0010
1000
0001
,
1000
0001
1000
0010
0100
0010
0100
0000
,
1000
0001
1000
0001
1000
0010
0100
0010
,
0100
0010
1000
0100
1000
0001
0100
0000
,
0100
0001
1000
0010
0100
0010
0100
0010
,
1000
0001
0010
0001
0010
0000
1010
0000
,
1000
0010
1000
0100
0010
0100
0010
0100
,
1000
0001
1000
0001
1000
0000
0011
0000
,
0010
0000
0100
0000
0010
0000
0100
0000
1000
0000
0010
0000
1000
0100
1000
0000
,
0010
0000
0100
0000
1000
0000
0010
0000
0100
0000
0001
0000
1000
0001
1000
0000
,
0010
0000
0100
0000
1000
0000
0010
0000
1000
0000
0100
0000
0010
0100
0010
0000
,
1000
0000
0010
0000
0100
0000
0001
0000
0010
0000
0100
0000
0010
0001
0010
0000
,
1000
0000
0010
0100
0000
0100
0002
0000
0000
0000
0000
0000
0010
0000
0103
0000
,
1000
0010
0000
0010
0100
0000
0010
0000
1000
0001
0000
0001
0010
0000
0001
0000
,
1000
0000
0100
1000
0000
1000
0002
0000
0000
0000
1003
0000
0010
0000
0100
0000
,
0010
0001
0000
0001
0100
0000
0010
0000
0100
0001
0000
0001
0010
0000
0001
0000
,
1000
0010
0000
0010
1000
0000
0200
0000
0000
0000
0301
0000
0010
0000
0100
0000
,
1001
0000
0000
1001
0000
0000
0220
0000
0000
0000
0000
0330
0001
0000
0010
0000
,
0100
0000
0001
0010
0001
0000
0010
0000
1000
0000
0000
0000
1000
0000
0001
0000
,
0100
0000
0010
1000
0010
0000
0100
0000
1000
0000
0000
0000
0100
0010
0100
0000
,
0010
0001
0010
0100
1000
0000
1000
0100
,
0110
1010
1001
0110
,
0001
0100
0001
0100
0001
0010
0100
0010
,
0100
1000
0100
0010
0001
0010
0100
0000
,
0001
0100
0010
0100
0010
0100
0001
1000
,
0001
1000
0001
0100
0010
0100
0010
0000
,
0001
1000
0001
1000
0001
0100
0010
0100
,
0010
0100
0001
0010
0001
1000
0010
0000
,
0010
1000
0001
0100
0010
0100
0010
0100
,
0001
1000
0100
1000
0100
0000
0101
0000
,
0001
0010
1000
0000
1000
0010
0100
0000
,
1000
0100
0010
0000
1000
0001
1000
0000
,
0010
0100
1000
0000
0100
0010
1000
0000
,
1000
0001
0100
0000
0100
0001
1000
0000
,
0110
0000
0000
0000
;

//--------------- dance-double - B. M'Rey ----------------
#NOTES:
     dance-double:
     B. M'Rey:
     Easy:
     3:
     0,0,0,0,0:
00000000
00000000
00000000
00000000
,
00000000
00000000
00000000
00000000
,
00000000
00000000
00000000
00000000
,
00000000
00000000
00000000
00000000
,
00100000
00010000
00100000
00010000
,
00001000
00010000
00001000
00010000
,
00000100
00010000
00000100
00010000
,
00001100
00000000
00001000
00000000
,
00000001
00001000
00000001
00000100
,
00000010
00001000
00000010
00000100
,
00000010
00010000
00001000
01000000
,
00010000
10000000
00010000
01000000
,
00100000
10000000
00100000
01000000
,
00001000
01000000
00100000
01000000
,
00010000
00100000
00001000
00010000
,
00000010
00001000
00000001
00001000
,
00001010
00000000
00000100
00000000
,
00000100
00001000
00000001
00001000
,
00000010
00000000
00010000
00000000
,
00000010
00010000
00000100
00001000
,
00000100
00000000
00010000
00000000
,
00010000
00000100
00010000
00001000
,
01000000
00100000
10000000
01000000
,
00100000
00001000
01000000
01010000
,
10000000
01000000
00100000
00001000
,
01000000
00001000
00020000
00000000
,
00031000
00010000
00000010
00010000
,
00010100
00010000
00000010
00001000
,
00000110
00000100
00000010
00001000
,
00001100
00001000
00000001
00001000
,
10100000
00000000
10010000
00000000
,
00010000
00010000
10000000
10000000
,
01000000
00000000
00100000
00000000
,
00001000
00001000
01000000
01000000
,
10000000
00000000
00010000
00000000
,
00100000
00010000
00100000
00000000
,
01000000
00001000
00010000
00000000
,
00000100
00010000
01000000
00000000
,
00000011
00001010
00001001
00000000
,
00010100
00000000
00000100
00000000
,
00011000
00000000
00000010
00000000
,
00000010
00010000
00000100
00010000
,
00001000
00000000
01000000
00000000
,
00001000
01000000
00100000
10000000
,
00100000
00000000
01000000
00000000
,
01000000
00100000
01000000
00010000
,
00100000
00001000
00010000
00000100
,
00001000
00000001
00000100
00000010
,
00000010
00000001
00001000
00000001
,
00000100
00000010
00010000
00001000
,
00010000
00001000
01000000
00010000
,
01000000
00001000
00100000
00010000
,
10010000
00000000
00000000
00000000
;

//--------------- dance-double - B. M'Rey ----------------
#NOTES:
     dance-double:
     B. M'Rey:
     Medium:
     6:
     0,0,0,0,0:
00000000
00000000
00000000
00000000
,
00000000
00000000
00000000
00000000
,
00000000
00000000
00000000
00000000
,
00000000
00000000
00000000
00000000
,
00100000
00000000
00010000
00000000
01000000
00010000
01000000
00000000
,
00100000
00000000
00001000
00000000
00010000
00001000
00010000
00000000
,
00000010
00000000
00000100
00000000
00001000
00000001
00001000
00000000
,
00000010
00000000
00000100
00000000
,
00000010
00000000
00000100
00000000
00010000
00001000
01000000
00000000
,
00001000
00000000
01000000
00000000
00001000
00100000
01000000
00010000
,
10000000
00100000
01000000
00000000
00010000
00001000
00010000
00000000
,
00000010
00000001
00000010
00000000
00001000
00000001
00000100
00000000
,
00010000
00001000
00010000
00001000
00100000
00000000
00010000
00000000
,
10000000
00000000
00010000
10000000
01000000
00001000
00010000
00000010
,
00000100
00000000
00000001
00000000
00000100
00000010
00010000
00001000
,
00100000
00000000
01000000
00000000
01000000
00010000
00100000
00001000
,
00010000
00000000
00001000
00000000
00000100
00001000
00000100
00000000
,
00010000
00000000
00100000
00000000
00010000
00100000
00010000
00000000
,
00001000
00000000
00010000
00000000
00001000
00000100
00001000
00000000
,
01000000
00000000
10000000
00000000
01000000
10000000
01000000
00000000
,
00001000
00000000
01000000
00000000
00001000
00000100
00001000
00000000
,
00010000
00000000
00100000
00000000
00010000
00100000
00010000
00000000
,
00001010
00000101
00000110
00000011
,
00001001
00001100
00000110
00001000
,
00010100
00011000
01001000
10010000
,
10100000
01010000
00110000
00101000
,
00100000
00100000
00001000
00001000
00010000
00010000
00000010
00000000
,
00000100
00000100
00000010
00000010
00000100
00000100
00000001
00000000
,
00000100
00000100
00000010
00000010
00010000
00010000
00000010
00000000
,
00010000
00010000
00001000
00001000
01000000
01000000
00010000
00000000
,
10000000
01000000
00100000
00000000
00001000
00000000
00000100
00000000
,
01001000
00001000
01010000
00010000
,
01000000
00010000
00100000
00000000
10000000
00100000
00001000
00000000
,
01001000
00001000
01010000
00010000
,
10000000
00100000
01000000
00000000
00001000
00010000
00000010
00000000
,
00001000
00000000
00000001
00000000
00001000
00000000
00000010
00010000
,
00000100
00000000
00001000
00000001
00000010
00000000
00000001
00001000
,
00000100
00000000
00010000
00000010
00001000
00000000
00000001
00001000
,
00000100
00000000
00010000
00001000
01000000
00000000
00010000
00000000
,
01100000
10100000
10010000
00010010
,
00010000
00000000
00000100
00000000
00001000
00000001
00001000
00000000
,
00000100
00000000
00010000
00000000
00001000
00010000
00001000
00000000
,
01000000
00000000
00100000
00000000
10000000
01000000
10000000
00000000
,
00100000
00000000
00001000
00000000
00010000
00001000
00010000
00000000
,
00000100
00000000
00001000
00000000
00000010
00001000
00000010
00000000
,
00000001
00000000
00001000
00000000
00000100
00000001
00000100
00000000
,
00010010
10010000
11000000
01100000
,
00110000
01010000
01100000
00000000
,
00010000
00000000
00010000
00000000
01000000
00100000
00001000
00000000
,
00100000
00000000
00001000
00000000
00010000
00000100
00000010
00000000
,
00001000
00000000
00000100
00000000
00000010
00001000
00000001
00000000
,
00000100
00000000
00000010
00000000
00010000
00001000
01000000
00000000
,
00011000
00000000
00000000
00000000
;

//--------------- dance-double - B. M'Rey ----------------
#NOTES:
     dance-double:
     B. M'Rey:
     Hard:
     7:
     0,0,0,0,0:
00000000
00000000
00000000
00000000
,
00000000
00000000
00000000
00000000
,
00000000
00000000
00000000
00000000
,
00000000
00000000
00000000
00000000
,
00000010
00010000
00000010
00000000
00000001
00000010
00001000
00000000
,
00000100
00010000
00001000
00000000
01000000
00001000
01000000
00000000
,
00001000
00100000
00010000
00000000
10000000
01000000
00010000
00000000
,
00010000
00100000
00001000
00010000
,
00000010
00010000
00000100
00001000
00000001
00001000
00000100
00010000
,
00000100
00000000
00001000
00100000
00010000
01000000
00100000
10000000
,
01000000
00000000
10000000
00100000
00001000
01000000
00001000
00010000
,
00000000
00000100
00000010
00010000
00000100
00001000
00000001
00001000
,
00000000
00000010
00000100
00010000
00001000
00010000
00000100
00001000
,
00000000
00000100
00000001
00001000
00000010
00000100
00000010
00001000
,
00000000
01010000
00000000
00100000
00010000
10000000
01000000
00100000
,
00000000
10000000
00100000
00010000
01001000
00000000
01010000
00000000
,
00001000
00000000
00010000
00000000
00100000
00010000
00000010
00000000
,
00001000
00000000
00000001
00000010
00000001
00000100
00000010
00000000
,
00001000
00000000
00001000
00000100
00010000
00000100
00001000
00000000
,
00000100
00000000
00010000
00000100
00010000
00001000
00100000
00000000
,
00100000
00001000
01000000
00000000
10000000
01000000
00010000
00000000
,
01000000
00010000
00100000
00000000
00001000
01000000
00100000
00000000
,
11000000
00000000
00011000
00000000
00010010
00000000
00010000
00000010
,
00001000
00000010
00010000
00000000
00000010
00000000
00010010
00000000
,
00011000
00000000
00110000
00000000
00001100
00000000
00000010
00000001
,
00000100
00000001
00001000
00000000
00001001
00000000
00101000
00000000
,
00001000
00000000
00100000
00000000
00001000
00000000
00100000
00000000
00010000
00000000
10000000
00000000
00010000
01000000
00010000
00000000
,
10000000
00000000
01000000
00000000
00010000
00000000
10000000
00000000
00100000
00000000
01000000
00000000
00001000
01000000
00001000
00000000
,
00010000
00000000
00000010
00000000
00000100
00000000
00010000
00000000
00000100
00000000
00001000
00000000
00000001
00001000
00000001
00000000
,
00000100
00000000
00010000
00000000
00001000
00000000
01000000
00000000
00010000
00000000
00100000
00000000
00010000
01000000
00010000
00000000
,
00100000
00000000
00000000
10000000
00000000
00000000
02000000
00000000
00000000
00000000
00000000
00000000
00001000
00000000
03010000
00000000
,
00000100
00000000
00000000
00001000
00000000
00000000
00001000
00000000
00000100
00000000
00000000
00010000
00000000
00000000
00010000
00000000
,
00000100
00000000
00000010
00000100
00000000
00000000
00002000
00000000
00000000
00000000
00003100
00000000
00010000
00000000
00000010
00000000
,
00010000
00000000
00000000
00100000
00000000
00000000
00010000
00000000
00001000
00000000
00000000
01000000
00000000
00000000
01000000
00000000
,
00010000
00000000
00000000
00100000
00000000
00000000
00002000
00000000
00000000
00000000
00013000
00000000
00000100
00000000
00001000
00000000
,
00000011
00000000
00000000
00000011
00000000
00000000
02002000
00000000
00000000
00000000
00000000
03003000
10000000
00000000
01000000
00000000
,
00001000
00000000
00100000
01000000
00100000
00000000
01000000
00000000
00010000
00000000
00000000
00000000
00010000
00000000
10000000
00000000
,
00100000
00000000
00001000
00000010
00001000
00000000
00010000
00000000
00000010
00000000
00000000
00000000
00010000
00000100
00010000
00000000
,
00000100
00000010
00000100
00001000
00000001
00000000
00000001
00001000
,
00001100
10100000
01100000
00011000
,
01000000
00000000
00001000
00000000
00000100
00001000
00100000
00000000
,
00010000
00000000
01000000
00001000
01000000
00010000
00001000
00000000
,
00000010
00000000
00000010
00010000
00000100
00010000
00000010
00000000
,
00010000
00000000
00001000
00010000
00001000
00100000
00010000
00000000
,
00010000
00100000
00001000
00000000
00000100
00001000
01000000
00000000
,
00001000
01000000
00010000
00000000
00100000
10000000
00010000
00000000
,
00011000
00000000
00000011
00000000
00001001
00000000
00000001
00001000
,
00000010
00001000
00000100
00000000
00001000
00000000
00001100
00000000
,
00010000
00001000
00000010
00000000
00000010
00010000
00001000
00000000
,
00000100
00001000
01000000
00000000
00010000
10000000
00010000
00000000
,
01000000
00100000
00010000
00000000
00100000
01000000
00010000
00000000
,
00010000
10000000
01000000
00000000
01000000
10000000
00010000
00000000
,
00001100
00000000
00000000
00000000
;
