
//----- song ID: circusdvmjcm -----//
#VERSION:0.83;
#TITLE:CIRCUS (Dimo vs. Maurice Joshua Club Mix);
#ARTIST:BRITNEY SPEARS;
#GENRE:HOUSE;
#ORIGIN:DWI Extreme T-8;
#CREDIT:B. M'Rey/DWI Extreme T-8 -;
#BANNER:CIRCUS (Dimo vs. Maurice Joshua Club Mix).png;
#BACKGROUND:CIRCUS (Dimo vs. Maurice Joshua Club Mix)-bg.png;
#JACKET:CIRCUS (Dimo vs. Maurice Joshua Club Mix)-jacket.png;
#CDTITLE:./CDTITLES/Zipmania 03.png;
#MUSIC:CIRCUS (Dimo vs. Maurice Joshua Club Mix).ogg;
#OFFSET:-0.057000;
#SAMPLESTART:53.810;
#SAMPLELENGTH:15.000;
#BPMS:0.000=125.011;
#BGCHANGES:7.750=CIRCUS (Dimo vs. Maurice Joshua Club Mix).avi=1.000=1=0=1===CrossFade==,
208.000=CIRCUS (Dimo vs. Maurice Joshua Club Mix)-bg.png=1.000=1=0=1===CrossFade==,
99999=-nosongbg-=1.000=0=0=0 // don't automatically add -songbackground-;

//---------------dance-single - B. M'Rey----------------
#NOTEDATA:;
#CHARTNAME:B. M'Rey;
#CHARTHASH:2375167442;
#STEPSTYPE:dance-single;
#BANNER:;
#DESCRIPTION:B. M'Rey;
#CHARTSTYLE:;
#DIFFICULTY:Beginner;
#METER:4;
#METERF:0.000000;
#LASTSECONDHINT:99.887421;
#RADARVALUES:0.151413,0.250520,0.067448,0.000000,0.000000,110.000000,103.000000,7.000000,0.000000,0.000000,0.000000,0.000000,0.000000,0.000000,0.151413,0.250520,0.067448,0.000000,0.000000,110.000000,103.000000,7.000000,0.000000,0.000000,0.000000,0.000000,0.000000,0.000000;
#CREDIT:B. M'Rey;
#NOTES:
0000
0000
0000
0000
,
0000
0000
0000
0000
,
0000
0000
0000
0000
,
0000
0000
0000
0000
,
1000
0000
0000
0000
,
0001
0000
0000
0000
,
0010
0000
0000
0000
,
0100
0000
0000
0000
,
1000
0000
0001
0000
,
0010
0000
0000
0000
,
0100
0000
0010
0000
,
1000
0000
0000
0000
,
0010
0000
0100
0000
,
0001
0000
0000
0000
,
1000
1000
0000
0000
,
0010
0000
0000
0000
,
0101
0000
0010
0000
,
1000
1000
1000
0000
,
0010
0000
0100
0000
,
0001
0010
0100
0000
,
1001
0000
0010
0000
,
0100
0100
0100
0100
,
0100
0000
0001
0000
,
0010
0010
0010
0010
,
0010
0000
1000
0000
,
0001
0001
0001
0001
,
0001
0000
0100
0000
,
1000
1000
1000
1000
,
1000
0000
0010
0000
,
0100
0001
0100
0000
,
0010
0000
1000
0000
,
0010
1000
0010
0000
,
0100
0000
0010
0000
,
1000
0000
0001
0000
,
0010
0001
0010
0000
,
0100
1000
0100
0000
,
0010
0000
0100
0000
,
0001
0010
0001
0000
,
1000
0000
0010
0000
,
0100
0010
0100
0000
,
0001
0000
1000
0000
,
0010
0000
0100
0000
,
0010
0010
0010
0100
,
0100
1000
1000
0001
,
1001
0000
1001
0000
,
1001
0000
1001
0000
,
0001
0000
0000
0000
,
0100
0000
0000
0000
,
0010
0000
0000
0000
,
1000
0000
0000
0000
,
0100
0000
0000
0000
,
0001
0000
0000
0000
,
1001
0000
0000
0000
;

//---------------dance-single - DWI Extreme T-8----------------
#NOTEDATA:;
#CHARTNAME:DWI Extreme T-8;
#CHARTHASH:438962533;
#STEPSTYPE:dance-single;
#BANNER:;
#DESCRIPTION:DWI Extreme T-8;
#CHARTSTYLE:;
#DIFFICULTY:Easy;
#METER:5;
#METERF:0.000000;
#LASTSECONDHINT:99.887421;
#RADARVALUES:0.198214,0.225468,0.019271,0.019271,0.000000,144.000000,142.000000,2.000000,2.000000,0.000000,0.000000,0.000000,0.000000,0.000000,0.198214,0.225468,0.019271,0.019271,0.000000,144.000000,142.000000,2.000000,2.000000,0.000000,0.000000,0.000000,0.000000,0.000000;
#CREDIT:DWI Extreme T-8;
#NOTES:
0000
0000
0000
0000
,
0000
0000
0000
0000
,
0000
0000
0000
0000
,
0000
0000
0000
0000
,
1001
0000
0000
0000
,
1000
0000
0000
0000
,
0010
0000
0000
0000
,
0010
0000
0000
0000
,
0100
0001
0100
0001
,
1000
0000
0001
0000
,
1000
0010
0000
0010
,
0000
1000
0000
0001
,
0010
0100
0010
0100
,
1000
0000
0001
0000
,
0100
0010
0000
0010
,
1000
0000
0001
0000
,
1000
0000
1000
0000
,
0001
0001
0001
0000
,
0100
0000
0100
0000
,
0010
0000
1000
0001
,
1001
0000
0100
0001
,
0100
0001
1000
0000
,
0001
0000
1000
1000
,
0001
0100
0001
0100
,
1000
0000
0001
0001
,
0100
0010
0100
0010
,
0001
0000
1000
1000
,
0001
1000
0001
1000
,
0100
0100
1000
1000
,
0001
0001
0100
0100
,
0000
0010
1000
1000
,
0001
0001
1000
1000
,
0000
0001
0010
0100
,
0010
0001
0010
0100
,
0000
0001
1000
0001
,
1000
0100
0010
0010
,
0000
0001
0100
0100
,
0001
0001
0010
0010
,
0000
0100
0010
0010
,
0001
0001
1000
1000
,
0000
0010
0100
0001
,
0100
0010
0100
0001
,
0000
1000
0100
1000
,
0100
0010
0001
0001
,
1000
0000
0001
0000
,
0200
0300
0020
0030
,
1000
0000
0001
0000
,
0010
0000
0100
0000
,
0010
0001
0000
0001
,
1000
0000
1000
0001
,
0100
0010
0000
0010
,
1000
0001
1000
0001
,
1000
0000
0000
0000
;

//---------------dance-single - DWI Extreme T-8----------------
#NOTEDATA:;
#CHARTNAME:DWI Extreme T-8;
#CHARTHASH:3765624486;
#STEPSTYPE:dance-single;
#BANNER:;
#DESCRIPTION:DWI Extreme T-8;
#CHARTSTYLE:;
#DIFFICULTY:Medium;
#METER:7;
#METERF:0.000000;
#LASTSECONDHINT:99.887421;
#RADARVALUES:0.279427,0.300624,0.000000,0.125260,0.000000,203.000000,203.000000,0.000000,13.000000,0.000000,0.000000,0.000000,0.000000,0.000000,0.279427,0.300624,0.000000,0.125260,0.000000,203.000000,203.000000,0.000000,13.000000,0.000000,0.000000,0.000000,0.000000,0.000000;
#CREDIT:DWI Extreme T-8;
#NOTES:
0000
0000
0000
0000
,
0000
0000
0000
0000
,
0000
0000
0000
0000
,
0000
0000
0000
0000
,
0010
0100
0001
1000
,
1000
0010
0100
0000
,
0100
0001
0010
0010
,
0100
1000
0100
0010
,
0001
0000
1000
0000
0001
0000
1000
0100
,
0010
0000
0001
0100
,
0010
0010
1000
0001
,
0001
0000
0100
0001
,
1000
0000
0010
0000
1000
0000
0010
0100
,
0001
0000
0100
0001
,
0010
0010
0100
1000
,
1000
0000
0001
0100
,
0001
1000
0100
0010
,
0001
2000
3100
0010
,
0100
1000
0010
0100
,
0001
1000
0002
0100
,
0200
0000
0303
0000
0001
1000
0001
0000
,
0100
0001
1000
0100
,
0010
0100
1000
1000
,
0010
0100
0010
0000
1000
0000
0100
0000
,
0010
0001
0100
0100
,
0001
0000
1000
0000
0100
0010
1000
0000
,
0010
0000
0100
0000
0001
0000
0001
1000
,
0100
0010
0100
0010
,
0001
1000
0001
0000
0001
0010
0001
0000
,
0100
0010
2000
3010
,
0100
0001
0100
0000
0001
0000
0001
0000
,
1000
0100
0010
0000
0002
0000
0013
0000
,
0100
1000
0010
0001
,
0100
1000
0010
0010
,
1000
0000
0100
0010
0100
0000
0100
1000
,
0100
0010
0002
0103
,
0010
1000
0010
0000
0010
0100
0010
0000
,
1000
0001
0200
0310
,
1000
0001
1000
0000
0010
0000
0010
0000
,
0100
0001
1000
0000
0002
0000
0013
0000
,
0100
1000
0100
0001
,
0100
1000
0001
0001
,
0100
0000
0001
0100
0001
0000
0001
1000
,
0001
0100
0020
1030
,
0100
0100
1000
1000
,
0001
0001
0100
0100
,
0001
0010
0100
1000
,
0001
1000
0001
0100
,
0020
0000
1000
0000
1030
0000
0000
0200
,
0000
0010
1000
0310
,
0002
0000
1000
0000
1003
0000
0000
0020
,
0000
0100
1000
0100
,
0130
0000
0000
0000
;

//---------------dance-single - DWI Extreme T-8----------------
#NOTEDATA:;
#CHARTNAME:DWI Extreme T-8;
#CHARTHASH:3127759983;
#STEPSTYPE:dance-single;
#BANNER:;
#DESCRIPTION:DWI Extreme T-8;
#CHARTSTYLE:;
#DIFFICULTY:Hard;
#METER:12;
#METERF:0.000000;
#LASTSECONDHINT:99.887421;
#RADARVALUES:0.538206,0.526093,0.077083,0.000000,0.221614,391.000000,383.000000,8.000000,0.000000,0.000000,0.000000,0.000000,0.000000,0.000000,0.538206,0.526093,0.077083,0.000000,0.221614,391.000000,383.000000,8.000000,0.000000,0.000000,0.000000,0.000000,0.000000,0.000000;
#CREDIT:DWI Extreme T-8;
#NOTES:
0000
0000
0000
0000
,
0000
0000
0000
0000
,
0000
0000
0000
0000
,
0000
0000
0000
0000
,
0101
0000
1000
0000
0010
0000
1000
0000
0001
0000
0000
0001
0000
0010
0100
0000
,
1000
0000
0000
0000
0001
0000
0010
0100
0010
0000
0001
0000
1000
0000
0100
0010
,
0100
0000
1000
0000
0010
0000
1000
0000
0100
0000
0000
0100
0000
0010
0001
0000
,
0100
0000
0001
0000
1000
0000
0001
0000
0010
0000
0001
0000
1000
0100
1000
0000
,
0110
0000
1000
0100
0001
0100
1000
0010
,
0100
0000
0001
1000
0001
0100
0010
1000
,
0100
0000
0010
0000
0001
0000
0000
0000
1000
0000
0001
1000
0001
0000
0100
0000
,
0010
1000
0100
0000
1000
0010
0100
0001
,
0010
0100
1000
0010
0100
0001
0010
0100
,
1000
0000
0100
0010
0100
1000
0100
0010
,
0001
0100
0010
0000
0100
0001
1000
0001
,
0010
0100
0000
0010
0010
0001
0100
0001
,
1000
0010
1000
0010
0000
1000
1000
0001
,
0010
0000
0001
1000
0000
0100
0000
1000
0001
0000
0100
0000
0010
0000
0100
0000
,
0001
0010
0100
1000
0000
0010
0010
1000
,
0100
0000
0010
0000
0001
1000
0001
0000
0100
0000
0010
0000
0001
0000
0010
0000
,
1001
0000
1010
0000
0001
0001
1000
0010
,
1000
1000
0001
0100
0010
1000
0100
0001
,
0100
0000
1100
0000
0010
0010
0001
1000
,
0001
0001
0100
0010
1000
0010
0001
0010
,
1000
0000
1001
0000
0100
0100
0001
0010
,
0100
0100
1000
0001
0100
0001
1000
0010
,
0001
0000
0101
0000
1000
1000
0010
0100
,
0001
0000
0001
0000
1000
0000
0100
0000
0010
0000
0001
0000
1000
0010
1000
0000
,
0010
0000
1000
0000
0001
0000
0010
0000
0100
0000
1000
0010
1000
0010
0000
0100
,
0001
0000
1000
0000
0001
0000
1000
0000
0000
0100
0000
0000
0010
0001
0010
0000
,
0001
0000
0100
0010
1000
0000
0100
0000
0100
0000
0010
0100
1000
0010
0100
0000
,
0001
0000
0010
0000
0001
0000
0010
0000
0000
0100
0000
0000
0010
0001
0010
0000
,
0100
1000
0001
0100
0010
0010
1000
0100
,
0100
1000
0010
0010
0100
0001
0010
0100
,
0000
0000
0010
0001
0010
0001
0100
0000
0010
0000
1000
0001
1000
0001
0010
0000
,
0100
0000
1000
0000
0100
0000
1000
0000
0000
0010
0000
0000
0100
0001
0100
0000
,
0010
0000
1000
0000
0001
0000
0100
0000
0010
0000
1000
0100
1000
0100
0000
0010
,
0001
0000
0100
0000
0001
0000
0100
0000
0000
0010
0000
0000
0100
0001
0100
0000
,
0001
0000
1000
0100
0010
0000
0001
0000
0001
0000
0100
0001
1000
0100
0010
0000
,
0100
0000
1000
0000
0100
0000
1000
0000
0000
0001
0000
0000
0100
0010
0100
0000
,
0001
1000
0001
0010
0100
0100
0010
0001
,
0001
0010
0100
0100
1000
0001
0100
0001
,
0000
0000
1000
0100
1000
0100
0010
0000
0100
0000
1000
0001
1000
0001
0100
0000
,
0010
0000
1000
0000
0010
0000
1000
0000
0000
0001
0000
0000
0100
0001
0100
0000
,
0001
1000
0001
0000
0001
0010
0001
0000
,
0100
1000
0100
0000
0100
0010
0100
0000
,
0010
1000
0100
0010
0100
1000
0100
0000
,
0010
0001
0100
0010
0100
0001
0100
0000
,
0001
1000
0001
1000
0100
0001
0010
0000
,
0100
0001
0100
0001
0010
1000
0100
0000
,
0001
1000
0010
0010
0100
0100
0001
1000
,
0010
0000
0100
0000
0001
0000
0001
0000
1000
0000
1000
0000
0001
1000
0001
0000
,
0110
0000
0000
0000
;

//---------------dance-single - B. M'Rey----------------
#NOTEDATA:;
#CHARTNAME:B. M'Rey;
#CHARTHASH:4125085845;
#STEPSTYPE:dance-single;
#BANNER:;
#DESCRIPTION:B. M'Rey;
#CHARTSTYLE:;
#DIFFICULTY:Challenge;
#METER:13;
#METERF:0.000000;
#LASTSECONDHINT:99.887421;
#RADARVALUES:0.626301,0.651353,0.317968,0.105989,0.356510,455.000000,422.000000,33.000000,11.000000,0.000000,0.000000,0.000000,0.000000,0.000000,0.626301,0.651353,0.317968,0.105989,0.356510,455.000000,422.000000,33.000000,11.000000,0.000000,0.000000,0.000000,0.000000,0.000000;
#CREDIT:B. M'Rey;
#NOTES:
// measure 0
0000
0000
0000
0000
,  // measure 1
0000
0000
0000
0000
,  // measure 2
0000
0000
0000
0000
,  // measure 3
0000
0000
0000
0000
,  // measure 4
0100
0000
0010
0001
0100
0000
1000
0000
0001
0000
0010
1000
0001
0000
0010
0000
,  // measure 5
0001
0000
1000
0010
0100
0000
0010
0000
0001
0000
1000
0010
0001
0000
0100
0000
,  // measure 6
0001
0000
0100
0001
0010
0000
0100
0000
0010
0000
1000
0100
0001
0000
1000
0000
,  // measure 7
1001
0000
1001
0000
0110
0000
0110
0000
0110
0000
1001
0000
1000
0010
0100
0000
,  // measure 8
0010
0100
0001
1000
0100
1000
0100
0010
,  // measure 9
0100
0000
1000
0010
0001
0000
0100
0000
0001
0000
0010
1000
0100
0000
0010
0000
,  // measure 10
0100
0000
1000
0000
0010
0100
1000
0000
0100
0000
1000
0000
0100
0010
0000
0001
,  // measure 11
0100
0000
1000
0010
0001
0000
1000
0000
0001
0000
1000
0000
0001
0000
0010
0000
,  // measure 12
0001
0010
1000
0000
0100
0000
0010
0000
0100
1000
0010
0000
0001
0000
0010
0000
,  // measure 13
0001
0100
0010
0100
0001
0100
0010
1000
,  // measure 14
0101
0000
0101
0000
0010
0100
0010
1000
,  // measure 15
1001
0000
0100
1000
0100
0010
0100
0010
,  // measure 16
1001
0010
0001
0100
0000
1000
0100
0010
,  // measure 17
0001
0000
1000
0001
0000
1000
0010
0000
0001
0000
0010
0000
0100
0000
1000
0000
,  // measure 18
0002
0000
0013
0001
0010
0100
0010
1000
,  // measure 19
0110
0000
0000
0000
0001
1000
0100
0000
0020
0000
0000
0000
1030
0000
0001
0000
,  // measure 20
1000
0000
0001
0000
0001
0010
0100
0010
,  // measure 21
0001
0100
0001
0010
0001
1000
0010
1000
,  // measure 22
0100
0000
0001
0010
0110
0000
1100
0000
,  // measure 23
0010
1000
0100
0010
0101
0000
0011
0000
,  // measure 24
0001
0010
0100
1000
0001
0100
0001
0010
,  // measure 25
0001
0100
0010
0100
0001
0100
0001
1000
,  // measure 26
0110
0000
1100
0000
0010
1000
0010
1000
,  // measure 27
0001
0000
0100
0000
0010
0000
1000
0000
0001
1000
0001
1000
0001
0010
0100
1000
,  // measure 28
0010
0000
1000
0001
0010
0000
1000
0000
0100
0000
1000
0001
0100
0010
0000
0001
,  // measure 29
0100
0000
1000
0010
0000
0100
1000
0000
0001
0010
0000
0010
0001
0100
1000
0000
,  // measure 30
0110
0000
0100
0010
0100
0000
0100
0000
0010
0000
1000
0001
1000
0001
0100
0000
,  // measure 31
0001
0000
0010
0001
0000
0001
1000
0000
0100
1000
0000
1000
0100
0010
0100
0000
,  // measure 32
0110
0010
0001
0010
0001
1000
0001
1000
,  // measure 33
0100
1000
0100
0010
0100
0010
0001
2000
,  // measure 34
3100
0000
0100
0010
0100
0010
1000
0000
0100
0000
0010
0001
0100
1000
0010
0000
,  // measure 35
0100
1000
0000
0000
0001
1000
0000
0000
0001
1000
0000
0000
0100
0010
0000
0000
,  // measure 36
1001
0000
0001
1000
0100
0000
0001
0000
0010
0000
0001
1000
0010
0100
0000
1000
,  // measure 37
0010
0000
0001
0100
0000
0010
0001
0000
1000
0100
0000
0100
1000
0010
0001
0000
,  // measure 38
0110
0000
0010
0100
0010
0000
0010
0000
0100
0000
0001
1000
0001
1000
0010
0000
,  // measure 39
1000
0000
0100
1000
0000
1000
0001
0000
0010
0001
0000
0001
0010
0100
0010
0000
,  // measure 40
0110
0100
1000
0100
1000
0001
1000
0001
,  // measure 41
0010
0001
0010
0100
0010
0100
1000
0002
,  // measure 42
0013
0000
0010
0100
0010
0100
0001
0000
0010
0000
0100
1000
0010
0001
0100
0000
,  // measure 43
0010
0001
0000
0000
1000
0001
0000
0000
1000
0001
0000
0000
0010
0100
0000
0000
,  // measure 44
1100
1000
1010
1000
1100
0100
0101
0001
,  // measure 45
0011
0100
1100
0100
0110
1000
1100
0100
,  // measure 46
0202
0303
0010
0000
1010
0000
0100
0000
0100
0000
0010
0000
0001
0000
0200
0000
,  // measure 47
0310
1000
0010
0100
0010
0100
0001
1000
,  // measure 48
0002
0013
0100
1000
0010
0100
0010
2000
,  // measure 49
3100
0010
0001
1000
0100
0010
0100
0010
,  // measure 50
0200
1300
0010
0100
0001
0100
0010
0200
,  // measure 51
0301
0000
0010
0000
0001
0000
0010
0000
0100
0000
1000
0000
0100
0010
0100
0000
,  // measure 52
0110
0000
0000
0000
;
