#TITLE:CHARLOTTE;
#ARTIST:Db.Saka feat. Piasa;
#GENRE:FRENCH BOSSA;
#CREDIT:B. M'Rey;
#MUSIC:charlotte.ogg;
#BANNER:CHARLOTTE.png;
#BACKGROUND:CHARLOTTE-bg.png;
#CDTITLE:./CDTITLES/beatmania IIDX.PNG;
#SAMPLESTART:65.560;
#SAMPLELENGTH:12;
#OFFSET:-0.300;
#BPMS:0=150;
#BGCHANGES:-0.092=CHARLOTTE.avi=1.000=0=0=0=StretchNoLoop====;

//--------------- dance-single - B. M'Rey ----------------
#NOTES:
     dance-single:
     B. M'Rey:
     Beginner:
     1:
     0,0,0,0,0:
0000
0000
0000
0000
,
0000
0000
0000
0000
,
0000
0000
0000
0000
,
0000
0000
0000
0000
,
0000
0000
0000
0000
,
0000
0001
0000
0000
,
0000
1000
0000
0000
,
0000
0010
0000
0000
,
0000
0100
0000
0000
,
0000
0001
0000
0000
,
0000
0010
0000
0000
,
0000
1000
0000
0000
,
0000
0000
0000
0000
,
0000
0100
0000
0000
,
0000
0010
0000
0000
,
0000
0001
0000
0000
,
0000
0000
0000
0000
,
0000
1000
0000
0000
,
0000
0010
0000
0000
,
0000
0100
0000
0000
,
0000
0001
0000
0000
,
0000
0010
0000
0000
,
0000
0001
0000
0000
,
0000
0100
0000
0000
,
0000
0010
0000
0000
,
0000
1000
0000
0000
,
0000
0001
0000
0000
,
0000
0100
0000
0000
,
0000
0010
0000
0000
,
0000
0100
0000
0000
,
0000
0001
0000
0000
,
0000
0010
0000
0000
,
0000
0100
0000
0000
,
0000
1000
0000
0000
,
0000
0001
0000
0000
,
0000
0010
0000
0000
,
0000
0001
0000
0000
,
0000
0100
0000
0000
,
0000
0010
0000
0000
,
0000
1000
0000
0000
,
0000
0001
0000
0000
,
0000
1000
0000
0010
,
0000
0100
0000
0001
,
0000
0010
0000
0001
,
0000
0100
0000
0010
,
0000
1000
0000
0100
,
0000
1000
0000
0010
,
0000
0100
0000
0001
,
0000
0010
0000
0000
,
0000
1000
0000
0001
,
0000
0010
0000
0001
,
0000
0100
0000
0010
,
0000
1000
0000
0001
,
0000
0010
0000
0001
,
0000
0100
0000
0010
,
0000
1000
0000
0001
,
0000
0100
0000
0000
,
0000
0001
0000
0000
,
0000
1000
0000
0000
,
0000
0010
0000
0000
,
0000
0000
0000
0000
,
0000
0100
0000
0000
,
0000
0010
0000
0000
,
0000
0001
0000
0000
,
0000
1000
0000
0000
,
0000
0010
0000
0000
,
0000
0000
0000
0000
,
0110
0000
0000
0000
;

//--------------- dance-single - B. M'Rey ----------------
#NOTES:
     dance-single:
     B. M'Rey:
     Easy:
     3:
     0,0,0,0,0:
0000
0000
0000
0000
,
0000
0000
0000
0000
,
0000
0000
0000
0000
,
0000
0000
0000
0000
,
0000
0000
0000
0000
,
0000
0001
0000
0010
,
0000
0001
0000
0010
,
0000
1000
0000
0100
,
0000
1000
0000
0000
,
0000
0001
0000
0100
,
0000
0010
1000
0010
,
0000
0100
0000
0000
,
0000
0001
0000
0000
,
0000
0001
0000
1000
,
0000
0010
0100
0010
,
0000
0001
0000
0000
,
0000
0100
0000
0000
,
0000
0001
0000
1000
,
0000
0010
0100
0010
,
0000
0001
0000
1000
,
0000
0010
1000
0010
,
0000
0100
0000
0001
,
0000
0100
0001
0100
,
0000
0010
0000
0100
,
0000
1000
0000
0001
,
0000
1001
0000
0100
,
0000
0010
0100
0010
,
0000
0001
0000
1000
,
0000
0010
1000
0010
,
0000
0100
0001
0100
,
0000
1000
0000
0010
,
0000
0100
0000
0001
,
0000
0010
0000
0001
,
0000
0100
0010
0100
,
0000
0001
0100
0001
,
0000
0010
1000
0010
,
0000
0100
0000
0010
,
0000
0001
0010
0001
,
0000
1000
0100
1000
,
0000
0010
0000
0100
,
0000
1001
0000
0000
,
0000
0001
1000
0001
,
1000
0001
0100
0010
,
0100
0010
0100
0001
,
0000
0001
0000
0001
,
1000
0010
0000
0010
,
0000
0001
0100
0001
,
0100
0010
0000
0010
,
0000
0010
0000
0001
,
0100
0001
0000
0100
,
1000
0100
1000
0001
,
0010
0001
0010
0001
,
0000
0010
0000
0010
,
0100
0001
0000
0001
,
0000
0001
0010
0100
,
0010
0100
0000
0010
,
0000
1000
0000
0000
,
0000
0001
0000
0010
,
0000
0100
0000
0001
,
0000
1000
0001
1000
,
0000
0010
0100
0010
,
0000
1000
0000
0010
,
0000
0100
0000
0001
,
0000
0100
0001
0100
,
0000
0010
0000
1000
,
0000
0001
0000
0000
,
0000
0000
0000
0000
,
1001
0000
0000
0000
;

//--------------- dance-single - B. M'Rey ----------------
#NOTES:
     dance-single:
     B. M'Rey:
     Medium:
     5:
     0,0,0,0,0:
0000
0000
0000
0000
,
0000
0000
0000
0000
,
0000
0000
0000
0000
,
0000
0000
0000
0000
,
0000
0000
0000
0000
,
0000
1000
0000
0001
,
0000
0010
0000
0001
,
0100
0010
0000
1000
,
0100
0001
0000
0000
,
0000
0001
0010
0001
,
0010
0001
1000
0010
,
1000
0010
0000
0100
,
0000
0010
0000
0100
,
0000
0001
1000
0001
,
1000
0010
0100
0010
,
0100
0010
0000
0100
,
0000
0101
0000
0000
,
0000
0010
0100
0010
,
0100
0001
0010
0000
,
0010
0100
0000
0010
,
0000
0001
0010
0001
,
0000
0001
1000
0100
,
0000
0001
0000
0010
,
0000
0001
0100
0010
,
0000
0011
0000
1010
,
0110
0100
0010
0001
,
0100
0010
1000
0000
,
0010
0001
0000
0010
,
0000
0100
0010
0100
,
0000
0010
0100
0010
,
1000
0100
0000
0001
,
0000
0000
0010
0000
1001
0000
0000
1010
,
0000
0000
0110
0000
0000
0011
0000
0000
,
0110
0001
0100
0001
,
0100
0010
0100
0001
,
0010
0001
0100
0010
,
0100
0001
0010
0001
,
0100
0001
1000
0010
,
1000
0100
0010
0001
,
0100
0010
1000
0100
,
0010
0001
0000
0100
,
0010
0000
0110
0000
0010
0100
0001
0000
,
0010
1000
0100
0000
0100
0010
0001
0000
,
0001
1000
0100
0000
0001
1000
0100
0000
,
0010
0100
0010
0101
,
0101
0000
0010
1000
0100
0000
0001
0010
,
0001
0000
0010
1000
0010
0000
0001
0100
,
0001
0000
0100
0010
0100
0000
0001
1000
,
0001
0100
0001
0101
,
0110
0000
1010
0000
0100
1000
0010
0000
,
0010
1000
0100
0000
0010
1000
0010
0000
,
0010
1000
0001
0000
0001
1000
0100
0000
,
0010
0100
0010
0100
,
0001
0100
0020
0000
0100
0000
0100
0000
,
0100
0000
0130
1000
0010
0000
0010
1000
,
0010
0000
0001
0010
0100
0000
0100
0010
,
0001
0010
0000
0001
,
0100
0100
1000
0100
,
0010
0100
0010
0001
,
0010
0100
0000
0100
,
0000
0100
0000
0001
,
0000
0001
1000
0001
,
0010
0100
0010
0100
,
0010
0001
0000
0010
,
0000
0010
0000
0001
,
0000
0100
0000
0000
,
0000
0000
0000
1001
,
1001
0000
0000
0000
;

//--------------- dance-single - B. M'Rey ----------------
#NOTES:
     dance-single:
     B. M'Rey:
     Hard:
     7:
     0,0,0,0,0:
0000
0000
0000
0000
,
0000
0000
0000
0000
,
0000
0000
0000
0000
,
0000
0000
0000
0000
,
0000
0000
0000
0000
,
0000
0000
0000
0000
0001
0000
0000
0000
1000
0000
0100
0000
0000
0001
0000
0000
,
0000
1000
0000
0000
0001
0000
0000
0100
0000
0000
0010
0000
1000
0000
0000
0100
,
0000
0000
0010
0000
0001
0000
0000
0000
1000
0000
0010
0000
0100
0000
0000
1000
,
0000
0002
0000
0000
0000
0000
1003
0000
,
0010
0000
0001
0000
0001
1000
0000
0010
,
0000
0100
0000
0010
0001
0100
0000
0010
,
0001
0010
0001
0000
0100
1000
0000
0001
,
0000
1000
0000
0010
0100
0010
0100
1000
,
0010
1000
0010
0000
0001
0010
0000
0001
,
0000
0000
0100
0000
0000
0000
0010
0000
0000
0000
0100
0000
0000
0000
1000
0001
,
1000
0000
0100
0000
0010
0100
0000
1000
,
0000
0001
0000
1000
0100
0010
0001
0000
,
1000
0000
0110
0000
0001
1000
0100
0000
,
0001
0010
0001
0010
0001
0000
0100
0000
,
1000
0000
0001
0000
0010
1000
0010
0000
,
0010
0100
0001
0010
0001
0000
0001
0000
,
0100
0010
0100
1000
0100
1000
0010
0000
,
0001
0000
0010
0000
0001
0100
0010
0000
,
0010
0000
0100
0000
0000
0000
0001
0000
0000
0000
0010
0000
0001
0000
0000
0010
,
0000
0100
0000
1000
0010
0100
0000
0011
,
0000
0110
0000
0000
0001
0000
0000
0000
0100
0000
1000
0000
0100
0000
0000
0000
,
0100
1000
0010
1000
0010
0000
0100
0000
,
0100
0010
0100
0000
0001
1000
0100
0000
,
0100
0010
0100
0010
0001
0000
1000
0000
,
0001
1000
0100
0000
0001
0010
0001
0100
,
0000
0020
0000
0000
0030
1000
0010
0000
,
0001
0100
0000
0001
0010
0000
0010
1000
,
0000
0100
0001
0000
0001
0100
0000
1000
,
0010
0000
0100
0000
0001
0000
0001
1000
,
0001
0000
0100
0000
1000
0000
0100
0010
,
0001
0000
1000
0000
0100
0000
0001
0010
,
0001
0000
0100
0000
0010
0000
0001
0100
,
0001
0010
0001
0000
0100
1000
0100
0000
,
0010
0100
0010
0100
0010
0000
0100
0000
,
0100
1000
0001
0000
0001
0100
0001
0000
,
0100
0010
0000
1001
0000
1100
0000
0000
,
0000
0000
0001
0010
0100
0010
0100
1000
,
0100
1000
0001
1000
0001
0100
0001
0100
,
0010
0100
0010
1000
0010
1000
0001
0000
,
0001
0010
0000
0010
0100
0000
1100
0000
,
1001
0000
0010
0100
0010
0100
0010
1000
,
0001
1000
0001
1000
0100
0010
0100
0010
,
0100
1000
0001
0000
0010
0000
0001
0010
,
0001
0100
0000
1000
0000
1000
0010
0000
,
0001
0000
0001
0100
0001
1000
0100
1000
,
0100
1000
0010
0100
0010
0100
0010
1000
,
0001
0010
0100
0010
0100
0010
0001
0000
,
0001
0100
0000
0010
0100
0000
1000
0000
,
0100
0010
0001
0000
0001
0010
0100
0000
,
0100
0010
0100
0000
0001
0010
0001
0000
,
0001
1000
0010
0000
0001
0010
0001
0000
,
0001
0100
0010
0000
0010
0100
0000
1000
,
0000
0001
0010
0000
0010
0100
0000
0001
,
0000
1000
0000
0010
0000
0100
0000
0010
,
0100
0000
1000
0000
0001
0000
0000
0000
0001
0000
1000
0000
0100
0000
0000
0010
,
0000
0000
0100
0000
0000
0000
1000
0010
1000
0000
0010
0000
1000
0000
0010
0000
,
0001
0100
0001
0000
0010
0100
0000
1000
,
0000
0000
0100
0000
0000
0000
1000
0000
0000
0000
0100
0000
0000
0000
0010
0001
,
0010
0000
0000
0000
0001
0000
0000
0000
0100
0000
1000
0000
0100
0000
0000
0010
,
0000
0010
0000
1000
0000
0010
0000
1000
,
0001
0010
0001
0000
0000
0000
0000
0000
,
0000
0000
0000
1001
,
0220
0000
0000
0000
,
0330
0000
0000
0000
;

//--------------- dance-single - B. M'Rey ----------------
#NOTES:
     dance-single:
     B. M'Rey:
     Challenge:
     10:
     0,0,0,0,0:
0000
0000
0000
0000
,
0000
0000
0000
0000
,
0000
0000
0000
0000
,
0000
0000
0000
0000
,
0000
0000
0000
0000
,
0000
0000
0000
0000
1000
0000
0010
0001
0000
0000
0100
0000
0010
0000
0001
0010
,
0000
0000
1000
0000
0010
0000
0000
0100
0000
0000
1000
0000
0001
0000
0000
1000
,
0000
0000
0010
0000
0100
0000
0000
0000
0100
0000
0010
0000
0001
0000
1000
0001
,
0000
0000
0000
0000
0000
0000
1000
0000
0000
0000
0000
0000
0001
0000
0000
0000
0000
0000
0000
0000
0000
0000
0000
0000
1000
0000
0001
0000
1000
0000
0001
0000
1000
0000
0001
0000
1000
0000
0000
0000
0000
0000
0010
0000
0000
0100
0000
0000
,
0000
1000
0010
0000
0001
0000
0010
1000
0001
0000
0010
1000
0100
0000
0001
0010
,
0100
0000
0010
1000
0100
0000
0100
0010
0001
0000
0001
1000
0100
0000
0100
1000
,
0001
0000
0001
0100
0010
0000
1000
0000
0001
0000
1000
0000
0001
0000
0010
0000
,
0001
1000
0010
0100
0010
0100
0010
1000
,
0001
0000
0100
0000
0010
0000
0010
1000
0100
0000
0001
1000
0100
0000
0100
1000
,
0010
0000
0001
1000
0010
0000
0001
0010
0100
0000
0001
1000
0100
0000
0010
1000
,
0100
0000
0001
0100
0010
0000
0100
0000
0001
0000
1000
0000
0001
0000
0010
0000
,
0001
0010
0001
0000
1000
0000
0001
0000
,
1000
0000
0101
0000
0010
0100
0001
0000
,
0001
1000
0001
1000
0010
0000
0010
0100
,
0001
0100
0001
0000
0010
1000
0010
0000
,
0010
0100
0001
0100
0010
0100
0010
1000
,
0010
1000
0001
1000
0001
0100
0001
0010
,
0100
0010
0100
0010
0001
0100
0001
0100
,
0001
0000
1000
0000
0100
0000
0010
0000
0100
0000
0010
0000
0100
1000
0000
1000
,
0001
0000
1000
0000
0100
0000
1000
0100
0000
0100
0010
0000
0100
0000
0011
0000
,
0000
0011
0000
0000
0011
0000
0000
0000
0001
0000
1000
0000
0010
0000
1000
0000
,
0010
0100
0010
0100
0001
0100
0001
1000
,
0001
1000
0010
1000
0001
0010
0001
0010
,
0001
1000
0010
0100
0010
0100
0010
1000
,
0100
0010
0100
0010
0100
1000
0001
0100
,
0001
0100
0001
1000
0010
1000
0010
1000
,
0001
0000
0010
0000
0001
0000
0010
0001
0010
0000
1000
0000
0100
1000
0100
0000
,
0001
0000
1000
0100
1000
0000
0010
0000
0100
0010
0100
0000
0100
0000
1000
0010
,
1000
0000
1000
0000
0010
1000
0100
0000
0100
0000
0010
0000
0001
0010
0001
0000
,
0100
0000
0010
0000
0100
1000
0100
0000
0100
0000
1000
0000
0001
1000
0001
0000
,
0001
0000
0010
0000
0001
1000
0001
0000
0100
0000
0010
0000
0100
0010
0100
0000
,
0100
0000
1000
0000
0010
1000
0010
0000
0010
0000
1000
0001
1000
0000
0100
0000
,
0010
0000
0001
0000
0100
0010
1000
0000
0001
0000
1000
0000
0010
0100
1000
0000
,
0010
0000
1000
0000
0001
1000
0010
0000
0001
0000
1000
0000
0001
0100
1000
0000
,
0010
0000
1000
0000
0010
0001
0100
0000
0010
0000
0100
0000
0001
1000
0100
0000
,
0001
0011
0000
0110
0000
0110
1000
0000
,
0100
0000
0000
0000
0001
0000
0001
0010
0001
0000
0100
0010
0100
0000
0100
1000
,
0001
0000
0010
0100
0010
0000
0001
0100
0001
0000
0001
1000
0010
0000
0010
0100
,
0010
0000
0001
0100
0001
0000
0001
0010
0100
0000
0001
1000
0001
0000
0100
0000
,
0010
0000
0100
0000
0001
0000
0001
0010
0001
0000
1000
0000
1010
0000
0000
0000
,
0011
0000
0000
0000
0010
0000
0010
0100
0001
0000
0001
1000
0010
0000
0010
0100
,
0010
0000
0001
0100
0001
0000
0010
1000
0010
0000
0100
0010
0001
0000
0001
1000
,
0100
0000
0100
1000
0001
0000
0001
0010
0001
0000
0010
1000
0010
0000
0001
0100
,
0001
0000
0001
1000
0100
0000
0001
0000
0100
0010
0000
1000
0100
0000
0010
0000
,
0001
0000
0100
1000
0100
0000
0100
0010
0001
0000
0100
1000
0100
0000
0100
0010
,
0001
0000
0001
0010
0100
0000
0100
1000
0100
0000
0001
0010
0001
0000
0001
1000
,
0100
0000
0100
0010
0100
0000
0010
0100
0010
0000
0010
1000
0100
0000
1000
0000
,
0010
0110
0000
1001
0110
0000
0001
1000
,
0100
0000
0001
1000
0100
0000
0100
0010
0100
0000
0010
1000
0010
0000
0100
0010
,
0100
0000
0100
1000
0010
0000
0010
1000
0001
0000
0001
0010
0100
0000
0100
1000
,
0100
0000
0001
0010
0100
0000
0001
0100
0001
0000
0001
1000
0010
0000
0010
1000
,
0100
0000
0100
0010
0001
0000
0000
0000
1000
0000
0000
0000
0010
0000
0001
0000
,
1000
0000
0010
0000
1000
0000
0100
0001
1000
0000
0100
0001
0010
0000
1000
0100
,
0010
0000
0100
0001
0010
0000
0010
0100
1000
0000
1000
0001
0010
0000
0010
0001
,
1000
0000
1000
0010
0100
0000
0001
0000
1000
0000
0001
0000
1000
0000
0000
0100
,
0000
0000
0001
0000
0100
0000
0010
0100
0010
0000
0010
0000
0100
0000
0001
0000
,
1000
0000
0010
0000
0100
0000
0100
0001
0010
0000
1000
0001
0010
0000
0010
0001
,
0100
0000
1000
0001
0100
0000
1000
0100
0010
0000
1000
0001
0010
0000
0100
0001
,
0010
0000
1000
0010
0100
0000
0010
0000
1000
0000
0001
0000
1000
0000
0000
0100
,
0000
0000
0010
0000
0100
0000
0000
0010
0000
0000
1000
0000
0001
0000
0010
0000
,
0001
0100
0010
0000
0000
1000
0000
0001
,
0000
0010
0000
0001
0000
0010
0100
0000
,
2200
0000
0000
0000
,
3300
0000
0000
0000
;
