#VERSION:0.83;
#TITLE:BURNING LIKE FIRE;
#ARTIST:DAVE RODGERS Feat. ALEX DE ROSSO;
#GENRE:EUROBEAT;
#CREDIT:B. M'Rey;
#MUSIC:Burning Like Fire.ogg;
#BANNER:Burning Like Fire-BN.png;
#BACKGROUND:Burning Like Fire-bg.png;
#CDTITLE:./CDTITLES/SUPER EUROBEAT.png;
#SAMPLESTART:51.282;
#SAMPLELENGTH:15;
#OFFSET:-0.082;
#BPMS:0=150;

//--------------- dance-single - B. M'Rey ----------------
#NOTEDATA:;
#STEPSTYPE:dance-single;
#DESCRIPTION:B. M'Rey;
#CREDIT:B. M'Rey;
#DIFFICULTY:Beginner;
#METER:3;
#RADARVALUES:0,0,0,0,0;
#NOTES:
0000
0000
0000
0000
,
0000
0000
0000
0000
,
0000
0000
0000
0000
,
0000
0000
0000
0000
,
1000
0000
0000
0000
,
0001
0000
0000
0000
,
0100
0000
0000
0000
,
0110
0000
0000
0000
,
0001
0000
0000
0000
,
1000
0000
0000
0000
,
0010
0000
0000
0000
,
0100
0000
0000
0000
,
0001
0000
1000
0000
,
0001
0000
1000
0000
,
0010
0000
0000
0000
,
0100
0000
0000
0000
,
0001
0000
1000
0000
,
0010
0000
0100
0000
,
0001
0000
1000
0000
,
0000
0000
0000
0000
,
0010
0000
0100
0000
,
0010
0000
0000
0000
,
1000
0000
0010
0000
,
0100
0000
0000
0000
,
0001
0000
0010
0000
,
0100
0000
1000
0000
,
0001
0000
1000
0000
,
0010
0100
0010
0000
,
0001
0000
1000
0000
,
0010
0000
0100
0000
,
0001
0000
1000
0000
,
0001
0000
1000
0000
,
0002
0000
0000
0000
,
0003
0000
1000
0000
,
0010
0000
0000
0000
,
0100
0000
0010
0000
,
0001
0000
1000
0000
,
0100
0010
0100
0000
,
0001
0000
1000
0000
,
0001
0100
0001
0000
,
0020
0000
0000
0000
,
0030
0000
1000
0000
,
0001
0000
0000
0000
,
0100
0000
0010
0000
,
1000
0000
0001
0000
,
0010
1000
0100
0000
,
0010
0000
1000
0000
,
0001
0100
0001
0000
,
0000
0000
0000
0000
,
0001
0000
0000
0000
,
1000
0000
0000
0000
,
0010
0000
0000
0000
,
0100
0000
0000
0000
,
0001
0000
1000
0000
,
0001
0000
1000
0000
,
0010
0000
0000
0000
,
0100
0000
0000
0000
,
1000
0000
0000
0000
,
0001
0000
0000
0000
,
0100
0000
0000
0000
,
0010
0000
0000
0000
,
1000
0000
0001
0000
,
1000
0000
0001
0000
,
0100
0000
0000
0000
,
0010
0000
0000
0000
,
1001
0000
0000
0000
;

//--------------- dance-single - B. M'Rey ----------------
#NOTEDATA:;
#STEPSTYPE:dance-single;
#DESCRIPTION:B. M'Rey;
#CREDIT:B. M'Rey;
#DIFFICULTY:Easy;
#METER:6;
#RADARVALUES:0,0,0,0,0;
#NOTES:
0000
0000
0000
0000
,
0000
0000
0000
0000
,
0000
0000
0000
0000
,
0000
0000
0000
0000
,
0010
0000
0000
0000
,
0001
0000
0000
0000
,
0100
0000
0000
0000
,
1010
0000
0000
0000
,
0001
0100
0010
0000
,
0010
0000
0100
0000
,
0002
0000
0013
0000
,
0010
0100
0010
0000
,
0100
0010
0100
0000
,
0001
0010
0100
0000
,
0001
0000
0100
0000
,
0100
0000
0011
0011
,
0001
0100
0010
1000
,
0100
0010
0100
0000
,
0001
1000
0100
1000
,
0100
0000
0001
0000
,
1000
0100
0010
0100
,
0010
1000
0100
0000
,
0000
0010
0001
0100
,
0001
0010
0100
0000
,
0010
0000
0100
0000
,
0001
0000
1000
0000
,
0100
1000
0100
1000
,
0001
1000
0100
0000
,
0100
0010
0100
1000
,
0010
0100
0001
0100
,
0000
0000
0100
0000
0010
0000
0000
0001
,
0000
0010
0000
0001
0000
0100
0000
0000
,
0020
0000
0030
0100
,
1001
0000
0100
0010
,
0200
0000
0310
0000
,
0010
1000
0110
0011
,
0001
1000
0010
0100
,
0001
0100
0010
0000
,
0100
1000
0010
1000
,
0100
1000
0200
0000
,
0302
0000
0000
0003
,
0101
0000
0010
0100
,
0010
0000
0001
0000
,
0100
1000
0011
0110
,
0100
0010
0001
0010
,
0100
1000
0010
0000
,
0010
1000
0001
0010
,
0001
0100
0020
0000
,
0030
0000
0000
0000
,
0001
0100
0010
0000
,
0010
0000
0100
0000
,
0002
0000
0013
0000
,
0010
0100
0010
0000
,
0100
0010
0100
0000
,
0001
0010
0100
0000
,
0001
0000
0100
0000
,
0100
0000
0011
0011
,
1000
0010
0100
0000
,
0100
0000
0010
0000
,
2000
0000
3100
0000
,
0100
0010
0100
0000
,
0010
0100
0010
0000
,
1000
0100
0010
0000
,
1000
0000
0010
0000
,
0010
0000
1100
1100
,
1100
0000
0000
0000
;

//--------------- dance-single - B. M'Rey ----------------
#NOTEDATA:;
#STEPSTYPE:dance-single;
#DESCRIPTION:B. M'Rey;
#CREDIT:B. M'Rey;
#DIFFICULTY:Medium;
#METER:9;
#RADARVALUES:0,0,0,0,0;
#NOTES:
0000
0000
0000
0000
,
0000
0000
0000
0000
,
0000
0000
0000
0000
,
0000
0000
0000
0000
,
1001
0000
0000
0000
,
0101
0000
0000
0000
,
0110
0000
0000
0000
,
1001
0000
0000
0000
,
0100
0010
0100
0010
,
0001
1000
0100
1000
,
0200
0000
0301
0000
,
0010
0100
1001
0000
,
0001
1000
0001
0000
0001
0010
0100
0000
,
0001
0010
0001
0000
0001
1000
0010
0000
,
0100
1000
0010
1000
,
0001
0100
0001
0100
0010
0000
0110
0000
,
0010
0000
0100
0010
0100
0000
0001
0010
,
0100
0000
0001
0010
0100
0000
0001
0000
,
0010
0000
0100
1000
0010
0000
0010
0100
,
0001
0100
0010
0001
,
0100
0000
0100
1000
0010
0000
0010
0100
,
0001
0000
0001
0010
0100
0000
0010
0000
,
0001
0000
0010
1000
0100
0000
0001
0010
,
0100
0000
0001
0100
0010
0000
1000
0000
,
0001
1000
0000
1000
0001
0000
1000
0000
,
0001
0010
0000
0010
0001
0000
0010
0000
,
0100
1000
0100
0000
0100
0000
1000
0000
,
0100
0001
0010
0000
0001
0000
1000
0000
,
0001
0010
1000
0000
0100
0001
0010
0000
,
0100
1000
0010
0000
0100
0001
1000
0000
,
0001
0000
0100
0010
0001
0000
1000
0100
,
0000
0011
0000
1100
0000
0101
0000
0000
,
0200
2300
3002
0103
,
0101
0000
0000
0000
0001
0010
1000
0000
,
0200
2300
3002
0013
,
0001
0010
1000
0000
1001
0000
1010
0000
,
0010
0000
1000
0100
0001
0000
0010
1000
,
0001
0000
0010
0001
0100
0000
0010
0000
,
0001
0000
0100
0010
0001
0000
1000
0100
,
0010
0000
1000
0001
0100
0000
1000
0000
,
0200
0320
0032
1003
,
1001
0000
0000
0000
0001
1000
0010
0000
,
0200
0320
0230
0310
,
0001
0010
1000
0000
1001
0000
0110
0000
,
0100
0000
0010
1000
0001
0000
0010
0100
,
0001
0000
1000
0010
0001
0000
1000
0000
,
0010
0000
0100
0001
0010
0000
0100
1010
,
0000
1001
0000
0202
0000
0000
0000
0000
,
0303
0000
0000
0000
,
0010
0100
0001
0100
,
0010
1000
0010
1000
,
0020
0000
0031
0100
,
0001
0100
1010
0000
,
0001
0100
1000
0000
0001
1000
0010
0000
,
0001
0100
0010
0000
0100
0001
0010
0000
,
0100
1000
0100
1000
,
0001
0010
1000
0000
1001
0000
0110
0000
,
0001
1000
0010
1000
,
0010
1000
0001
1000
,
0002
0000
0103
1000
,
0100
1000
0110
0000
,
0100
0001
0010
0000
0001
1000
0100
0000
,
0001
0010
1000
0000
0001
0100
0010
0000
,
0100
0010
0100
0010
,
0001
0010
1000
0000
0110
0000
1001
0000
,
0101
0000
0000
0000
;

//--------------- dance-single - B. M'Rey ----------------
#NOTEDATA:;
#STEPSTYPE:dance-single;
#DESCRIPTION:B. M'Rey;
#CREDIT:B. M'Rey;
#DIFFICULTY:Hard;
#METER:11;
#RADARVALUES:0,0,0,0,0;
#NOTES:
0000
0000
0000
0000
,
0000
0000
0000
0000
,
0000
0000
0000
0000
,
0000
0000
0000
0000
,
1001
0000
0010
0000
,
0101
0000
1000
0000
,
0110
0000
1000
0000
,
1001
0000
0000
0000
,
0011
0000
1100
0000
0010
0100
0000
0001
,
0000
0000
1000
0000
0000
0000
0010
0000
0100
0000
0000
0001
0000
0000
0100
0000
,
0020
0000
0000
1030
0100
0000
1000
0002
,
0000
2003
0000
3100
0010
0000
0100
0000
,
0001
0100
0001
0100
1000
0100
1000
0000
,
0010
1000
0010
1000
0010
0001
0010
0000
,
0100
0001
0010
0000
0100
0010
0001
0000
,
1000
0001
1000
0000
1001
0000
1001
0000
,
0100
0000
0001
0010
0001
1000
0001
0010
,
0000
0100
0000
1000
0000
0100
0000
1000
,
0001
0000
0001
0010
0001
1000
0010
1000
,
0010
0000
0001
0010
0000
1000
0001
1000
,
0010
0000
0010
0100
0001
1000
0000
0001
,
0000
0100
0000
1000
0000
1000
0010
0100
,
0001
0000
0001
0010
0100
0010
0000
0100
,
0000
1000
0000
0010
0100
1000
0100
0000
,
0001
0100
0000
1000
0100
0000
0010
0000
,
0001
0100
0000
0010
0100
0000
1000
0000
,
0100
0010
0001
1000
0000
0010
0100
0000
,
0100
1000
0010
1000
0001
0000
0010
0000
,
0001
0100
0001
1000
0000
1000
0010
0000
,
0100
0010
0100
1000
0000
0010
0100
0000
,
0100
0000
0001
0010
0100
1000
0100
0110
,
0000
0011
0000
1001
0000
0110
0000
0000
,
0002
0000
2003
0000
3200
0000
0310
1000
,
0001
0000
0000
0000
0010
0000
0000
0000
0010
0000
0000
0100
0000
0000
1000
0000
,
0100
0000
0001
0010
0100
0000
0001
0000
,
0001
0100
0001
0010
0110
0000
1001
0000
,
0010
0000
0010
0100
0010
1000
0100
1000
,
0000
0100
0000
1000
0000
1000
0001
0100
,
0010
0000
0100
1000
0100
0010
0001
1000
,
0000
0100
0000
0010
0001
0100
0010
1000
,
0020
0000
0230
0000
0320
0000
1030
0001
,
0100
0000
0000
0000
0010
0000
0000
0000
0001
0000
0000
0010
0000
0000
0100
0000
,
0001
0000
0010
1000
0100
0000
1000
0000
,
0100
0010
0001
1000
1001
0000
1100
0000
,
0100
0000
0001
0100
0001
0100
0001
0010
,
0000
1000
0000
0100
0000
1000
0010
0100
,
0001
0000
0100
0010
0001
0010
0100
1001
,
0000
1100
0000
0010
0001
1000
0010
2000
,
0000
0000
0000
0000
,
3110
0000
0101
0000
0001
0010
0000
1000
,
0000
0000
0100
0000
0000
0000
1000
0000
0010
0000
0000
0001
0000
0000
0010
0000
,
0002
0000
0003
0100
0010
0000
0010
0200
,
0000
2300
0000
3010
0100
0000
0001
0000
,
0001
1000
0001
1000
0010
1000
0010
0000
,
0001
1000
0001
1000
0010
0100
0010
0000
,
0010
0100
0010
0000
0010
1000
0010
0000
,
0001
0010
1000
0000
1100
0000
0011
0000
,
1100
0000
0110
0000
0001
1000
0000
0001
,
0000
0000
1000
0000
0000
0000
0100
0000
0001
0000
0000
0010
0000
0000
0100
0000
,
0002
0000
0013
1000
0020
0000
0130
2000
,
0000
3020
0000
0031
0100
0000
0001
0000
,
0001
1000
0001
1000
0010
0100
0010
0000
,
0010
0100
0010
0100
0001
1000
0001
0000
,
0001
0010
0100
0000
0010
1000
0001
0000
,
0001
0100
0010
0000
1010
0000
0110
0000
,
0101
0000
0000
0000
;
