#TITLE:BE MY COWBOY;
#SUBTITLE:(SPEED Remix);
#ARTIST:JENNY ROM;
#GENRE:HAPPY HARDCORE;
#MUSIC:BE MY COWBOY (SPEED Remix).ogg;
#BANNER:BE MY COWBOY (SPEED Remix)-bn.png;
#BACKGROUND:BE MY COWBOY (SPEED Remix)-bg.png;
#CDTITLE:./CDTITLES/DANCEMANIA SPEED G.PNG;
#SAMPLESTART:77.765;
#SAMPLELENGTH:12;
#OFFSET:-0.219;
#BPMS:0=171.963;

//--------------- dance-single - B. M'Rey ----------------
#NOTES:
     dance-single:
     B. M'Rey:
     Beginner:
     2:
     0,0,0,0,0:
0000
0000
0000
0000
,
0000
0000
0000
0000
,
0000
0000
0000
0000
,
0000
0000
0000
0000
,
0000
0000
0000
0000
,
0000
0000
0000
0000
,
0000
0000
0000
0000
,
0000
0000
0000
0000
,
1000
0000
0001
0000
,
0010
0000
0001
0000
,
0100
0000
0010
0000
,
1000
0000
0010
0000
,
0100
0000
0010
0000
,
0001
0000
0010
0000
,
0001
0000
0100
0000
,
0010
0000
1000
0000
,
1001
0000
0010
0000
,
1001
0000
0000
0000
,
0010
0000
0100
0000
,
0010
0000
0001
0000
,
0110
0000
0100
0000
,
0110
0000
0000
0000
,
0001
0000
1000
0000
,
0010
0000
0000
0000
,
1000
0000
0001
0000
,
0010
0010
0010
0000
,
0100
0000
0010
0000
,
1000
1000
1000
0000
,
0001
0000
0010
0000
,
0001
0001
0001
0000
,
0100
0000
0010
0000
,
1000
0000
0000
0000
,
0010
0000
0100
0000
,
0010
0000
1000
0000
,
0001
0000
1000
0000
,
0110
0000
0000
0000
,
0001
0000
0010
0000
,
0001
0000
1000
0000
,
0010
0000
0100
0000
,
1000
0000
0000
0000
,
0010
0000
0100
0000
,
0001
0000
0000
0000
,
1000
0000
0010
0000
,
0100
0000
0000
0000
,
0010
0000
0001
0000
,
0100
0000
0000
0000
,
0010
0000
1000
0000
,
0001
0000
0000
0000
,
1000
1000
1000
0000
,
0010
0000
0100
0000
,
0001
0000
0010
0000
,
0001
0000
0100
0000
,
0001
0001
0001
0000
,
0010
0000
0100
0000
,
0001
0000
1000
0000
,
0010
0000
1001
0000
,
0010
0000
0100
0000
,
0010
0000
0000
1000
,
0000
0001
0000
0000
,
0010
0000
0000
0000
,
0100
0000
0010
0000
,
1000
0000
0000
1000
,
0000
0001
0000
0010
,
0000
0000
0000
0000
,
0100
0000
0001
0000
,
1000
0000
0000
0010
,
0000
0100
0000
0000
,
0001
0000
0000
0000
,
1000
0000
0010
0000
,
0100
0000
0000
0001
,
0000
0010
0000
0000
,
0100
0000
0000
0000
,
1000
0000
0010
0000
,
0100
0000
0001
0000
,
0010
0000
0001
0000
,
0100
0000
0010
0000
,
1001
0000
0010
0000
,
0100
0000
0010
0000
,
0001
0000
1000
0000
,
0010
0000
0100
0000
,
0010
0000
0000
0000
,
1000
0000
0000
0000
,
0001
0000
0000
0000
,
0010
0000
0000
0000
,
0100
0000
0000
0000
,
0010
0000
0000
0000
,
0001
0000
0000
0000
,
1001
0000
0000
1001
;

//--------------- dance-single - B. M'Rey ----------------
#NOTES:
     dance-single:
     B. M'Rey:
     Easy:
     5:
     0,0,0,0,0:
0000
0000
0000
0000
,
0000
0000
0000
0000
,
0000
0000
0000
0000
,
0000
0000
0000
0000
,
0000
0000
0000
0000
,
0000
0000
0000
0000
,
0000
0000
0000
0000
,
0000
0000
0000
0000
,
0100
0001
0100
0010
,
1000
0100
1000
0001
,
0100
0001
0010
0100
,
0010
0100
1000
0001
,
1001
0010
0100
0010
,
0100
0001
1000
0001
,
0010
0100
0010
0001
,
0100
0001
0010
0100
,
0110
0100
1010
0010
,
1010
0000
0000
0000
,
1000
0001
0010
0100
,
0010
0100
1000
0001
,
0110
0100
0110
0100
,
1100
0000
0000
0001
,
1000
0001
0010
0100
,
0110
0000
0000
0000
,
0010
0100
0010
0100
,
1000
0001
0010
0100
,
0010
0100
1000
0001
,
0010
0001
0100
0010
,
0100
0010
1000
0001
,
1000
0100
0010
0100
,
1000
0010
1000
0010
,
0200
0000
0000
0000
,
1300
0010
0100
0000
,
1000
0000
0001
0000
0000
0100
0000
0000
,
0100
0010
1000
0100
,
1000
0000
0000
0000
,
1000
0001
0010
0000
,
0010
0000
0100
0000
0000
0001
0000
0000
,
0010
0100
0010
0001
,
1001
0000
0010
0000
,
1000
0100
0010
0000
,
0010
0000
0100
0000
0000
1000
0000
0000
,
1000
0001
0010
0001
,
1000
0000
0000
0000
,
0100
0010
1000
0000
,
0100
0000
0010
0000
0000
0100
0000
0000
,
1000
0001
1000
0001
,
0110
0000
1010
0000
,
0100
0001
0020
0000
,
1030
0100
1000
0000
,
0010
0100
1000
0100
,
1000
0010
0100
0000
,
1000
0100
0010
0000
,
0010
0001
0100
0000
,
0100
0000
1000
0000
,
0100
0000
0011
0000
,
1000
0010
1000
0100
,
0010
0100
1000
0001
,
0011
0000
1010
0000
,
1000
0010
0000
0001
,
0100
0001
1000
0100
,
1000
0100
0010
0001
,
0110
0000
0110
0000
,
1000
0001
1000
0010
,
0100
0010
1000
0100
,
0010
0100
0010
0001
,
1001
0000
0110
0000
,
0100
0010
0000
0100
,
0010
0100
0010
0001
,
0100
0001
0100
0010
,
1100
0000
1100
0000
,
0010
0000
0000
0000
,
0010
0100
0010
0100
,
1000
0010
1000
0001
,
0100
0001
0010
0100
,
0010
0001
1000
0100
,
0010
0100
1000
0001
,
1000
0100
0010
0100
,
0010
0001
1000
0001
,
0200
0000
0000
0000
0000
0000
0000
0000
0000
0000
0000
0000
0000
0000
0000
0000
0000
0000
0000
0000
0000
0000
0000
0000
0010
0300
0000
0000
0000
0000
0000
0000
0000
0000
0000
0000
0010
0000
0000
0000
0000
0000
0000
0000
0000
0000
0000
0000
,
1000
0000
0001
0000
,
0010
0010
0010
0000
,
0100
0000
0010
0000
,
1000
1000
1000
0000
,
0001
0000
0010
0000
,
0001
0001
0001
0000
,
0100
0000
0010
0000
,
1001
0000
0000
0110
;

//--------------- dance-single - B. M'Rey ----------------
#NOTES:
     dance-single:
     B. M'Rey:
     Medium:
     7:
     0,0,0,0,0:
0000
0000
0000
0000
,
0000
0000
0000
0000
,
0000
0000
0000
0000
,
0000
0000
0000
0000
,
1000
0000
0001
0000
,
0010
0000
0100
0000
,
0010
0100
0010
0001
,
0010
1000
0100
0010
,
0001
0010
0001
0000
1000
0100
1000
0000
,
0010
0100
0010
0001
,
0010
0001
0010
0000
1000
0100
1000
0000
,
0010
0100
0010
0001
,
0001
0010
0001
0000
1000
0100
1000
0000
,
0010
0100
0010
1000
,
0100
0010
0100
0000
0001
0010
0001
0000
,
0100
0000
0010
0000
1000
0000
0001
1000
,
1000
0001
0100
0010
,
1001
0101
1010
0101
,
0010
0100
0010
1000
,
0100
0000
0010
0000
0001
0000
0001
1000
,
1000
0100
0010
0001
,
1010
0101
1010
0101
,
0010
0100
0010
1000
,
1001
0000
0000
0000
,
0001
1000
0010
0100
,
0001
0000
0001
0010
0001
0010
0001
0010
,
0001
0100
1000
0100
,
0010
0000
0100
0010
0100
0000
0001
0000
,
0010
1000
0100
0010
,
1000
0000
0100
1000
0100
1000
0100
1000
,
0100
0010
0100
0010
,
0010
0001
0100
0010
1000
0100
0010
0001
,
0100
0001
0100
0010
,
0001
0010
0001
0000
1000
0000
0010
0000
,
1000
0001
0100
0010
,
0001
0010
0001
0000
1000
0100
1000
0000
,
0010
0100
0010
0001
,
0010
0001
0010
0001
0000
1000
0100
1000
,
0010
0100
0010
0001
,
0001
1000
0001
0000
1001
0000
0000
0000
,
0010
0100
0010
0000
0001
0000
0000
0010
,
1000
0010
0100
0010
0000
0001
0010
0000
,
1000
0100
0010
0001
,
1001
1001
1000
0001
,
0010
0100
0010
0000
0001
0000
0010
0000
,
1000
0100
1000
0010
0000
0100
0000
0001
,
0010
0000
1000
0000
0010
0100
0001
0000
,
1001
0000
0101
0000
0100
0001
0010
0100
,
0110
0000
0110
0000
0110
0000
0001
0010
,
0001
0000
1000
0100
1000
0000
0010
0000
,
0001
0010
0001
0000
0100
0010
0100
0010
,
1000
0100
1000
0000
1001
0000
0000
0000
,
0110
0000
0110
0000
0110
0000
0001
0010
,
0001
1000
0100
0000
,
0010
0100
0001
0010
,
1000
0100
1001
0001
,
0010
0100
0010
0000
1000
0100
1000
0000
,
0010
0100
0001
0010
,
1001
0100
1001
0100
,
0010
0100
0010
0000
0010
0000
0001
0010
,
0001
1000
0100
0010
,
1000
0100
0010
0001
,
0110
1000
0110
0001
,
0001
1000
0000
0001
0010
0001
1000
0010
,
0100
0000
0100
0000
0010
0000
0001
0010
,
0000
1000
0000
0010
0000
0100
0010
0000
,
0101
0000
0100
0000
1010
0000
0000
0001
,
0000
0010
0001
0010
0000
1000
0010
1000
,
0010
0000
0100
0000
0010
0000
0001
0010
,
0000
0100
0000
0010
0000
1000
0001
0000
,
0011
1000
1100
0010
,
0100
0010
0000
0001
0000
0010
0001
0000
,
0001
1000
0010
0100
,
0001
0000
0001
0010
0001
0010
0001
0010
,
0001
0100
1000
0100
,
0010
0000
0100
0010
0100
0000
0001
0000
,
0010
1000
0100
0010
,
1000
0000
0100
1000
0100
1000
0100
1000
,
0100
0010
0100
0010
,
0010
0001
0100
0010
1000
0000
0010
0000
,
1000
0100
0010
0001
,
0100
0010
1000
0100
,
0010
0001
0100
0010
,
1000
0100
0010
0001
,
0100
0010
1000
0001
,
0010
0100
1000
0010
,
0100
0001
0010
0100
,
0001
1000
0000
0110
0000
0010
0100
0000
;

//--------------- dance-single - B. M'Rey ----------------
#NOTES:
     dance-single:
     B. M'Rey:
     Hard:
     10:
     0,0,0,0,0:
0000
0000
0000
0000
,
0000
0000
0000
0000
,
0000
0000
0000
0000
,
0000
0000
0000
0000
,
0100
1000
0100
1000
,
0100
0010
0001
0010
,
0001
0010
0100
1000
,
0100
0010
0100
0010
,
0001
0010
0100
0010
0100
0010
0001
1000
,
0100
0010
0001
0010
0001
1000
0100
1000
,
0010
0100
0010
1000
0100
0010
0100
0010
,
0100
1000
0001
1000
0100
1000
0010
0100
,
0001
0100
0001
0100
0010
1000
0100
1000
,
0001
0010
0001
0100
0001
0010
0100
0010
,
0100
0010
0001
1000
0010
1000
0010
0100
,
0010
0000
0100
0000
0001
0000
0010
0000
0001
0000
1000
0001
0100
0000
1000
0010
,
0001
0000
0100
0000
0010
0000
0100
0001
0010
0000
1000
0000
0100
0000
0010
0000
,
1001
0011
1100
0101
,
0011
0000
0001
1000
0010
0100
0001
1000
,
0100
0000
1000
0000
0001
0000
0100
0000
0010
0000
1000
0010
0001
0000
1000
0100
,
0010
0000
1000
0000
0001
0000
0100
1000
0010
0000
1000
0000
0001
0000
1000
0000
,
0011
0011
1100
0110
,
0110
0000
0011
0000
0001
1000
0001
0010
,
0100
0010
0000
0001
0000
0010
1000
0010
,
0001
1000
0001
0000
0100
0000
0001
0000
1000
0000
0001
0000
0010
0000
0100
0000
,
1000
0000
0100
0000
1000
0010
1000
0000
0100
0001
0100
0000
0100
0010
0100
0000
,
1000
0010
1000
0010
0100
0001
0100
0001
,
0000
0001
1000
0100
0010
0001
1000
0100
,
1000
0001
1000
0000
0010
0000
0100
0000
1000
0000
0100
0000
1000
0000
0010
0000
,
1000
0000
0100
0000
0010
0001
0010
0000
0010
0001
0010
0000
1000
0010
1000
0000
,
0100
0001
0010
0100
1000
0100
1000
0010
,
0001
1000
0010
0100
0001
0010
0100
1000
0010
0100
0001
1000
0100
0010
0001
1000
,
0001
0100
0001
0100
0001
0010
0100
1000
,
0100
1000
0100
0010
0001
1000
0001
0100
,
0001
1000
0001
1000
,
0011
0011
0011
1100
,
0100
1000
0001
0100
0001
0000
0001
0100
,
0010
0100
0010
0100
0000
1000
0100
0010
,
0110
0000
1100
0000
0010
1000
0010
0000
,
0110
0001
1000
0000
,
0010
1000
0001
1000
0100
0000
0001
1000
,
0001
1000
0001
0100
0000
1000
0010
0100
,
0010
0001
0100
1000
,
0011
0011
1100
1100
,
0100
0010
0001
0010
0001
0000
0100
1000
,
0100
0010
0001
0010
0000
0010
0100
1000
,
1100
0000
1001
0000
0100
0010
0100
0000
,
1100
0000
1000
0000
0001
0000
1000
0000
0001
0010
0100
1000
0001
0100
0010
1000
,
0001
0000
1001
0000
0101
0000
0010
0100
,
0010
0000
0000
0100
0001
0000
1000
0000
0010
0000
0000
0000
0001
0000
1000
0000
,
0100
0000
0010
0000
0001
0000
0000
0010
0100
0000
0010
0000
0001
0000
1000
0000
,
0001
1000
0010
0000
0100
0000
0100
0010
,
1100
0000
1001
0000
1001
0000
0010
0100
,
0010
0000
0000
0100
0010
0000
1000
0000
0001
0000
0000
0000
0001
0000
0010
0100
,
0010
0000
0010
0000
0100
0000
0000
1000
0100
0000
0010
0000
0001
0000
0100
0000
,
0001
0010
0101
0000
0101
0001
1000
0001
,
1000
0000
0010
0000
1000
0000
0010
0100
0010
0000
0010
0000
0100
0000
0001
0000
,
0000
1000
0000
0001
0000
0100
0010
0000
,
0011
0000
0101
0000
1001
0000
1000
0010
,
0000
0010
0100
0010
0000
0100
1000
0100
,
1000
0010
0100
0010
0100
0010
1000
0001
,
0000
0010
0000
0001
0000
0100
1000
0001
,
1010
0000
0101
0000
1000
0100
1000
0100
,
1000
0000
0010
0000
0100
0000
0010
0000
0001
0010
0100
1000
0010
0100
0001
1000
,
0010
0000
0001
0000
1000
0000
0100
0010
0100
0000
0100
0000
0010
0000
0001
0000
,
0000
0100
0000
1000
0010
0100
0011
0000
,
0011
0000
1001
0000
1010
0000
1000
0010
,
0100
0010
0100
0001
0000
0001
1000
0001
,
0100
0010
0100
0001
1000
0100
1000
0010
,
0000
0100
0000
0001
0000
0010
0100
0010
,
1001
0000
1010
0000
0110
0001
0100
0001
,
0100
0001
0000
0010
0000
0010
1000
0010
,
0001
1000
0001
0000
0100
0000
0001
0000
1000
0000
0001
0000
0010
0000
0100
0000
,
1000
0000
0100
0000
1000
0010
1000
0000
0100
0001
0100
0000
0100
0010
0100
0000
,
1000
0010
1000
0010
0100
0001
0100
0001
,
0000
0001
1000
0100
0010
0001
1000
0100
,
1000
0001
1000
0000
0010
0000
0100
0000
1000
0000
0100
0000
1000
0000
0010
0000
,
1000
0000
0100
0000
0010
0001
0010
0000
0010
0001
0010
0000
1000
0010
1000
0000
,
0100
0001
0010
0100
1000
0100
1000
0010
,
0001
1000
0010
0100
0001
0010
0100
1000
0010
0000
0100
0000
0001
0000
0100
0000
,
1000
0001
1000
0000
0010
0000
1000
0000
0001
0000
1000
0000
0100
0000
0010
0000
,
0001
0000
0010
0000
0001
0100
0001
0000
0010
1000
0010
0000
0010
0100
0010
0000
,
0001
0100
0001
0100
0010
1000
0010
1000
,
0000
1000
0001
0010
0100
1000
0001
0010
,
0001
1000
0001
0000
0100
0000
0010
0000
0001
0000
0010
0000
0001
0000
0100
0000
,
0001
0000
0010
0000
0100
1000
0100
0000
0100
1000
0100
0000
0001
0100
0001
0000
,
0010
1000
0100
0010
0001
0010
0001
0100
,
1001
1001
0000
0110
0000
0101
0101
0000
;
