
//----- song ID: babylticpm -----//
#VERSION:0.83;
#TITLE:BABY (Love To Infinity's Classic Paradise Mix);
#ARTIST:ROZALLA;
#GENRE:HOUSE;
#ORIGIN:DWI Extreme T-8;
#CREDIT:B. M'Rey/DWI Extreme T-8 -;
#BANNER:BABY (Love To Infinity's Classic Paradise Mix).png;
#BACKGROUND:BABY (Love To Infinity's Classic Paradise Mix)-bg.png;
#JACKET:BABY (Love To Infinity's Classic Paradise Mix)-jacket.png;
#CDTITLE:./CDTITLES/Dancemania 11.png;
#MUSIC:BABY (Love To Infinity's Classic Paradise Mix).ogg;
#OFFSET:-0.057000;
#SAMPLESTART:46.310;
#SAMPLELENGTH:15;
#BPMS:0.000=121.979;

//---------------dance-single - DWI Extreme T-8----------------
#NOTEDATA:;
#CHARTNAME:DWI Extreme T-8;
#CHARTHASH:2743890162;
#STEPSTYPE:dance-single;
#BANNER:;
#DESCRIPTION:DWI Extreme T-8;
#CHARTSTYLE:;
#DIFFICULTY:Beginner;
#METER:3;
#METERF:0.000000;
#LASTSECONDHINT:101.385086;
#RADARVALUES:0.101539,0.117323,0.000000,0.100237,0.000000,78.000000,78.000000,0.000000,11.000000,0.000000,0.000000,0.000000,0.000000,0.000000,0.101539,0.117323,0.000000,0.100237,0.000000,78.000000,78.000000,0.000000,11.000000,0.000000,0.000000,0.000000,0.000000,0.000000;
#CREDIT:DWI Extreme T-8;
#NOTES:
// measure 0
0000
0000
0000
0000
,  // measure 1
0000
0000
0000
0000
,  // measure 2
0000
0000
0000
0000
,  // measure 3
0000
0000
0000
0000
,  // measure 4
1000
0000
0000
0000
,  // measure 5
0010
0000
0100
0000
,  // measure 6
0001
0000
0000
0000
,  // measure 7
1000
0000
0001
0000
,  // measure 8
0200
0000
0300
0000
,  // measure 9
0020
0000
0030
0000
,  // measure 10
1000
0000
1000
0000
,  // measure 11
0001
0000
0001
0000
,  // measure 12
0020
0000
0030
0000
,  // measure 13
0200
0000
0300
0000
,  // measure 14
1000
0000
1000
0000
,  // measure 15
0001
0000
0001
0000
,  // measure 16
2000
0000
0000
0000
,  // measure 17
3000
0000
0001
0000
,  // measure 18
0002
0000
0000
0000
,  // measure 19
0003
0000
1000
0000
,  // measure 20
0010
0000
1000
0000
,  // measure 21
0010
0000
1000
0000
,  // measure 22
0200
0000
0000
0300
,  // measure 23
0010
0000
0010
0000
,  // measure 24
0002
0000
0000
0003
,  // measure 25
1000
0000
1000
0000
,  // measure 26
0002
0000
0000
0003
,  // measure 27
0010
0000
0010
0000
,  // measure 28
0002
0000
0000
0003
,  // measure 29
0100
0000
0100
0000
,  // measure 30
0002
0000
0000
0003
,  // measure 31
1000
0000
0100
0000
,  // measure 32
1000
0000
1000
0000
,  // measure 33
0100
0000
0100
0000
,  // measure 34
0001
0000
0001
0000
,  // measure 35
0010
0000
0010
0000
,  // measure 36
1000
0000
1000
0000
,  // measure 37
0100
0000
0100
0000
,  // measure 38
0001
0000
0001
0000
,  // measure 39
0010
0000
0010
0000
,  // measure 40
1000
0000
0001
0000
,  // measure 41
0010
0000
0100
0000
,  // measure 42
1000
0000
0001
0000
,  // measure 43
0010
0000
0100
0000
,  // measure 44
1000
0000
0010
0000
,  // measure 45
0001
0000
0100
0000
,  // measure 46
1000
0000
0010
0000
,  // measure 47
0001
0000
0100
0000
,  // measure 48
1000
0000
0000
0000
,  // measure 49
0001
0000
0000
0000
,  // measure 50
0010
0000
0000
0000
,  // measure 51
0100
0000
0100
0000
;

//---------------dance-single - DWI Extreme T-8----------------
#NOTEDATA:;
#CHARTNAME:DWI Extreme T-8;
#CHARTHASH:2041144498;
#STEPSTYPE:dance-single;
#BANNER:;
#DESCRIPTION:DWI Extreme T-8;
#CHARTSTYLE:;
#DIFFICULTY:Easy;
#METER:6;
#METERF:0.000000;
#LASTSECONDHINT:102.368851;
#RADARVALUES:0.246036,0.284308,0.045562,0.018225,0.000000,189.000000,184.000000,5.000000,2.000000,0.000000,0.000000,0.000000,0.000000,0.000000,0.246036,0.284308,0.045562,0.018225,0.000000,189.000000,184.000000,5.000000,2.000000,0.000000,0.000000,0.000000,0.000000,0.000000;
#CREDIT:DWI Extreme T-8;
#NOTES:
0000
0000
0000
0000
,
0000
0000
0000
0000
,
0000
0000
0000
0000
,
0000
0000
0000
0000
,
0010
1000
0010
0100
,
0001
1000
0001
0010
,
0100
1000
0001
0010
,
1001
1000
0110
0110
,
0001
1000
0100
0010
,
0001
0000
1000
0001
,
0100
0000
0100
0000
,
0010
1000
0001
0010
,
0100
1000
0001
0100
,
0001
0000
1000
0010
,
0100
0000
0100
0000
,
0001
1000
0001
1000
,
0200
0000
0010
0310
,
0001
0000
1000
0001
,
0100
0001
1000
0010
,
0100
0000
0100
0000
,
0001
0010
0100
1000
,
0100
0000
0100
0000
,
1000
0001
0000
0001
,
0110
0110
2000
3001
,
0010
0001
1000
0001
,
0100
0100
0001
0001
,
1000
0010
1000
0100
,
0010
0010
0100
0100
,
1000
0001
0010
0100
,
1000
1000
0001
0001
,
0100
0001
1000
0010
,
0100
0100
0001
0001
,
1000
0000
1000
0000
0001
0001
0001
0000
,
0010
0000
0010
0000
1000
1000
1000
0000
,
0001
0000
0001
0000
0100
0100
0100
0000
,
0010
0010
0010
0000
1000
0000
1000
0000
,
0001
0000
0001
0000
1000
1000
1000
0000
,
0010
0000
0010
0000
0100
0100
0100
0000
,
0001
0000
0001
0000
0010
0010
0010
0000
,
0100
0100
0100
0000
1000
0000
1000
0000
,
0010
0001
0100
1000
,
0010
0001
0010
0100
,
0010
0001
0100
1000
,
0010
0001
0010
0100
,
0010
0001
0100
1000
,
0010
0001
0010
0100
,
0010
0001
0100
1000
,
0010
0001
0010
0100
,
0001
0001
1000
0000
,
0100
0100
0010
0000
,
0001
1000
0001
0000
,
1000
0100
1000
0000
,
0100
0000
0000
0000
;

//---------------dance-single - B. M'Rey----------------
#NOTEDATA:;
#CHARTNAME:B. M'Rey;
#CHARTHASH:3440682655;
#STEPSTYPE:dance-single;
#BANNER:;
#DESCRIPTION:B. M'Rey;
#CHARTSTYLE:;
#DIFFICULTY:Medium;
#METER:9;
#METERF:0.000000;
#LASTSECONDHINT:102.368851;
#RADARVALUES:0.346273,0.355385,0.127574,0.045562,0.000000,266.000000,252.000000,14.000000,5.000000,0.000000,0.000000,0.000000,0.000000,0.000000,0.346273,0.355385,0.127574,0.045562,0.000000,266.000000,252.000000,14.000000,5.000000,0.000000,0.000000,0.000000,0.000000,0.000000;
#CREDIT:B. M'Rey;
#NOTES:
0000
0000
0000
0000
,
0000
0000
0000
0000
,
0000
0000
0000
0000
,
0000
0000
0000
0000
,
0001
0000
0010
0000
0001
1000
0100
0000
,
0001
0000
0010
0000
0100
1000
0010
0000
,
0001
0000
0010
0000
0100
0010
1000
0000
,
1010
1000
0101
0100
,
0001
0000
1000
0000
0010
0001
1000
0000
,
0010
0000
0100
0000
0010
0001
0100
0000
,
0001
0000
0010
0000
0001
1000
0010
0000
,
0100
0010
1000
0000
0001
0100
0010
0000
,
0100
0000
1000
0000
0001
0000
0100
1000
,
0001
0000
1000
0000
0010
0100
1000
0000
,
0001
0000
0010
0000
0001
0010
1000
0000
,
0100
0000
0010
0000
0100
0001
1000
0010
,
2001
3001
0200
1300
,
0002
0000
0013
0000
0100
0010
1000
0000
,
0010
0000
1000
0000
0001
1000
0010
0000
,
0001
0000
1000
0000
0001
0010
0100
0000
,
0010
1000
0100
0010
0002
0000
0003
0100
,
0200
0000
1300
0001
0010
0000
0100
1000
,
0001
0100
0010
1000
,
0100
0100
1000
1000
0010
0010
1000
1000
,
0100
0100
0010
0000
0100
0001
1000
0000
,
0100
0010
1000
0000
0010
1000
0100
0000
,
0001
0010
0100
0000
0001
0100
1000
0000
,
0010
0001
0100
0000
1010
0000
0100
0000
,
0001
0100
0010
0000
0001
1000
0010
0000
,
0001
0010
1000
0000
0100
0001
0010
0000
,
1100
0010
0110
1000
,
0010
0010
1000
1000
0001
0001
0100
0100
,
0010
0000
1000
0010
0001
0000
0100
0000
,
0010
0001
0100
0000
0001
0000
0010
1000
,
0110
0000
1000
0000
0010
0001
0100
0000
,
0010
0000
0100
0000
0010
0100
1000
0000
,
0110
0000
1000
0000
0100
0001
0010
0000
,
0001
0000
0100
0000
0010
0100
1000
0000
,
1001
0000
1000
0000
0010
0001
1000
0000
,
0101
0101
1001
1001
,
0100
0001
0010
0000
0100
0000
1000
0000
,
0100
0010
1000
0000
0001
0000
0100
0000
,
0010
0100
1000
0000
0010
0000
0100
0000
,
0010
0001
0100
0000
0001
1000
0010
0000
,
0100
0001
1000
0000
0100
0000
1000
0000
,
0001
0010
1000
0000
0010
0000
0100
0000
,
0001
0010
1000
0000
0010
0000
1000
0000
,
0100
0001
0010
0000
0100
1000
0010
0000
,
0100
0000
1000
0000
0001
0010
1000
0000
,
0100
0000
0010
0000
0001
1000
0010
0000
,
0001
1000
0001
1000
,
0010
1000
0100
0010
,
1001
0000
0000
0000
;

//---------------dance-single - DWI Extreme T-8----------------
#NOTEDATA:;
#CHARTNAME:DWI Extreme T-8;
#CHARTHASH:2522767205;
#STEPSTYPE:dance-single;
#BANNER:;
#DESCRIPTION:DWI Extreme T-8;
#CHARTSTYLE:;
#DIFFICULTY:Hard;
#METER:12;
#METERF:0.000000;
#LASTSECONDHINT:102.122910;
#RADARVALUES:0.531125,0.543615,0.036450,0.054675,0.405504,408.000000,404.000000,4.000000,6.000000,0.000000,0.000000,0.000000,0.000000,0.000000,0.531125,0.543615,0.036450,0.054675,0.405504,408.000000,404.000000,4.000000,6.000000,0.000000,0.000000,0.000000,0.000000,0.000000;
#CREDIT:DWI Extreme T-8;
#NOTES:
0000
0000
0000
0000
,
0000
0000
0000
0000
,
0000
0000
0000
0000
,
0000
0000
0000
0000
,
1000
0000
0100
0000
0010
0000
0001
0020
0000
0000
0130
0000
0010
0000
0001
0000
,
0000
1000
0010
0100
0001
1000
0001
1000
,
0010
0000
1000
0000
0001
0000
0010
0200
0000
0000
0310
0000
0100
0000
1000
0000
,
0010
0000
0100
0000
0001
0000
0010
0000
0100
0000
1000
0001
1000
0000
0001
0000
,
0100
0010
1000
0010
1000
0001
0010
0100
,
1000
0001
1000
0001
0010
1000
0010
0100
,
1000
0010
1000
0010
0100
0001
1000
0000
,
0010
1000
0000
0000
0001
0000
0000
1000
0000
0000
0001
0000
0100
0000
0010
0000
,
1000
0001
1000
0001
0010
0100
1000
0010
,
0100
0001
0100
0001
1000
0100
0001
0100
,
0010
0001
0010
0001
1000
0100
0010
0000
,
0100
1000
0000
0000
0010
0000
0000
0100
0001
0000
1000
0000
0010
0000
1000
0000
,
0110
0000
0000
0000
1100
0000
0000
0010
0001
0010
0001
0000
0100
0000
0001
0000
,
1000
0000
1100
0000
0010
0100
0001
0010
,
0100
1000
0001
0100
0001
0000
1000
0100
,
0010
0001
0000
0000
0010
0000
0100
1000
0000
0000
0010
0000
1000
0000
0001
0000
,
0100
0001
1000
0100
0010
0100
1000
0010
,
0100
0001
1000
0001
0100
0010
1000
0010
,
0200
0001
0000
0301
,
1000
0100
0000
0000
1001
0000
0000
0010
0001
0000
1000
0000
0001
0000
1000
0000
,
0100
0000
0010
0000
0001
0000
1000
0010
0000
1000
0010
0000
0100
0000
0001
0000
,
1000
0000
0010
0000
0100
0000
0001
0010
0000
0001
0010
0000
0100
0000
1000
0000
,
0001
0000
0100
0000
0010
0000
1000
0100
0000
1000
0100
0000
0010
0000
0100
0000
,
2000
0000
3020
0000
0230
0000
0301
0010
,
0100
0000
1000
0000
0001
0000
0010
0100
0000
0010
0100
0000
1000
0000
0010
0000
,
0100
0000
0001
0000
1000
0000
0100
0010
0000
0100
0010
0000
0001
0000
0100
0000
,
1000
0000
0100
0000
0010
0000
1000
0001
0000
1000
0001
0000
0010
0000
0100
0000
,
1000
0001
0100
0001
1000
0001
0100
0100
,
0000
0010
1000
0000
0001
0010
0100
1000
0010
0000
1000
0100
1000
0000
0000
0000
,
0000
0001
0100
0000
0010
1000
0001
0100
0010
0000
0100
0001
0100
0000
0000
0000
,
0000
0010
0100
0000
0001
1000
0100
0010
0001
0000
0010
0100
0010
0000
0000
0100
,
1000
0000
0010
0100
0001
0000
0010
0100
0000
0100
0000
0000
1000
0000
0100
0000
,
0000
1000
0001
0000
0100
0010
1000
0100
0010
0000
0001
0100
0001
0000
0000
0000
,
0000
0010
0100
0000
0010
0001
1000
0100
0010
0000
0100
1000
0100
0000
0000
0000
,
0000
1000
0010
0000
1000
0100
0010
0001
0100
0000
0001
0010
0001
0000
0000
0100
,
0001
0000
0100
0010
1000
0000
0100
0010
0000
0010
0000
0000
0001
0000
1000
0000
,
0000
0010
0100
0000
0001
0010
0100
0010
0001
0000
0010
0100
1000
0000
0000
0000
,
0000
0001
1000
0000
0010
0100
0001
0100
0010
0000
1000
0100
0010
0000
0000
0000
,
0000
0100
1000
0000
0001
1000
0010
1000
0001
0000
0100
0010
1000
0000
0000
0100
,
0010
0000
0001
1000
0001
0000
0100
0010
0000
0010
0000
0000
0100
0000
0001
0000
,
0000
1000
0100
0000
0010
0100
1000
0100
0010
0000
0001
0100
0010
0000
0000
0000
,
0000
1000
0001
0000
0100
0001
1000
0001
0100
0000
0010
1000
0100
0000
0000
0000
,
0000
0010
0100
0000
0010
0001
0100
0001
0010
0000
0100
1000
0001
0000
0000
0100
,
0010
0000
1000
0001
1000
0000
0010
0100
0000
0100
0000
0000
0001
0000
1000
0000
,
0001
0100
0001
0100
0000
0001
0010
0100
,
1000
0010
1000
0010
0000
0001
0010
0100
,
0001
1000
0001
1000
0000
0010
0100
0001
,
1000
0100
1000
0100
0000
0010
0100
1000
;

//---------------dance-single - B. M'Rey----------------
#NOTEDATA:;
#CHARTNAME:B. M'Rey;
#CHARTHASH:217417380;
#STEPSTYPE:dance-single;
#BANNER:;
#DESCRIPTION:B. M'Rey;
#CHARTSTYLE:;
#DIFFICULTY:Challenge;
#METER:13;
#METERF:0.000000;
#LASTSECONDHINT:102.368851;
#RADARVALUES:0.611836,0.710771,0.145799,0.000000,0.496628,470.000000,454.000000,16.000000,0.000000,0.000000,0.000000,0.000000,0.000000,0.000000,0.611836,0.710771,0.145799,0.000000,0.496628,470.000000,454.000000,16.000000,0.000000,0.000000,0.000000,0.000000,0.000000,0.000000;
#CREDIT:B. M'Rey;
#NOTES:
0000
0000
0000
0000
,
0000
0000
0000
0000
,
0000
0000
0000
0000
,
0000
0000
0000
0000
,
0010
0000
0100
0000
0001
0000
1000
0010
0000
0010
1000
0000
0010
0000
1000
0000
,
0100
0010
0100
1000
0001
0010
0001
0010
,
0001
0000
0100
0000
0010
0000
0100
0001
0000
0001
1000
0000
0100
0000
1000
0000
,
0010
1000
0000
1000
0001
0000
0010
0000
0100
0010
0000
0010
0100
0000
1000
0000
,
1001
0010
1000
0001
0100
0001
1000
0100
,
0010
0001
0010
0100
0010
0100
1000
0010
,
1000
0000
0010
0000
0100
0001
0000
0001
0010
0000
0100
0000
0010
0000
0001
0000
,
0100
0001
0000
0001
1000
0000
0100
0000
1000
0010
0000
0010
1000
0000
0010
0000
,
0100
0010
0100
0001
1000
0001
1000
0001
,
0010
0100
0010
0100
0010
0001
0100
0010
,
0100
0001
0000
0001
0100
0000
0001
0000
0010
0100
0000
0100
0010
0000
0100
0000
,
0010
0001
0000
0001
1000
0000
0100
0000
1000
0010
0000
0010
0100
0000
0010
0000
,
0101
0001
1000
0001
1000
0010
1000
0010
,
0100
0001
1000
0010
1000
0010
1000
0001
,
0100
0010
0100
0010
0100
0001
0010
0100
,
1000
0100
0000
0100
0010
0000
0001
0000
0100
0001
0000
0001
0100
0000
0010
0000
,
0100
0010
1000
0010
0100
0001
0010
0001
,
0010
0001
0100
0010
1000
0100
0010
0100
,
0100
0010
0001
1000
,
0001
1000
0001
0010
1000
0010
0100
0001
,
0010
0100
0000
0100
0001
0000
0010
0000
0100
1000
0000
1000
0010
0000
0100
0000
,
0010
1000
0000
1000
0001
0000
0010
0000
0100
0000
1000
0000
0100
0000
0010
0000
,
0001
0100
0000
0100
0010
0000
1000
0000
0100
1000
0000
1000
0010
0000
0100
0000
,
0010
0100
0000
0100
0001
0000
1000
0000
0110
0000
0100
0000
0010
0000
0100
0000
,
0001
0010
0000
0010
0001
0000
0010
0000
0100
0010
0000
0010
0100
0000
1000
0000
,
0001
0010
0000
0010
0001
0000
0100
0000
0010
0000
0100
0000
0010
0000
0100
0000
,
0001
0010
0000
0010
0100
0000
0010
0000
0001
1000
0000
1000
0010
0000
1000
0000
,
0110
1010
0101
0011
,
0001
1000
0001
1000
0001
0000
0010
1000
0010
0000
0010
0100
0001
0000
0001
0000
,
0010
1000
0010
1000
0010
0000
0001
0100
0001
0000
0010
1000
0010
0000
0010
0000
,
0001
0010
0001
0100
0001
0000
0100
0010
0100
0000
0001
1000
0001
0000
0001
0000
,
0100
0000
0001
1000
0001
0000
0001
0000
0100
0000
0100
0010
0001
0000
0001
0000
,
0001
0010
0100
0010
0100
0000
0001
1000
0010
0000
0010
0100
0010
0000
0001
0000
,
0010
1000
0010
1000
0010
0000
0001
1000
0001
0000
0001
0010
0100
0000
0100
0000
,
0001
1000
0001
1000
0001
0000
0100
0010
0100
0000
0001
0100
0001
0000
0010
1000
,
0010
1000
0100
0010
0100
0010
0100
1000
0010
0100
0010
1000
0010
1000
0100
1000
,
0001
0000
0001
0010
0001
0000
0100
1000
0001
0000
0001
0010
0001
0000
0100
0000
,
0100
0000
0100
1000
0001
0000
0100
0010
0100
0000
0001
1000
0100
0000
0010
0000
,
0100
0000
0001
0010
0001
0000
0100
1000
0100
0000
0001
0010
0001
0000
0001
0000
,
0100
1000
0100
1000
0001
0000
0001
0000
0001
1000
0100
1000
0100
0000
0100
0000
,
0001
0000
0001
1000
0001
0000
0100
1000
0100
0000
0100
0010
0001
0000
0001
0000
,
0010
0000
0100
1000
0100
0000
0001
0100
0001
0000
0001
0010
0100
0000
1000
0000
,
0100
0000
0001
0010
0001
0000
0100
1000
0100
0000
0100
0010
0001
0000
0010
0000
,
0100
1000
0100
1000
0001
0000
0010
0000
0001
0100
0010
0100
0010
0000
0001
0000
,
0110
0000
0011
0000
0100
1000
0100
0010
,
0100
1001
0000
1010
0000
0100
0010
1000
,
0101
0000
1010
0000
0100
0010
0001
1000
,
0100
0110
0000
1010
0000
1000
0100
0010
,
0101
0000
0000
0000
;
