#VERSION:0.83;
#TITLE:Astrosexy (Remixed by KOJI NAKAMURA from SUPERCAR);
#ARTIST:m-flo loves CHEMISTRY;
#GENRE:J-POP;
#CREDIT:B. M'Rey;
#MUSIC:Astrosexy (Remixed by KOJI NAKAMURA from SUPERCAR).ogg;
#BANNER:Astrosexy (Remixed by KOJI NAKAMURA from SUPERCAR)-BN.png;
#BACKGROUND:Astrosexy (Remixed by KOJI NAKAMURA from SUPERCAR)-bg.png;
#CDTITLE:./CDTITLES/LICENSED MUSIC.PNG;
#SAMPLESTART:48.120;
#SAMPLELENGTH:15;
#OFFSET:-0.114;
#BPMS:0=120,64=60,80=120;

//--------------- dance-single - B. M'Rey ----------------
#NOTEDATA:;
#STEPSTYPE:dance-single;
#DESCRIPTION:B. M'Rey;
#CREDIT:B. M'Rey;
#DIFFICULTY:Beginner;
#METER:3;
#RADARVALUES:0.13,0.176,0.01,0,0;
#NOTES:
0000
0000
0000
0000
,
0000
0000
0000
0000
,
0000
0000
0000
0000
,
0000
0000
0000
0000
,
1000
0000
0000
0000
,
0001
0000
0000
0000
,
0100
0000
0000
0000
,
0010
0000
0000
0000
,
0100
0000
0000
0000
,
0001
0000
0000
0000
,
1000
0000
0000
0000
,
0010
0000
0000
0000
,
0100
0000
0000
0000
,
0001
0000
0000
0000
,
0010
0000
0000
0000
,
0001
0000
0000
0000
,
1000
0100
0010
0001
,
0010
0100
1000
0000
,
0001
0010
0100
1000
,
1000
0100
0010
0001
,
1000
0100
0001
1000
,
0100
0000
0010
0000
,
0100
0001
0100
0010
,
0001
0000
1000
0000
,
0010
0100
0010
0001
,
1000
0000
0001
0000
,
0100
0010
0100
1000
,
0000
0000
0001
0000
,
0010
0000
0001
0000
,
0100
0000
0010
0000
,
1000
0000
0100
0000
,
1000
0000
0010
0000
,
0001
0000
0100
0000
,
0010
0000
1000
0000
,
0001
0000
0010
0000
,
0001
0000
0100
0000
,
0001
0010
0100
0001
,
1000
0000
0010
0000
,
0100
0010
0100
0001
,
1000
0000
0001
0000
,
0100
0010
0100
1000
,
0001
0000
0010
0000
,
0100
0010
0100
0001
,
0000
0000
1000
0000
,
0110
0000
0000
0000
;

//--------------- dance-single - B. M'Rey ----------------
#NOTEDATA:;
#STEPSTYPE:dance-single;
#DESCRIPTION:B. M'Rey;
#CREDIT:B. M'Rey;
#DIFFICULTY:Easy;
#METER:6;
#RADARVALUES:0.277,0.282,0.08,0.14,0;
#NOTES:
0000
0000
0000
0000
,
0000
0000
0000
0000
,
0000
0000
0000
0000
,
0000
0000
0000
0000
,
1000
0100
1000
0100
,
0000
0002
0003
0110
,
0100
0010
0100
0001
,
0000
0020
0030
0101
,
0100
0010
0100
0010
,
0000
0002
0003
1001
,
1000
0001
1000
0100
,
0000
0200
0300
0110
,
0010
0001
0010
0001
,
0000
0002
0003
0110
,
0100
0010
1000
0001
,
0000
0200
0300
0110
,
0100
0000
0100
0000
0001
0010
0100
0000
,
1000
0000
0001
0000
0010
0100
1000
0100
,
0010
0000
0001
0000
0010
0001
0100
0000
,
0100
0000
0010
0000
1000
0010
1000
0100
,
1000
0000
0100
0001
0010
0000
0100
0000
,
0010
0100
0001
0000
0100
1000
0002
0000
,
0103
0000
0001
1000
0010
0000
0100
0000
,
0010
0100
0010
0001
,
1000
0000
0001
1000
0010
0000
0001
0000
,
1000
0100
0010
0000
1000
0001
0010
0000
,
1000
0000
0001
0010
0100
0000
0002
0000
,
0000
0000
1003
0100
,
1000
0001
0100
0001
,
0100
0000
0001
0100
1000
0000
0100
0000
,
1000
0100
1000
0001
,
0010
0100
0001
0000
0010
0000
0001
0000
,
0100
0010
0100
0001
,
0100
0000
0001
0100
1000
0000
0100
0000
,
1000
0100
1000
0001
,
0100
1000
0010
0000
0100
0000
0010
0000
,
0100
0000
0001
0010
1000
0000
0001
0000
,
1000
0100
0001
0000
0010
0001
0200
0000
,
0310
0000
0100
0001
0010
0000
0001
0000
,
1000
0001
1000
0001
,
0100
0000
0010
0100
1000
0000
0010
0000
,
0100
0001
0010
0000
0100
0010
0001
0000
,
0100
0000
0001
0100
1000
0000
0002
0000
,
0000
0000
0013
0100
,
0220
0000
0000
0000
,
0000
0000
0000
0000
,
0000
0000
0000
0000
,
0330
0000
0000
0000
;

//--------------- dance-single - B. M'Rey ----------------
#NOTEDATA:;
#STEPSTYPE:dance-single;
#DESCRIPTION:B. M'Rey;
#CREDIT:B. M'Rey;
#DIFFICULTY:Medium;
#METER:9;
#RADARVALUES:0.39,0.505,0.27,0.1,0.04;
#NOTES:
0000
0000
0000
0000
,
0000
0000
0000
0000
,
0000
0000
0000
0000
,
0000
0000
0000
0000
,
1000
0100
1000
0100
,
1001
0000
0001
1000
0010
0000
0101
0000
,
0010
0001
1000
0100
,
1100
0000
0100
0001
0010
0000
0110
0000
,
0010
0001
0010
0001
,
0110
0000
0001
1000
0010
0000
0110
0000
,
0010
0100
0010
0001
,
0110
0000
0010
0100
1000
0000
0110
0000
,
1000
0010
0100
0001
,
0101
0000
0001
0010
0100
0000
0110
0000
,
1000
0010
1000
0010
,
0101
0000
0001
0010
0100
0000
0101
0000
,
0100
0000
0010
0000
1000
0000
0020
0000
1000
0000
0031
0010
2000
0000
0002
0000
,
3100
0000
0013
0000
0100
0000
0010
0000
0100
1000
0001
0000
0010
0000
0002
0000
,
0100
0000
0003
0000
1000
0000
0100
0000
0010
0000
0100
0001
2000
0000
0002
0000
,
3100
0000
0013
0000
1000
0000
0010
1000
0100
0000
0010
0000
0100
0000
0002
0000
,
1003
0001
1000
0010
0100
0000
0110
0000
,
1000
0001
1000
0100
1000
0100
0020
0000
,
0031
1000
0010
0100
0001
0000
0011
0000
,
0110
0101
1100
0101
,
1000
0001
1000
0001
1000
0000
0110
0000
,
1000
0001
1000
0000
1000
0100
0010
0000
,
0010
0100
1000
0001
1000
0000
1000
0000
,
0100
0000
0001
0000
0100
0001
0010
0000
,
1000
0000
0001
0000
0100
0000
0001
0000
0000
0001
0000
0000
1000
0000
0000
0000
,
0001
1000
0001
0000
0010
0000
0100
0000
,
0010
0000
0100
0000
1000
0000
0100
0000
0000
0010
0000
0000
1000
0000
0100
0000
,
0001
0100
0010
1000
,
1000
0000
0010
0000
0100
0000
0001
0000
0000
1000
0000
0000
0100
0000
0000
0000
,
1000
0100
0010
0100
0010
0000
0001
0000
,
1000
0000
0001
0000
0100
0000
0010
0000
0000
0100
0000
0000
0100
0000
0001
0000
,
0010
0001
1000
0010
,
1000
0001
1000
0001
1000
0000
0110
0000
,
0100
0010
1000
0001
1000
0001
0200
0000
,
0310
0001
0100
0010
1000
0000
0110
0000
,
0011
0110
1100
1001
,
1000
0100
1000
0010
0100
0000
0110
0000
,
1000
0001
1000
0000
0100
0001
0010
0000
,
0010
0100
0010
0001
0100
0000
0001
0000
,
0100
0000
0010
0000
0100
0001
0010
0000
,
0100
0001
0010
0001
,
0010
0001
1000
0010
,
1000
0000
0000
0000
;

//--------------- dance-single - B. M'Rey ----------------
#NOTEDATA:;
#STEPSTYPE:dance-single;
#DESCRIPTION:B. M'Rey;
#CREDIT:B. M'Rey;
#DIFFICULTY:Hard;
#METER:12;
#RADARVALUES:0.566,0.666,0.14,0.08,0.479;
#NOTES:
0000
0000
0000
0000
,
0000
0000
0000
0000
,
0000
0000
0000
0000
,
0000
0000
0000
0000
,
0100
0100
0010
0010
0100
0100
0001
0001
,
1000
0000
0000
1000
0100
0010
0100
0000
0000
0110
0000
0000
,
0010
0010
0001
0001
0010
0010
0100
0100
,
1000
0000
0000
0000
0000
0000
1000
0000
0100
0000
1000
0000
0001
0000
0000
1001
0000
0000
0110
0000
0000
1001
0000
0000
,
1000
1000
0001
0001
0100
0100
0010
0010
,
0100
0000
0000
0100
0001
1000
0010
0000
0000
1001
0000
0000
,
1000
1000
0001
0001
0010
0010
0100
0100
,
0010
0000
0000
0100
0001
1000
0001
0000
0000
0101
0000
0000
,
0100
0100
0001
0001
0010
0010
0100
0100
,
1000
0000
0000
0100
0001
0010
0100
0000
0000
1001
0000
0000
,
1000
1000
0001
0001
0100
0100
0001
0001
,
0100
0000
0000
0000
0000
0000
0010
0000
0001
0000
0010
0000
0100
0000
0000
0101
0000
0000
1010
0000
0000
0101
0000
0000
,
1000
0000
0001
0000
1000
0000
0010
0000
0000
0001
0000
0000
0100
0000
0000
0000
1000
0000
0100
0000
0010
0001
0010
0000
0100
0000
0000
0000
1000
0000
0000
0000
,
0100
0000
0001
0000
1000
0000
0100
0000
0000
1000
0000
0010
0100
0000
0010
0000
1000
0000
0001
1000
0001
0000
0010
0000
1000
0000
0001
0000
0100
0000
0000
0000
,
1000
0000
0010
0000
0100
0000
0001
0000
0000
0010
0000
0000
0100
0000
0000
0000
1000
0000
0010
0000
1000
0010
1000
0000
0100
0000
0000
0000
0010
0000
0000
0000
,
0010
0000
0100
0000
1000
0000
0001
0000
0000
0010
0000
0100
1000
0000
0010
0000
0100
0000
0001
1000
0001
0000
0010
0000
1000
0000
0010
0000
0100
0000
0000
0000
,
1000
0000
0001
0000
1000
0100
0010
0100
0010
0000
1000
0000
0001
0000
0010
0000
,
0100
0000
0010
0100
1000
0000
1000
0010
1000
0000
0100
0000
0010
0001
0100
0001
,
1000
0000
0100
0000
0100
0010
0100
0001
0010
0000
0001
0000
1000
0000
0010
0000
,
0200
0301
0200
0301
,
1000
0000
0010
0000
0010
0100
0010
0100
1000
0000
0010
0000
1000
0000
0100
0000
,
0100
0000
0100
0010
1000
0000
1000
0010
0100
0000
0100
0001
0100
0000
1000
0000
,
0001
0000
0000
0000
0000
0000
1000
0000
0000
0000
0000
0000
0010
0000
0000
0001
0000
0000
0010
0000
0000
0001
0000
0000
0010
0000
0000
0000
0000
0000
1000
0000
0000
0000
0000
0000
1000
0000
0000
0000
0100
0000
0000
0000
1000
0000
0000
0000
,
0100
0000
1000
0000
0010
0000
0100
0000
0010
0000
1000
0000
0100
0000
0000
0010
0000
0000
0001
0000
0000
1001
0000
0000
,
1000
0000
0010
0000
0100
0000
0001
0000
0100
0010
0000
0100
2000
0000
0000
0000
,
3001
0000
0010
0000
1000
0010
1000
0000
0100
0000
0010
0000
2000
0000
0000
0000
,
3010
0000
0100
0000
0010
0000
0001
0000
0010
0100
0000
0010
1000
0000
1100
0000
,
0100
0000
0010
0100
0010
0000
0001
0000
1000
0000
0100
0000
0020
0000
0000
0000
,
0130
0000
0001
0000
1000
0000
0100
0000
0010
0001
0000
0001
2000
0000
0000
0000
,
3100
0000
0001
0000
1000
0100
1000
0000
1000
0000
0001
0000
0020
0000
0000
0000
,
1030
0000
0100
0000
1000
0000
0100
0010
0000
0010
0001
0000
0100
0000
0110
0000
,
1000
0000
0010
1000
0010
0000
0010
0000
0100
0000
0001
0000
2000
0000
0000
0000
,
3100
0000
0001
0000
1000
0001
1000
0010
1000
0000
0100
0000
0010
0000
0100
0000
,
1000
0000
1000
0010
1000
0000
0100
0010
0100
0000
1000
0000
0001
0100
1000
0100
,
0010
0000
0001
0000
0010
0001
1000
0001
0100
0000
1000
0000
0100
0000
1000
0000
,
0200
0301
0200
0310
,
1000
0000
0001
0000
1000
0100
0010
0100
0010
0000
0001
0000
0100
0000
0010
0000
,
0100
0000
1000
0010
0100
0000
0100
0001
0100
0000
1000
0100
1000
0000
0010
0000
,
0100
0000
0000
0000
0000
0000
0001
0000
0000
0000
0000
0000
1000
0000
0000
0001
0000
0000
1000
0000
0000
0001
0000
0000
0100
0000
0000
0000
0000
0000
0010
0000
0000
0000
0000
0000
0100
0000
0000
0000
0001
0000
0000
0000
0010
0000
0000
0000
,
0001
0000
0010
0000
0001
0000
0100
0000
0010
0000
0100
0000
1000
0000
0000
0010
0000
0000
0001
0000
0000
0101
0000
0000
,
0100
0010
1000
0010
,
0100
0010
0100
0001
,
0100
0000
0000
0000
;

//--------------- dance-single - B. M'Rey ----------------
#NOTEDATA:;
#STEPSTYPE:dance-single;
#DESCRIPTION:B. M'Rey;
#CREDIT:B. M'Rey;
#DIFFICULTY:Challenge;
#METER:14;
#RADARVALUES:0.771,0.873,0.699,0,0.779;
#NOTES:
0000
0000
0000
0000
,
0000
0000
0000
0000
,
0000
0000
0000
0000
,
0000
0000
0000
0000
,
0110
1100
0011
0101
0110
0101
1001
0110
,
0001
0000
0000
0000
0000
0000
0100
0000
0000
0000
0000
0000
0001
0000
0000
0000
1000
0000
0000
0000
0001
0000
0000
0000
0010
0000
0000
0100
0000
0000
0010
0000
0000
1000
0000
0000
0010
0000
0000
0000
0000
0000
0001
0000
0000
0000
0000
0000
,
1010
0110
0110
0101
0110
0110
0011
0110
,
0001
0000
0000
0000
0000
0000
0100
0000
0000
0000
0000
0000
0001
0000
0000
0000
0100
0000
0000
0000
0010
0000
0000
0000
0001
0000
0000
0100
0000
0000
0010
0000
0000
0000
0000
0000
0010
0000
0000
0000
0000
0000
0010
0000
0000
0000
0000
0000
,
1001
0011
0101
1010
0011
0011
1001
1100
,
0001
0000
0000
0000
0000
0000
0010
0000
0000
0000
0000
0000
0001
0000
0000
0000
1000
0000
0000
0000
0100
0000
0000
0000
1000
0000
0000
0010
0000
0000
0001
0000
0000
1000
0000
0000
0010
0000
0000
0000
0000
0000
0001
0000
0000
0000
0000
0000
,
0110
0110
1001
1001
1010
0110
1010
0101
,
0001
0000
0000
0000
0000
0000
0100
0000
0000
0000
0000
0000
0100
0000
0000
0000
1000
0000
0000
0000
0010
0000
0000
0000
0001
0000
0000
1000
0000
0000
0010
0000
0000
0100
0000
0000
0001
0000
0000
0000
0000
0000
0010
0000
0000
0000
0000
0000
,
1010
1100
1100
0110
0110
1010
0101
0110
,
0001
0000
0000
0000
0000
0000
1000
0000
0000
0000
0000
0000
0100
0000
0000
0000
0010
0000
0000
0000
0001
0000
0000
0000
0010
0000
0000
1000
0000
0000
0100
0000
0000
0010
0000
0000
0100
0000
0000
0000
0000
0000
0001
0000
0000
0000
0000
0000
,
0101
0011
1100
0110
0101
0011
0011
0110
,
1000
0000
0000
0000
0000
0000
0100
0000
0000
0000
0000
0000
0001
0000
0000
0000
0010
0000
0000
0000
0100
0000
0000
0000
0010
0000
0000
1000
0000
0000
0001
0000
0000
0000
0000
0000
0010
0000
0000
0000
0000
0000
0100
0000
0000
0000
0000
0000
,
0100
0000
0001
0000
0001
0000
0100
0000
0001
0100
0001
1000
0010
0000
0000
0000
0100
0000
1000
0000
0100
1000
0001
0100
0001
0000
0000
0000
0110
0000
0000
0000
,
0001
0000
1000
0000
0001
0000
0010
0100
0000
0100
0001
1000
0100
0000
0001
0010
0100
0000
0010
0100
0001
0000
0010
0000
0100
0000
0001
0000
0010
0000
0100
0000
,
0010
0000
0001
0000
0001
0000
0100
0000
0100
1000
0010
0001
0010
0000
0000
0000
0001
0000
1000
0000
0010
1000
0010
0100
0001
0000
0000
0000
1010
0000
0000
0000
,
0100
0000
0100
0000
0010
0000
0001
1000
0000
1000
0010
0100
0001
0000
0010
0000
0100
0000
0001
0010
0001
0000
0100
0000
0010
0000
0001
0000
0100
0000
1000
0000
,
0001
1000
0001
1000
0001
0100
0010
0100
0010
0000
0001
0000
0010
0000
0100
0000
,
0010
0000
0000
0000
0000
0000
0001
0000
0000
0010
0000
0000
0001
0000
0000
0000
0000
0000
0001
0000
0000
1000
0000
0000
0010
0000
0000
0000
0000
0000
0100
0000
0000
0010
0000
0000
0100
0000
1000
0000
0100
0000
1000
0000
0100
0000
1000
0000
,
0001
0000
0001
0010
0001
0100
0010
0100
0010
0000
0001
0000
0010
0000
0001
0000
,
1010
1100
0110
0110
0011
1100
1100
0110
,
0001
1000
0001
1000
0001
0100
0010
0100
0010
0000
0001
0000
1000
0000
0001
0000
,
0100
0000
0001
0010
0001
0000
0001
0100
0010
0000
0010
0100
0001
0000
1000
0000
,
0001
0000
0000
0100
0000
0000
0010
0000
0000
0100
0000
0000
0001
0000
0000
0100
0000
0000
0001
0000
0000
0010
0000
0000
0001
0000
0000
0000
0000
0000
1000
0000
0000
0000
0000
0000
0001
0000
0000
0000
1000
0000
0000
0000
0001
0000
0000
0000
,
1000
0000
0000
0000
0001
0000
0000
0000
0100
0000
0000
0000
0010
0000
0000
0000
0100
0000
0000
0000
0010
0000
0000
0000
0001
0000
0000
0100
0000
0000
0001
0000
0000
0100
0000
0000
0001
0000
0000
0000
0000
0000
1010
0000
0000
0000
0000
0000
,
0010
1000
0001
0010
0001
0000
1000
0000
0010
0100
0010
0100
0001
0000
0010
0000
,
0001
0000
0100
1000
0100
1000
0010
0100
0010
0000
0001
0000
0100
0000
0001
0000
,
0100
1000
0100
0010
0100
0000
0001
0010
0000
0100
0001
0100
0010
0000
1010
0000
,
0010
1000
0001
1000
0001
0000
1000
0000
0010
0000
0100
0000
1000
0000
0001
0000
,
0010
0001
0100
1000
0100
0000
0010
0000
0001
0010
0100
0010
0100
0000
1000
0000
,
0001
0000
0001
0010
0001
1000
0010
1000
0100
0000
0010
0000
0100
0000
0001
0000
,
0100
0000
0010
1000
0010
0000
0100
0000
0001
0100
0001
0010
0100
0000
1100
0000
,
0100
0010
0001
0010
0001
0000
0100
0000
0010
0000
1000
0000
0010
0000
0100
0000
,
0001
1000
0001
0100
0010
0100
0010
1000
0010
0000
0001
0000
1000
0000
0001
0000
,
0010
0000
0000
0000
0000
0000
0100
0000
0000
1000
0000
0000
0100
0000
0000
0000
0000
0000
0010
0000
0000
1000
0000
0000
0010
0000
0000
0000
0000
0000
0010
0000
0000
0100
0000
0000
0001
0000
1000
0000
0001
0000
1000
0000
0001
0000
1000
0000
,
0010
0000
0100
0000
0100
0010
0100
1000
0010
0000
0001
0000
0010
0000
1000
0000
,
0110
0101
0110
0011
0110
0110
1001
1001
,
0001
0010
0100
1000
0100
0010
0100
0010
0001
0000
1000
0000
0001
0000
0100
0000
,
1000
0000
0100
0010
0001
0000
0001
1000
0001
0000
0100
0010
0100
0000
1000
0000
,
0001
0000
0000
1000
0000
0000
0001
0000
0000
0100
0000
0000
0010
0000
0000
0100
0000
0000
0010
0000
0000
0100
0000
0000
0001
0000
0000
0000
0000
0000
0010
0000
0000
0000
0000
0000
0100
0000
0000
0000
1000
0000
0000
0000
0100
0000
0000
0000
,
1000
0000
0000
0000
0100
0000
0000
0000
0010
0000
0000
0000
0001
0000
0000
0000
0100
0000
0000
0000
0001
0000
0000
0000
1000
0000
0000
0100
0000
0000
0001
0000
0000
0100
0000
0000
0001
0000
0000
0000
0000
0000
1100
0000
0000
0000
0000
0000
,
0001
0010
0001
0100
,
0010
1000
0001
0010
,
0001
0000
0000
0000
;
