#TITLE:甘いユウウツ;
#SUBTITLE:(2ND FUNK-TION remix);
#ARTIST:Sana;
#TITLETRANSLIT:Amai yuuutsu;
#GENRE:FUNK POP J;
#CREDIT:B. M'Rey;
#MUSIC:Amai yuuutsu (2ND FUNK-TION remix).ogg;
#BANNER:Amai yuuutsu (2ND FUNK-TION remix).png;
#BACKGROUND:Amai yuuutsu (2ND FUNK-TION remix)-bg.png;
#CDTITLE:./CDTITLES/Konami Original.PNG;
#SAMPLESTART:51.692;
#SAMPLELENGTH:12;
#OFFSET:-0.030;
#BPMS:0=129.980,44=64.990,46=129.980;

//--------------- dance-single - B. M'Rey ----------------
#NOTES:
     dance-single:
     B. M'Rey:
     Beginner:
     1:
     0,0,0,0,0:
0000
0000
0000
0000
,
0000
0000
0000
0000
,
0000
0000
0000
0000
,
0000
0000
0000
0000
,
1000
0000
0001
0000
,
0100
0000
0010
0000
,
0001
0000
0100
0000
,
0001
0000
0100
0000
,
0010
0000
0100
0000
,
1000
0000
0001
0000
,
0010
0000
0100
0000
,
1001
0000
1000
0000
,
0010
0000
0100
0000
,
0000
0000
0001
0000
,
1000
0000
0010
0000
,
0000
0000
0100
0000
,
0010
0000
1000
0000
,
0000
0000
0001
0000
,
0010
0000
0100
0000
,
0000
0000
1001
0000
,
0010
0000
0100
0100
,
0100
0000
1000
0000
,
0001
0000
0010
0000
,
0000
0000
0100
0000
,
0001
0000
1000
1000
,
1000
0000
0010
0000
,
0100
0000
0001
0000
,
0000
0000
1000
0000
,
0001
0000
0100
0000
,
0000
0000
0010
0000
,
0100
0000
0010
0000
,
0000
0000
0001
0000
,
1000
0000
0010
0000
,
0000
0000
0100
0000
,
0010
0000
1000
0000
,
0000
0000
0001
0000
,
0010
0000
0001
0000
,
0000
0000
0100
0000
,
0010
0000
0100
0000
,
0000
0000
1000
0000
,
0100
0000
1000
0000
,
0000
0000
0001
0000
,
0010
0000
0001
0000
,
0000
0000
1001
0000
,
0000
0000
0100
0000
,
0000
0000
0010
0000
,
0100
0000
0001
0000
,
1000
0000
0010
0000
,
0000
0000
0100
0000
,
0000
0000
0001
0000
,
0010
0000
1000
0000
,
0100
0000
0001
0000
,
0000
0000
0010
0000
,
0000
0000
1000
0000
,
0010
0000
0100
0000
,
0001
0000
2000
0000
,
0000
0000
0000
0000
,
3000
0000
0000
0000
;

//--------------- dance-single - B. M'Rey ----------------
#NOTES:
     dance-single:
     B. M'Rey:
     Easy:
     2:
     0,0,0,0,0:
0000
0000
0000
0000
,
0000
0000
0000
0000
,
0000
0000
0000
0000
,
0000
0000
0000
0000
,
0010
0100
0001
1000
,
0010
0100
0010
0100
,
0001
1000
0010
0100
,
0010
0000
0010
0000
,
0100
0010
0100
0010
,
0001
0100
0001
0010
,
0001
1000
0100
1000
,
0010
0000
0010
0100
,
0001
0010
0100
0000
,
0010
0000
0010
0100
,
0001
0010
0100
0000
,
0010
0000
0001
1000
,
0010
0100
0010
0000
,
0001
0000
0001
0010
,
0100
1000
0001
0000
,
0001
0000
0010
1000
,
0010
0000
1000
0000
0100
0000
0000
0100
,
0000
0000
0001
0010
,
0001
0000
0000
0010
0000
0000
0000
0000
,
0001
0010
0001
0010
,
0100
0000
1000
0000
0010
0000
0000
0100
,
0000
0000
0100
1000
,
0010
1000
0200
0000
,
0002
0000
0000
0303
0001
0000
1000
0000
,
0010
1000
0010
0000
,
0001
0000
0001
0010
,
0100
1000
0010
0000
,
0001
1000
0010
1000
,
0100
0010
0001
0000
,
0010
0000
0010
0100
,
0001
0100
0010
0000
,
0010
0000
0110
0010
,
0100
1000
0010
0000
,
0010
0000
0001
0010
,
0001
0100
0001
0000
,
0100
0000
0001
1000
,
0100
1000
0001
0000
,
0001
0000
0010
0100
,
0001
0010
0100
0000
,
0001
0000
0001
0100
,
0000
0000
0010
0100
,
0000
0000
0001
0100
,
0010
1000
0100
0010
,
0001
1000
0100
1000
,
0000
0000
0010
1000
,
0000
0000
0100
1000
,
0001
0010
0100
0010
,
0001
0000
0010
0100
,
0000
0000
0100
0010
,
0000
0000
0010
1000
,
0010
1000
0100
0010
,
0100
1000
0020
0000
,
0000
0000
0000
0000
,
0030
0000
0000
0000
;

//--------------- dance-single - B. M'Rey ----------------
#NOTES:
     dance-single:
     B. M'Rey:
     Medium:
     5:
     0,0,0,0,0:
0000
0000
0000
0000
,
0000
0000
0000
0000
,
0000
0000
0000
0000
,
0000
0000
0000
0000
0000
0000
0010
1000
,
0010
0000
0010
0100
0000
1000
0000
0100
,
0001
0000
0010
0100
0000
1000
0000
1000
,
0001
0000
0010
0100
0000
0100
0000
1000
,
0001
0000
0001
0010
0000
0010
0000
0010
,
0001
0000
0001
0100
0000
0010
0000
1000
,
0100
0000
0100
0010
0000
0010
0000
0010
,
0100
0000
0100
1000
0000
0001
0000
0100
,
0001
0010
0001
1000
,
0001
1000
0100
1000
,
0100
0010
0100
0010
,
0001
1000
0100
1000
,
0001
0010
0100
0010
,
0100
0010
0001
0100
,
0010
0100
0010
0100
,
0001
0010
0100
0010
,
0100
1000
0010
0000
0101
0000
0001
0100
,
0010
0000
1000
0000
0010
0100
0000
1000
,
0000
0000
0001
0000
0000
0100
0010
0000
,
0010
0100
0000
0010
0000
0000
1000
0000
,
0000
0000
0001
1000
0010
0000
0010
0100
,
0010
0000
0100
1000
0100
1000
0000
0010
,
0000
0000
0001
0000
0000
0100
0010
0000
,
0001
0010
0000
0010
0100
0000
1000
0000
,
0001
1000
0100
0000
0100
0010
0100
0010
,
0000
0010
0000
1000
0000
0000
0100
1000
,
0000
0010
0000
0010
0001
0010
0000
0100
,
0000
0010
0000
0100
0010
0000
0010
1000
,
0000
0010
0001
0010
0000
1000
0010
1000
,
0000
1001
0000
0101
0000
0000
0001
0010
,
0000
0010
0000
0100
0001
1000
0001
1000
,
0000
1100
0000
0011
0000
0000
0001
0010
,
0000
1000
0100
1000
0100
0010
0001
0010
,
0000
0100
0000
1000
0010
0000
0000
0010
,
0000
1000
0000
1000
0001
1000
0001
0100
,
0000
0010
0000
0001
0010
0000
0001
1000
,
0000
0010
0000
1000
0001
0010
0100
0010
,
0000
0001
0000
0100
0001
0000
0000
1000
,
0000
0100
0000
0100
0010
0000
0100
1000
,
0000
0010
0000
0001
0000
0000
0001
0100
,
0000
0100
0010
0000
0010
1000
0010
1000
,
0000
0000
0000
0010
0100
1000
0001
1000
,
0000
0000
0000
0000
0010
0100
0000
1000
,
0000
0001
0000
1000
0000
0010
0000
0100
,
0001
0000
1001
0000
0001
1000
0100
1000
,
0000
0000
0000
0010
0001
0100
0001
0100
,
0000
0000
0001
0010
,
0100
0000
1000
0000
0001
1000
0001
0000
,
0010
0000
0100
0000
0010
1000
0001
1000
,
0000
0000
0000
0010
0100
0010
0100
1000
,
0000
0000
0000
0000
0100
0010
0000
0100
,
0000
1000
0000
0100
0000
0001
0000
1000
,
0010
1001
0220
0000
,
0000
0000
0000
0000
,
0330
0000
0000
0000
;

//--------------- dance-single - B. M'Rey ----------------
#NOTES:
     dance-single:
     B. M'Rey:
     Hard:
     7:
     0,0,0,0,0:
0000
0000
0000
0000
,
0000
0000
0000
0000
,
0000
0000
0000
0000
,
0000
0000
0000
0000
0000
0000
0000
0000
0000
0000
0000
0000
0001
1000
0001
1000
,
0001
1000
0001
1000
0100
1000
0100
0010
,
0001
0100
0001
1000
0100
0010
0100
0010
,
0100
1000
0010
1000
0010
1000
0100
0010
,
0100
1000
0010
1000
,
0001
1000
0001
1000
0001
0010
0100
0010
,
0100
0010
0001
0100
0001
0100
0001
0010
,
0100
1000
0100
1000
0100
0010
0001
1000
,
0001
0000
0011
0000
0100
0010
0001
0000
,
0010
1000
0100
0000
0100
0010
0100
0000
,
0001
0100
0010
0000
0100
0010
0100
0000
,
0001
0100
0001
0000
0100
0010
0001
0000
,
0100
1000
0100
0000
0001
0010
0100
0000
,
0001
1000
0001
0000
0010
0100
0010
0000
,
0001
0010
0001
0000
0100
0010
0001
0000
,
0001
1000
0001
0000
0010
0100
0010
0000
,
0001
1000
0100
0000
0011
0000
0010
0000
,
0001
1000
0100
0000
0001
0010
0000
1000
,
0000
0100
0000
0010
0001
0100
0001
1000
,
0010
1000
0000
0100
0000
0010
0001
0000
,
0001
0100
0001
1000
0100
0010
0001
0100
,
0001
0010
0100
1000
0010
1000
0000
0010
,
0000
0001
0000
1000
0010
0100
0001
1000
,
0100
0000
0010
0000
0100
0000
1000
0000
0100
0010
0100
0010
0100
0000
0001
0000
,
1000
0001
1000
0001
1000
0000
0100
0000
0001
0000
0100
0000
0001
0000
1100
0000
,
0000
0011
0000
0110
0000
1000
0001
1000
,
0000
0010
0000
1000
0010
0100
0001
0010
,
0000
1100
0000
0110
0000
1000
0001
0010
,
0000
1000
0010
0100
0001
0010
0001
0100
,
0000
1000
0000
0010
0000
0100
0010
0100
,
0000
0001
0000
1000
0001
0100
0010
0100
,
0000
0101
0000
1010
0000
0010
0001
0100
,
0000
0010
0100
1000
0001
0100
0001
1000
,
0000
1010
0000
0110
0000
1000
0001
1000
,
0000
0001
0000
0100
0001
0010
0100
0010
,
0000
0101
0000
1100
0000
1000
0010
1000
,
0000
0010
0001
1000
0100
0010
0100
0010
,
0000
1010
0000
0110
0000
1000
0100
1000
,
0000
0010
0000
1000
0010
0100
0010
1000
,
0000
0100
0000
1000
0000
0100
0001
1000
,
0000
0001
0000
1000
0010
0100
0001
0100
,
0000
0010
0000
1000
0100
0010
0100
1000
,
0000
0010
0000
1000
0001
1000
0100
0010
,
0000
1000
0001
0100
0000
1000
0100
0010
,
0001
0000
1001
0000
0010
1000
0100
1000
,
0000
0010
0000
1000
0001
0100
0001
0100
,
0000
1000
0000
0100
0001
0100
0001
0010
,
0100
0010
0001
1000
0100
0010
0001
1000
,
0100
0001
0000
1000
0100
1000
0100
0010
,
0000
0100
0000
0100
0001
1000
0010
1000
,
0000
0100
0000
0010
0001
0100
0010
0100
,
0001
0100
0010
1000
0010
0100
0010
0000
,
0011
1100
2002
0000
,
0000
0000
0000
0000
,
3003
0000
0000
0000
;

//--------------- dance-single - B. M'Rey ----------------
#NOTES:
     dance-single:
     B. M'Rey:
     Challenge:
     9:
     0,0,0,0,0:
0000
0000
0000
0000
,
0000
0000
0000
0000
,
0000
0000
0000
0000
,
0000
0000
0000
0000
0000
0000
0000
0000
0000
0000
0000
0000
0100
0010
0100
0010
,
0001
0000
1000
0100
1000
0000
1000
0010
1000
0000
1000
0100
1000
0000
0010
0000
,
0100
0000
0010
0100
0010
0000
1000
0010
1000
0000
1000
0010
1000
0000
1000
0000
,
0100
0000
0010
0001
0010
0000
1000
0001
1000
0000
1000
0001
1000
0000
0100
0000
,
0010
0000
0100
0001
0100
0000
0100
0001
0100
0000
1000
0000
0001
0000
1000
0000
,
0100
0000
1000
0100
1000
0000
0010
0001
0010
0000
0010
0001
0010
0000
0010
0000
,
0100
0000
1000
0100
1000
0000
1000
0100
1000
0000
0010
0001
0010
0000
0010
0000
,
0001
0000
0010
0100
0010
0000
1000
0100
1000
0000
1000
0100
1000
0000
0010
0000
,
0001
0000
1000
0000
0100
0000
1000
0000
0001
0100
0001
0100
0001
0000
1000
0000
,
0100
1000
0100
0010
0100
0000
1000
0000
0100
0000
0010
0000
0001
0000
0000
0010
,
0000
0000
0100
0000
0001
0000
1000
0000
0100
0010
0100
0010
0100
0000
0010
0000
,
0100
1000
0100
1000
0001
0000
0010
0000
0001
0000
0100
0000
0001
0000
0000
0100
,
0000
0000
1000
0000
0001
0000
0100
0000
0010
0100
0010
0100
0010
0000
0100
0000
,
0001
0010
0001
0010
0100
0000
1000
0000
0001
0000
0010
0000
0100
0000
0000
1000
,
0000
0000
1000
0000
0010
0000
0100
0000
0001
0010
0001
0010
0001
0000
0100
0000
,
0010
1000
0010
1000
0100
0000
0010
0000
0001
0000
1000
0000
0001
0000
0000
0100
,
0000
0000
1000
0000
0010
0000
0100
0001
1000
0000
1000
0001
1000
0000
0010
0001
,
0010
0000
0010
0100
1000
0000
1000
0010
1000
0000
0010
0100
0010
0000
1000
0001
,
1000
0000
0100
0000
0010
0000
0100
0000
0010
0000
1000
0001
0100
0000
1000
0010
,
1000
0000
1000
0100
0010
0000
0010
0100
0010
0000
1000
0000
0010
0000
0000
1000
,
0000
0000
0100
0000
0001
0000
0010
0000
1000
0000
1000
0010
1000
0000
0100
0001
,
0010
0000
1000
0100
1000
0000
0010
0001
1000
0000
0100
0001
0100
0000
0100
0001
,
1000
0000
0100
0000
1000
0000
0100
0000
0010
0000
1000
0001
0100
0000
1000
0001
,
0100
0000
0100
0001
1000
0000
0001
0000
1000
0001
1000
0001
0100
0000
0100
0010
,
0100
0010
0001
0010
0001
0000
0100
0000
0010
0000
0010
0100
0010
0000
0100
1000
,
0001
0000
0001
0100
0001
0000
0100
0001
1000
0000
0001
0000
1000
0000
0001
0000
,
1000
0000
0100
0000
0010
0000
0100
0000
0010
0000
0001
0010
0001
0000
0001
1000
,
0010
0000
0010
1000
0001
0000
0001
0100
1000
0000
0001
0000
1000
0000
0010
0000
,
0001
0000
0010
1000
0010
0000
0001
0000
0010
0000
0001
1000
0010
0000
0010
1000
,
0001
0000
0001
0100
0010
0000
0001
0010
1000
0000
0001
0000
1000
0000
0100
0000
,
1000
0000
0100
0000
0010
0000
0100
0000
0010
0000
0010
1000
0100
0000
0100
0010
,
0001
0000
0001
0100
0001
0000
0010
0100
0010
0000
1000
0000
0001
0000
0010
0000
,
0001
0010
0100
0010
0100
1000
0100
1000
0010
0000
0001
0010
0100
0000
0100
0010
,
0001
0000
0001
1000
0001
0000
0100
0010
1000
0000
0100
0000
1000
0000
0001
0000
,
0010
0000
0001
0000
0010
0000
0001
0000
1000
0000
0010
0100
0001
0000
0100
0010
,
0100
0000
0001
0100
0001
0000
0100
1000
0100
0000
0001
0000
0100
0000
0001
0000
,
0010
0000
0100
1000
0010
0000
0001
1000
0100
0000
0001
0010
0001
0000
0100
1000
,
0100
0000
0100
0010
0001
0000
0001
0100
1000
0000
0001
0000
0100
0000
0001
0000
,
0100
0000
0001
0000
1000
0000
0100
0000
1000
0000
0001
1000
0001
0000
0100
1000
,
0100
0000
0100
0010
0001
0000
0001
0010
0001
0000
1000
0000
0100
0010
0100
0000
,
0001
0000
0010
0000
0100
1000
0100
0001
0100
0000
0010
0000
0001
0000
0010
0000
,
0000
0100
0010
0000
0010
0100
0010
1000
,
0000
0100
1000
0000
0001
1000
0010
0100
,
0000
1000
0001
0010
0000
1000
0010
0100
,
0001
0000
0000
0000
1001
0000
1000
0100
1000
0000
1000
0000
0010
0000
1000
0000
,
0000
0000
0100
0000
1000
0000
0001
0010
0001
0000
0010
0000
0001
0000
0010
0000
,
0000
1000
0010
0000
0001
0010
0001
0100
,
0010
0100
0001
1000
0010
0100
0001
1000
,
0010
0000
0001
0000
1000
0000
0001
1000
0010
0000
1000
0000
0010
0000
0100
0000
,
0000
0010
0001
0000
0001
1000
0100
1000
,
0000
0010
0100
0000
0001
0010
0100
0010
,
0001
0010
0100
1000
0100
0010
0100
0000
,
0101
1010
2002
0000
,
0000
0000
0000
0000
,
3003
0000
0000
0000
;
