#TITLE:AUROEROTICA;
#SUBTITLE:;
#ARTIST:GLORIA TREVI;
#TITLETRANSLIT:;
#SUBTITLETRANSLIT:;
#ARTISTTRANSLIT:;
#GENRE:;
#CREDIT:;
#MUSIC:Autoerotica.ogg;
#BANNER:AUTOEROTICA-bn.png;
#BACKGROUND:AUTOEROTICA-bg.png;
#CDTITLE:./CDTITLES/BMR Superstars 2.PNG;
#SAMPLESTART:116.580;
#SAMPLELENGTH:12.000;
#SELECTABLE:YES;
#OFFSET:-0.027;
#BPMS:0.000=124.000;
#STOPS:;
#BGCHANGES:13.333=In The Groove 3/023_JumpBack_NTSC_DV.avi=1.000=1=0=1=SongBgWithMovieViz==CrossFade==,
29.667=Autoerotica-bg.png=1.000=1=0=1===CrossFade==,
33.667=In The Groove 3/052_JumpBack_NTSC_DV.avi=1.000=0=0=1,
49.500=In The Groove 3/355_JumpBack.avi=1.000=0=0=1===SlideRight==,
61.667=In The Groove 3/355_JumpBack.avi=1.000=1=0=1=SongBgWithMovieViz==CrossFade==,
65.333=In The Groove 3/293_JumpBack_NTSC_DV.avi=1.000=0=0=1,
81.750=In The Groove 3/086_JumpBack_NTSC_DV.avi=1.000=0=0=1===FadeDown==,
93.333=In The Groove 3/086_JumpBack_NTSC_DV.avi=1.000=1=0=1=SongBgWithMovieViz==CrossFade==,
97.333=In The Groove 3/462_JumpBack.avi=1.000=0=0=1,
113.667=In The Groove 3/352_JumpBack.avi=1.000=0=0=1===SlideUp==,
129.333=In The Groove 3/442_JumpBack.avi=1.000=1=0=1=Kaleidoscope2x2==CrossFade==,
145.667=In The Groove 3/106_JumpBack_NTSC_DV.avi=1.000=1=0=1=Kaleidoscope2x2==CrossFade==,
157.333=In The Groove 3/106_JumpBack_NTSC_DV.avi=1.000=1=0=1=SongBgWithMovieViz==CrossFade==,
161.667=In The Groove 3/358_JumpBack.avi=0.500=0=0=1=SongBgWithMovieViz====,
177.333=In The Groove 3/305_JumpBack_NTSC_DV.avi=0.500=0=0=1=SongBgWithMovieViz====,
193.667=In The Groove 3/275_JumpBack_NTSC_DV.avi=0.500=0=0=1=SongBgWithMovieViz====,
209.667=In The Groove 3/462_JumpBack.avi=1.000=0=0=1,
225.667=In The Groove 3/352_JumpBack.avi=1.000=0=0=1===SlideUp==,
241.333=In The Groove 3/442_JumpBack.avi=1.000=1=0=1=Kaleidoscope2x2==CrossFade==,
257.667=In The Groove 3/106_JumpBack_NTSC_DV.avi=1.000=1=0=1=Kaleidoscope2x2==CrossFade==,
273.417=In The Groove 3/359_JumpBack.avi=1.000=0=0=1=Kaleidoscope2x2====,
289.750=In The Groove 3/070_JumpBack_NTSC_DV.avi=1.000=1=0=1=Kaleidoscope2x2==CrossFade==,
301.667=In The Groove 3/070_JumpBack_NTSC_DV.avi=1.000=0=0=1=SongBgWithMovieViz====,
304.667=Autoerotica-bg.png=1.000=0=0=1,
99999.000=-nosongbg-=1.000=0=0=0=StretchNoLoop====
;
#BGCHANGES2:33.667=flash=1.000=0=0=1,
65.333=flash=1.000=0=0=1,
97.333=flash=1.000=0=0=1,
157.333=flash=1.000=0=0=1,
161.667=flash=1.000=0=0=1,
177.333=flash=1.000=0=0=1,
193.667=flash=1.000=0=0=1====#FF00FF=,
195.667=flash=1.000=0=0=1====#FF00FF=,
197.667=flash=1.000=0=0=1====#FF00FF=,
198.667=flash=1.000=0=0=1====#FF00FF=,
199.667=flash=1.000=0=0=1====#FF00FF=,
201.667=flash=1.000=0=0=1====#FF00FF=,
203.667=flash=1.000=0=0=1====#FF00FF=,
205.667=flash=1.000=0=0=1====#FF00FF=,
206.667=flash=1.000=0=0=1====#FF00FF=,
207.667=flash=1.000=0=0=1====#FF00FF=,
208.667=flash=1.000=0=0=1====#FF00FF=,
209.667=flash=1.000=0=0=1,
273.417=flash=1.000=0=0=1,
301.667=flash=1.000=0=0=1,
304.667=flash=1.000=0=0=1
;
#FGCHANGES:;

//--------------- dance-single - B. M'Rey ----------------
#NOTES:
     dance-single:
     B. M'Rey:
     Beginner:
     1:
     0.072855,0.103003,0.00671,0.053682,0,76,75,1,8,0,0,0.072855,0.103003,0.00671,0.053682,0,76,75,1,8,0,0:
0000
0000
0000
0000
,
0000
0000
0000
0000
,
0000
0000
0000
0000
,
0000
0000
1000
0000
,
0000
0000
0001
0000
,
0000
0000
0100
0000
,
0000
0000
0010
0000
,
0000
0000
1000
0000
,
0000
0000
0010
0000
,
0000
0000
1000
0000
,
0000
0000
0001
0000
,
0000
0000
0100
0000
,
0020
0000
0130
0000
,
0000
0000
1000
0000
,
0000
0000
0001
0000
,
0000
0000
0210
0000
,
0000
0000
0301
0000
,
0000
0000
0100
0000
,
0000
0000
0010
0000
,
0000
0000
1000
0000
,
0000
0000
0001
0000
,
0000
0000
0100
0000
,
0000
0000
0010
0000
,
0000
0000
0200
0000
,
0000
0000
1300
0000
,
0000
0000
0001
0000
,
0000
0000
0100
0000
,
0000
0000
0010
0000
,
0000
0000
0001
0000
,
0000
0000
1000
0000
,
0000
0000
0010
0000
,
0000
0000
1000
0000
,
0000
0000
0001
0000
,
0000
0000
0100
0000
,
0000
0000
1000
0000
,
0000
0000
0010
0000
,
0000
0000
0001
0000
,
0000
0000
1000
0000
,
0000
0000
0010
0000
,
0000
0000
0100
0000
,
0000
0000
0001
0000
,
0000
0000
0100
0000
,
0000
0000
1000
0000
,
0000
0000
0001
0000
,
0000
0000
0100
0000
,
0000
0000
0010
0000
,
0000
0000
1000
0000
,
0000
0000
0001
0000
,
0000
0000
2000
0000
,
3000
0000
0002
0000
,
0003
0000
2000
0000
,
3000
0000
0002
0000
,
0000
0000
1003
0000
,
0000
0000
0001
0000
,
0000
0000
0100
0000
,
0000
0000
0010
0000
,
0000
0000
0001
0000
,
0000
0000
1000
0000
,
0000
0000
0010
0000
,
0000
0000
1000
0000
,
0000
0000
0001
0000
,
0000
0000
0100
0000
,
0000
0000
1000
0000
,
0000
0000
0010
0000
,
0000
0000
0001
0000
,
0000
0000
1000
0000
,
0000
0000
0010
0000
,
0000
0000
0100
0000
,
0000
0000
0001
0000
,
0000
0000
0100
0000
,
0000
0000
1000
0000
,
0000
0000
0001
0000
,
0000
0000
0100
0000
,
0000
0000
0010
0000
,
0000
0000
1000
0000
,
0000
0000
0001
0000
,
0000
0002
0000
0003
;

//--------------- dance-single - B. M'Rey ----------------
#NOTES:
     dance-single:
     B. M'Rey:
     Easy:
     3:
     0.135164,0.179081,0.033551,0.134206,0,141,136,5,20,0,0,0.135164,0.179081,0.033551,0.134206,0,141,136,5,20,0,0:
0000
0000
0000
0000
,
0000
0000
0000
0000
,
0000
0000
0000
0000
,
0000
0000
2000
0000
,
3000
0000
0020
0000
,
0030
0000
0002
0000
,
0003
0000
0200
0000
,
0300
0000
1001
0000
,
0000
0000
0010
0000
,
1000
0000
0100
0000
,
0001
0000
0010
0000
,
1000
0000
0100
0000
,
0001
1000
0010
0000
,
0100
0000
0001
0000
,
1000
0000
0010
0000
,
0100
0000
0002
0000
,
0000
0000
1003
0000
,
0100
0000
0010
0010
,
0010
0000
0001
0000
,
1000
0000
0100
0010
,
0001
0000
1000
0000
,
0010
0000
0100
0100
,
0100
0000
0001
0000
,
1000
0000
0020
0000
,
0000
0000
2030
0000
,
0000
3100
0000
0001
,
0000
0100
0000
0010
,
0000
1000
0000
0001
,
0000
0100
0000
0010
,
0000
1000
0000
0001
,
0000
0010
0000
0100
,
0000
1000
0000
0001
,
0000
0100
0000
0010
,
0000
1000
0000
0001
,
0000
0100
0000
0010
,
0000
1000
0000
0001
,
0000
0100
0000
0001
,
0000
1000
0000
0010
,
0000
0100
0000
0001
,
0000
1000
0000
0001
,
0000
0000
1001
0000
,
0110
0000
0001
0000
,
1000
0000
0020
0000
,
0230
0000
0302
0000
,
0003
1001
0000
0110
,
0000
1000
0000
0001
,
0000
0200
0000
0320
,
0000
2030
0000
3200
,
0000
0300
0002
0000
,
0000
0000
2003
0000
,
0000
0000
3200
0000
,
0000
0000
0320
0000
,
0000
0000
2030
0000
,
0000
3100
0000
0001
,
0000
0100
0000
0010
,
0000
1000
0000
0001
,
0000
0100
0000
0010
,
0000
1000
0000
0001
,
0000
0010
0000
0100
,
0000
1000
0000
0001
,
0000
0100
0000
0010
,
0000
1000
0000
0001
,
0000
0100
0000
0010
,
0000
1000
0000
0001
,
0000
0100
0000
0001
,
0000
1000
0000
0010
,
0000
0100
0000
0001
,
0000
1000
0000
0100
,
0000
0000
0010
0000
,
1000
0000
0001
0000
,
0100
0000
0010
0000
,
1000
0000
0001
0000
,
0100
0000
0001
0000
,
1000
0000
0010
0000
,
0100
0000
0001
0000
,
1000
0000
0010
0000
,
0002
0003
0000
0000
;

//--------------- dance-single - B. M'Rey ----------------
#NOTES:
     dance-single:
     B. M'Rey:
     Medium:
     7:
     0.260742,0.281413,0.087234,0.073813,0,272,259,13,11,0,0,0.260742,0.281413,0.087234,0.073813,0,272,259,13,11,0,0:
0000
0000
0000
0000
,
0000
0000
0000
0000
,
0000
0000
0000
0000
,
0000
0000
1000
0010
,
0100
0001
0010
1000
,
0100
0010
0001
0010
,
0100
0001
0100
1000
,
0010
0100
0001
0000
,
0000
0000
1000
0100
,
0001
0010
1000
0100
,
0001
0010
0100
0010
,
1000
0001
0100
1000
,
0010
1000
0010
0001
0010
0000
1000
0000
,
0100
0001
0010
1000
,
0100
0010
0100
0001
,
0010
0100
2000
0000
,
0000
0000
3001
1000
,
0100
0010
0001
1000
,
0010
0100
0001
1000
,
0010
0100
0001
1000
,
0010
0001
0100
0010
,
1000
0001
0010
0001
,
0100
0010
1000
0100
,
0001
0010
0001
0200
,
0000
0000
1300
0001
,
0010
0100
0001
1000
,
0010
0100
0001
1000
,
0100
0001
0010
0001
,
0100
1000
0002
0000
,
0103
0001
1000
0010
,
0200
0300
1000
0010
,
0200
0300
1000
0010
,
0200
0300
1000
0010
,
0100
0001
1000
0010
,
0100
0001
1000
0010
,
0100
0001
0010
0001
,
1000
0010
0100
0001
,
1000
0100
1000
0010
,
0001
1000
0010
0100
,
0001
1000
0020
0000
,
0031
0000
1001
0000
,
0110
0000
0011
0000
,
1100
0000
0010
0100
,
0001
0000
1000
0010
,
0100
0000
0011
0000
,
1100
0000
0110
0000
,
0011
0000
1000
0001
,
0010
0000
1000
0010
,
0100
0000
1001
0000
,
1001
0000
1000
0001
,
1000
0000
0110
0000
,
0110
0000
0010
0100
,
0010
0100
1000
0001
,
0010
0100
0001
1000
,
0010
0100
0001
1000
,
0100
0001
0010
0001
,
0100
1000
0002
0000
,
0103
0001
1000
0010
,
0200
0300
1000
0010
,
0200
0300
1000
0010
,
0200
0300
1000
0010
,
0100
0001
1000
0010
,
0100
0001
1000
0010
,
0100
0001
0010
0001
,
1000
0010
0100
0001
,
1000
0100
1000
0010
,
0001
1000
0010
0100
,
0001
1000
0010
1000
,
0001
0001
1000
0010
,
0100
0001
1000
0010
,
0100
0001
1000
0010
,
0100
0001
0010
0001
,
1000
0010
0100
0001
,
1000
0100
1000
0010
,
0001
1000
0010
0100
,
0001
1000
0010
1000
,
0001
1001
0000
0000
;

//--------------- dance-single - B. M'Rey ----------------
#NOTES:
     dance-single:
     B. M'Rey:
     Hard:
     8:
     0.47643,0.562825,0.348935,0.040262,0.788458,497,445,52,6,0,0,0.47643,0.562825,0.348935,0.040262,0.788458,497,445,52,6,0,0:
0000
0000
0000
0000
,
0000
0000
0000
0000
,
0000
0000
0000
0000
,
0000
0000
1001
0000
,
0110
0000
1100
0000
,
0110
0000
0011
0000
,
0110
0000
1100
0000
,
0110
0000
0110
0110
,
0110
0000
0000
0110
0000
0000
0110
0000
1000
0010
0000
0100
,
0010
0000
0001
0010
0000
0100
0000
0000
1000
0000
0000
0010
,
0000
0000
0001
0000
0000
0100
0000
0000
0000
0010
0000
0001
,
1000
0000
0100
0010
0000
0001
0000
0000
0100
0000
0000
0010
,
0000
0000
1000
0000
0000
0001
0000
0000
0010
1000
0000
0100
,
0010
0000
0001
0010
0000
0100
0000
0000
1000
0000
0000
0010
,
0000
0000
0100
0010
0000
1000
0001
0000
0000
0000
0000
0000
,
0010
0000
0000
0000
0000
1000
0000
0000
0000
0100
0000
0000
0004
0000
0000
0000
0000
0000
0000
0000
0000
0000
0000
0000
,
0000
0000
1003
0010
,
0100
0001
0010
0100
0000
0000
1000
0000
0000
0001
0000
0000
,
0010
1000
0100
0010
0000
0000
0001
0000
0000
1000
0000
0000
,
0010
0100
0001
1000
0000
0000
0010
0100
0010
0100
0000
0000
,
1000
0001
1000
0001
1000
0001
0010
0000
0000
0100
0000
0000
,
1000
0010
0100
0001
0000
0000
0010
0000
0000
1000
0000
0000
,
0010
0100
0001
0010
0000
0000
0100
0000
0000
1000
0000
0000
,
0010
0001
0100
2000
0000
0000
0000
0000
0000
3200
0000
0000
,
0000
0000
0000
0310
0000
0001
0020
0000
0000
0000
0000
0000
,
0000
0000
0000
1030
0000
0100
0010
0000
0001
0010
0000
0100
,
1000
0000
0010
0100
0000
0000
0001
0000
0000
1000
0000
0000
,
0010
0000
0000
0100
0000
0010
0001
0000
0010
1000
0000
0100
,
0010
0000
0001
0010
0000
0100
2000
0000
0000
0000
0000
3000
,
0000
0000
0000
0100
0000
0010
0001
0000
0010
0100
0000
1000
,
0400
0000
0000
0301
0000
0000
0010
0000
0100
1000
0000
0100
,
0040
0000
0000
0031
0000
0000
0010
0000
1000
0100
0000
0001
,
0010
0000
0100
0010
0100
1000
0100
0001
0010
0000
0000
0110
,
0000
0000
0110
1000
0000
0001
0010
0100
1000
0000
0000
0110
,
0000
0000
0011
0100
0000
1000
0100
0001
0010
0000
0000
0110
,
0000
0000
1100
0010
0100
0001
0010
0000
0100
1000
0100
0010
,
0001
0000
0100
0010
0100
1000
0001
0010
0100
0000
0000
1100
,
0000
0000
0011
0100
0000
1000
0100
0010
0100
0000
0000
0011
,
0000
0000
1100
0010
0000
0001
0010
0100
0010
0000
0000
1100
,
0000
0000
0011
0100
1000
0100
0010
0000
0001
0010
0100
1000
,
0100
0000
0010
0100
0000
0001
0010
0001
0000
0000
0000
0000
,
0110
0000
0000
0000
0000
0100
0010
1000
0000
0100
0000
0000
,
0110
0000
0000
0000
0000
0000
0001
0000
0100
0010
0000
1000
,
0100
0000
0000
0010
0000
0001
1000
0000
0100
0010
0000
0010
,
0100
0000
0000
1000
0010
0100
0001
0010
0100
0000
0000
0000
,
1100
0000
0000
0000
0000
0000
0010
0000
0100
0010
0000
1000
,
0100
0000
0001
0000
0000
0100
1000
0000
0100
0000
0000
0001
,
0010
0000
0100
0000
0000
0000
1000
0000
0001
0010
0000
0100
,
0010
0000
1000
0000
0000
0000
0010
0000
0000
1000
0000
0000
,
0100
0001
0010
0100
,
1000
0100
0001
0010
,
0100
1000
0010
0100
,
0001
0000
0000
0010
0000
0001
0020
0000
0000
0000
0000
0000
,
0000
0000
0000
1030
0000
0100
0010
0000
0001
0010
0000
0100
,
1000
0000
0010
0100
0000
0000
0001
0000
0000
1000
0000
0000
,
0010
0000
0000
0100
0000
0010
0001
0000
0010
1000
0000
0100
,
0010
0000
0001
0010
0000
0100
2000
0000
0000
0000
0000
3000
,
0000
0000
0000
0100
0000
0010
0001
0000
0010
0100
0000
1000
,
0400
0000
0000
0301
0000
0000
0010
0000
0100
1000
0000
0100
,
0040
0000
0000
0031
0000
0000
0010
0000
1000
0100
0000
0001
,
0010
0000
0100
0010
0100
1000
0100
0001
0010
0000
0000
0110
,
0000
0000
0110
1000
0000
0001
0010
0100
1000
0000
0000
0110
,
0000
0000
0011
0100
0000
1000
0100
0001
0010
0000
0000
0110
,
0000
0000
1100
0010
0100
0001
0010
0000
0100
1000
0100
0010
,
0001
0000
0100
0010
0100
1000
0001
0010
0100
0000
0000
1100
,
0000
0000
0011
0100
0000
1000
0100
0010
0100
0000
0000
0011
,
0000
0000
1100
0010
0000
0001
0010
0100
0010
0000
0000
1100
,
0000
0000
0011
0100
1000
0100
0010
0000
0001
0010
0100
1000
,
0100
0000
0100
0010
0100
1000
0100
0001
0010
0000
0000
0110
,
0000
0000
0110
1000
0000
0001
0010
0100
1000
0000
0000
0110
,
0000
0000
0011
0100
0000
1000
0100
0001
0010
0000
0000
0110
,
0000
0000
1100
0010
0100
0001
0010
0000
0100
1000
0100
0010
,
0001
0000
0100
0010
0100
1000
0001
0010
0100
0000
0000
1100
,
0000
0000
0011
0100
0000
1000
0100
0010
0100
0000
0000
0011
,
0000
0000
1100
0010
0000
0001
0010
0100
0010
0000
0000
1100
,
0000
0000
0011
0100
1000
0100
0010
0000
0001
0010
0100
1000
,
0100
0000
0010
0100
0000
0000
0000
0000
0000
0000
0000
0000
;

//--------------- dance-single - B. M'Rey ----------------
#NOTES:
     dance-single:
     B. M'Rey:
     Challenge:
     9:
     0.715125,0.665157,0.275122,0.020131,1.378963,746,695,41,3,0,9,0.715125,0.665157,0.275122,0.020131,1.378963,746,695,41,3,0,9:
0000
0000
0000
0000
,
0000
0000
0000
0000
,
0000
0000
0000
0000
,
0000
0000
0000
0000
0000
0100
1000
0000
0001
0010
0000
0100
,
1000
0000
0010
0001
0000
0100
0010
0000
1000
0100
0000
0001
,
0010
0000
0100
0010
0000
1000
0100
0000
0001
0010
0000
0100
,
0010
0000
1000
0100
0000
0001
0010
0000
0100
0010
0000
1000
,
0100
0000
0010
0001
0000
0100
0010
0000
0000
1001
0000
0000
,
1001
0000
0000
0010
0100
0001
0010
0000
0100
1000
0000
0001
,
0010
0000
0100
1000
0000
0010
0001
0000
0100
0010
0000
1000
,
0100
0000
0001
0010
0000
0100
0010
0000
1000
0100
0000
0001
,
0010
0000
0100
0010
0000
1000
0100
0000
0001
0010
0000
0100
,
0010
0000
0000
0000
0001
0000
0000
0000
1000
0000
0000
0000
0100
0000
0000
0000
0010
0000
0000
0001
0000
0000
0010
0000
0000
0000
0000
0000
0000
0000
0000
0000
0100
0000
0000
0000
1000
0000
0000
0000
0000
0000
0000
0000
0001
0000
0000
0000
,
0010
0000
0100
1000
0000
0010
0001
0000
0100
0010
0000
1000
,
0100
0000
0001
0010
0000
0100
0010
0000
1000
0100
0000
0001
,
0010
0000
0100
0010
0000
1000
0400
0000
0000
0000
0000
1300
,
0010
0001
1000
0100
1000
0010
0001
0000
0100
1000
0000
0001
,
0010
0000
0100
1000
0000
0010
0001
0000
0100
0010
0000
1000
,
0100
0000
0001
0010
0000
0100
0010
0000
1000
0100
0000
0001
,
0010
0000
0100
0010
0000
1000
0100
0000
0001
0010
0000
0100
,
0010
0100
1000
0100
0001
0010
0001
0000
1000
0001
0000
0010
,
0100
0000
1000
0001
0000
0100
0010
0000
1000
0100
0000
0001
,
1000
0000
0010
0100
0000
1000
0100
0000
0001
1000
0000
0010
,
0100
0000
1000
0100
0000
0001
2000
0000
0000
3200
0000
0300
,
0020
0130
0001
0010
0100
1000
0100
0010
0001
0010
0100
1000
,
0010
0100
0001
0010
1000
0010
0100
0001
0010
0001
0100
1000
,
0100
1000
0010
0100
0001
0010
0100
1000
0010
0100
0001
0010
,
0001
0100
0010
1000
0100
1000
0010
0100
0001
0010
0001
0100
,
0010
0000
0000
0000
1000
0000
0000
0000
0100
0000
0000
0000
1000
0000
0000
0000
0010
0000
0000
0100
0000
0000
0010
0000
0001
0000
0000
0000
0010
0000
0000
0000
0001
0000
0000
0000
0100
0000
0000
0000
0010
0000
0000
0000
1000
0000
0000
0000
,
0100
1000
0010
0100
0001
0010
0001
0100
0010
1000
0100
1000
,
0100
0010
0001
0010
0001
0100
0010
1000
0100
1000
0010
0100
,
0001
0010
0001
0100
0010
1000
0100
1000
0010
0100
0001
0010
,
0001
0100
0010
1000
0100
1000
0010
0100
0001
0010
0001
0100
,
0010
1000
0100
0010
0100
0001
0010
0001
0100
0010
1000
0100
,
1000
0100
1000
0001
0010
0100
0010
1000
0010
0100
0001
0010
,
0100
1000
0100
0010
0001
0010
0100
1000
0010
0100
0001
0010
,
1000
0010
0100
0001
0010
0001
0100
1000
0100
1000
0010
0100
,
0001
0010
0100
1000
0010
0100
0001
0010
0001
0100
0010
1000
,
0100
1000
0010
0100
0001
0010
0001
0100
0010
1000
0100
1000
,
0010
0100
0001
0010
0001
0100
0010
1000
0100
1000
0010
0100
,
0001
0010
0001
0100
0010
1000
0110
0000
0000
1001
0000
0000
,
0110
1100
0110
0011
,
0110
1100
1001
0110
,
0011
1100
0110
0011
,
0100
1000
0100
0010
0001
0010
0100
0000
0000
1100
0000
0000
,
0110
0011
0110
1100
,
0110
0011
1100
0110
,
0011
0110
1100
0011
,
0110
1100
1011
0000
,
1101
0000
1011
1101
,
1011
0000
1101
0000
,
1011
0000
1000
1100
,
1110
0000
0000
1111
0000
0000
0010
0100
0001
0010
0100
1000
,
0100
0010
0001
0010
0100
1000
0010
0100
0001
0010
1000
0010
,
0100
0001
0010
0001
0100
1000
0100
1000
0010
0100
0001
0010
,
0100
1000
0010
0100
0001
0010
0001
0100
0010
1000
0100
1000
,
0010
0100
0001
0010
0001
0100
0010
1000
0100
1000
0010
0100
,
0001
0010
0001
0100
0010
1000
0100
1000
0010
0100
0001
0010
,
0001
0100
0010
1000
0100
1000
0100
0010
0001
0010
0001
0100
,
0010
1000
0100
1000
0010
0100
0001
0010
0001
0100
0010
1000
,
0100
1000
0010
0100
0001
0010
0001
0100
0010
1000
0100
1000
,
0010
0100
0001
0010
0001
0100
0010
1000
0100
0010
0100
0001
,
0010
0001
0100
0010
1000
0100
1000
0100
1000
0001
0010
0100
,
0010
1000
0010
0100
0001
0010
0100
1000
0100
0010
0001
0010
,
0100
1000
0010
0100
0001
0010
1000
0010
0100
0001
0010
0001
,
0100
1000
0100
1000
0010
0100
0001
0010
0100
1000
0010
0100
,
0001
0010
0001
0100
0010
1000
0100
1000
0010
0100
0001
0010
,
0001
0100
0010
1000
0100
1000
0010
0100
0001
0010
0001
0100
,
0010
1000
0100
1000
0010
0100
0001
0010
0001
0100
0010
1000
,
0100
1000
0100
0010
0001
0010
0001
0100
0010
1000
0100
1000
,
0010
0100
0001
0010
0001
0100
0010
1000
0100
1000
0010
0100
,
0001
0010
0001
0100
0010
1000
0100
1000
0010
0100
0001
0010
,
0001
0100
0010
1000
0100
0010
0100
0001
0010
0001
0100
0010
,
1000
0100
1000
0100
1000
0001
0010
0100
0010
1000
0010
0100
,
0001
0010
0100
1000
0100
0010
0001
0010
0100
1000
0010
0100
,
0001
0010
1000
0010
0100
0001
0010
0000
1000
0100
1000
0010
,
0100
0000
0001
0010
0000
0000
0000
0000
0000
0000
0000
0000
;
