#TITLE:AMIGO;
#SUBTITLE:;
#ARTIST:BAMBEE;
#TITLETRANSLIT:;
#SUBTITLETRANSLIT:;
#ARTISTTRANSLIT:;
#GENRE:Bubblegum dance;
#CREDIT:;
#MUSIC:Amigo.ogg;
#BANNER:Amigo-bn.png;
#BACKGROUND:Amigo-bg.png;
#CDTITLE:./CDTITLES/BMR Superstars.PNG;
#SAMPLESTART:29.051;
#SAMPLELENGTH:12.000;
#SELECTABLE:YES;
#OFFSET:-0.405;
#BPMS:0.000=134.022;
#STOPS:;
#BGCHANGES:16.000=In The Groove 3/080_JumpBack_NTSC_DV.avi=1.000=1=0=1===CrossFade==,
28.000=In The Groove 3/080_JumpBack_NTSC_DV.avi=1.000=0=0=1=SongBgWithMovieViz====,
32.000=In The Groove 3/281_JumpBack_NTSC_DV.avi=1.000=0=0=1,
48.000=In The Groove 3/315_JumpBack_NTSC_DV.avi=1.000=1=0=1===CrossFade==,
64.000=In The Groove 3/326_JumpBack_NTSC_DV.avi=1.000=0=0=1,
80.000=In The Groove 3/359_JumpBack.avi=1.000=1=0=1===CrossFade==,
96.000=In The Groove 3/325_JumpBack_NTSC_DV.avi=1.000=0=0=1,
112.500=In The Groove 3/436_JumpBack.avi=1.000=0=0=1===FadeLeft==,
128.000=In The Groove 3/465_JumpBack.avi=1.000=0=0=1,
144.000=In The Groove 3/522_JumpBack.avi=1.000=1=0=1===CrossFade==,
156.000=In The Groove 3/522_JumpBack.avi=1.000=0=0=1=SongBgWithMovieViz====,
160.000=In The Groove 3/281_JumpBack_NTSC_DV.avi=1.000=0=0=1,
176.000=In The Groove 3/315_JumpBack_NTSC_DV.avi=1.000=1=0=1===CrossFade==,
192.000=In The Groove 3/058_JumpBack_NTSC_DV.avi=1.000=0=0=1=SongBgWithMovieViz====,
208.000=In The Groove 3/068_JumpBack_NTSC_DV.avi=1.000=0=0=1,
224.000=In The Groove 3/068_JumpBack_NTSC_DV.avi=1.000=0=0=1=SongBgWithMovieViz====,
228.000=In The Groove 3/057_JumpBack_NTSC_DV.avi=1.000=0=0=1,
244.000=In The Groove 3/080_JumpBack_NTSC_DV.avi=1.000=0=0=1,
256.000=In The Groove 3/080_JumpBack_NTSC_DV.avi=1.000=0=0=1=SongBgWithMovieViz==FadeCenterVertical==,
260.000=In The Groove 3/326_JumpBack_NTSC_DV.avi=1.000=0=0=1,
276.000=In The Groove 3/359_JumpBack.avi=1.000=1=0=1===CrossFade==,
292.000=In The Groove 3/325_JumpBack_NTSC_DV.avi=1.000=0=0=1,
308.000=In The Groove 3/436_JumpBack.avi=1.000=1=0=1===CrossFade==,
324.000=Amigo-bg.png=1.000=0=0=1,
99999.000=-nosongbg-=1.000=0=0=0=StretchNoLoop====
;
#BGCHANGES2:28.000=flash=1.000=0=0=1,
32.000=flash=1.000=0=0=1,
64.000=flash=1.000=0=0=1,
96.000=flash=1.000=0=0=1,
128.000=flash=1.000=0=0=1,
156.000=flash=1.000=0=0=1,
160.000=flash=1.000=0=0=1,
192.000=flash=1.000=0=0=1,
208.000=flash=1.000=0=0=1,
224.000=flash=1.000=0=0=1,
228.000=flash=1.000=0=0=1,
244.000=flash=1.000=0=0=1,
260.000=flash=1.000=0=0=1,
292.000=flash=1.000=0=0=1,
324.000=flash=1.000=0=0=1
;
#FGCHANGES:;

//--------------- dance-single - B. M'Rey ----------------
#NOTES:
     dance-single:
     B. M'Rey:
     Beginner:
     2:
     0.145,0.195,0.014,0.082,0:
0000
0000
0000
0000
,
0000
0000
0000
0000
,
0000
0000
0000
0000
,
0000
0000
0000
0000
,
0000
0000
0000
0000
,
0000
0000
0000
0000
,
0000
0000
0000
0000
,
0001
0000
0000
0000
,
0001
0000
0001
0000
,
0010
1000
0001
0010
,
0000
0010
0000
0000
,
0010
0000
0000
0000
,
0001
0000
0100
0000
,
0010
0000
0010
1000
,
0000
1000
0000
0000
,
0001
0000
0100
0000
,
0001
0000
0010
0000
,
0100
0010
0001
0100
,
0000
0100
0000
0000
,
0001
0000
0000
0000
,
0010
0000
0001
0000
,
0001
0000
0010
0100
,
0000
1000
0000
0000
,
0100
0000
0010
0100
,
0000
0100
0000
0100
,
0000
0001
1000
0000
,
0000
0100
0000
0001
,
1000
0000
0000
0000
,
1000
0100
0000
0010
,
0000
0001
0000
0000
,
1000
0010
0000
0000
,
0100
0000
0000
0000
,
0100
0000
1000
0000
,
0100
0010
0000
0000
,
0000
0100
0000
0100
,
0000
0001
0000
0000
,
0000
0010
0000
0010
,
0000
0001
0000
0000
,
0000
0010
1000
0001
,
0100
0000
0000
0000
,
0001
0000
0010
0000
,
0100
0010
0001
0100
,
0000
0100
0000
0000
,
0001
0000
0000
0000
,
0010
0000
0001
0000
,
0001
0000
0010
0100
,
0000
1000
0000
0000
,
0100
0000
0010
0000
,
0002
0000
0000
0000
,
0000
0000
0000
0000
,
0023
0000
0000
0000
,
0000
0000
0000
0000
,
0130
0000
0001
0000
,
0100
0000
1000
0000
,
0001
0000
0100
0000
,
0010
0000
1000
0000
,
0001
0000
0000
0000
,
0001
0000
0001
0000
,
0100
0000
0000
0000
,
0001
0000
0000
0000
,
0001
0000
0000
0000
,
0010
0000
0001
0000
,
0001
0000
0000
0000
,
0001
0000
0001
0000
,
0110
0000
0000
0000
,
0001
0000
0001
0000
,
0010
1000
0001
0010
,
0000
0010
0000
0000
,
0010
0000
0000
0000
,
0001
0000
0100
0000
,
0010
0000
0010
1000
,
0000
1000
0000
0000
,
0001
0000
0100
0000
,
0001
0000
0010
0000
,
0100
0010
0001
0100
,
0000
0100
0000
0000
,
0001
0000
0000
0000
,
0010
0000
0001
0000
,
0001
0000
0010
0100
,
0000
1000
0000
0000
,
0100
0000
0000
0000
,
0100
0000
0000
0000
;

//--------------- dance-single - B. M'Rey ----------------
#NOTES:
     dance-single:
     B. M'Rey:
     Easy:
     3:
     0.219,0.223,0.137,0.021,0:
0000
0000
0000
0000
,
0000
0000
0000
0000
,
0000
0000
0000
0000
,
0000
0000
0000
0000
,
0001
1000
0000
0000
,
0010
0100
0000
0000
,
0001
1000
0000
0000
,
0001
0000
0000
0000
,
0001
0100
0001
0000
,
0001
1000
0010
1000
,
0000
1001
0101
0000
,
0010
0100
0001
0000
,
0100
1000
0000
1000
,
0010
0000
0001
0100
,
0000
0110
1001
0000
,
0001
0000
0001
0000
,
0010
0100
0000
0100
,
0001
0100
0000
1000
,
0000
1010
0101
0000
,
0001
0100
0001
0000
,
0010
1000
0000
1000
,
0010
0000
0001
0000
,
0000
0110
1010
0000
,
0010
0000
0001
0000
,
0001
0010
0001
0010
,
0001
0010
0000
0000
,
0000
0010
1000
0010
,
0100
0000
0000
0000
,
0000
0010
0000
0010
,
0000
0100
0000
0000
,
0010
1000
0100
0000
,
0001
0000
1000
0000
,
0100
0001
1000
0010
,
1000
0010
0000
0000
,
0001
1000
0001
0010
,
0001
0000
0000
0000
,
0001
0010
0100
0000
,
0100
0010
0000
0000
,
0000
0001
1000
0100
,
0110
0000
0000
0000
,
0010
0100
0000
0100
,
0001
0100
0000
1000
,
0000
1010
0101
0000
,
0001
0100
0001
0000
,
0010
1000
0000
1000
,
0010
0000
0001
0000
,
0000
0110
1010
0000
,
0010
0000
0001
0000
,
0100
0000
0001
0000
,
0010
0000
0001
0000
,
0001
0000
0100
0000
,
0010
0000
0100
0000
,
0100
1000
0100
0000
,
0010
0100
0010
0000
,
0001
1000
0001
0000
,
0010
1000
0100
0000
,
0020
0000
0000
0000
,
0031
0100
0010
0000
,
0001
0000
0100
0000
,
0001
0000
0001
0000
,
0100
0000
0001
0000
,
0100
1000
0010
0000
,
0010
0000
0001
0000
,
0001
0010
0100
0000
,
0010
0000
0000
0000
,
0001
0100
0001
0000
,
0001
1000
0010
1000
,
0000
1001
0101
0000
,
0010
0100
0001
0000
,
0100
1000
0000
1000
,
0010
0000
0001
0100
,
0000
0110
1001
0000
,
0001
0000
0001
0000
,
0010
0100
0000
0100
,
0001
0100
0000
1000
,
0000
1010
0101
0000
,
0001
0100
0001
0000
,
0010
1000
0000
1000
,
0010
0000
0001
0000
,
0000
0110
1010
0000
,
0010
0000
0001
0000
,
0011
0000
0000
0000
;

//--------------- dance-single - B. M'Rey ----------------
#NOTES:
     dance-single:
     B. M'Rey:
     Medium:
     5:
     0.295,0.446,0.144,0.124,0:
0000
0000
0000
0000
,
0000
0000
0000
0000
,
0000
0000
0000
0000
,
0000
0000
0000
0000
,
0100
1000
0001
0010
,
0100
1000
0010
0100
,
0001
0010
0100
1010
,
0100
0000
0000
0000
,
0001
0000
0010
0000
0001
0000
0100
0100
,
0010
0000
1000
0000
0010
0000
0100
0010
,
0000
0110
0011
0000
,
0010
0010
0100
0100
0010
0000
0000
0000
,
0001
0000
0010
0000
0100
0000
1000
1000
,
0100
0000
0000
0000
0001
0001
0010
0100
,
0000
0000
1010
0000
0101
0000
0100
0001
,
1000
0000
0010
0001
0100
0000
0000
0000
,
0001
0000
0010
0000
0001
0000
0100
0100
,
0001
0000
0010
0000
0100
0000
1000
1000
,
0000
0110
1100
0000
,
0100
0100
0010
0010
0001
0000
0000
0000
,
0010
0000
0100
0000
0001
0001
1000
1000
,
0100
0000
1000
0000
0010
0001
0100
1000
,
0001
0000
0011
0000
0110
0000
0001
0010
,
0100
0000
1000
0100
0001
0000
0000
0000
,
0010
0100
0001
0010
,
0100
0000
1000
0010
0000
0000
0000
0000
,
0001
0010
0001
0100
,
0010
0000
1000
0100
0000
0000
0000
0000
,
0010
0000
0100
0000
0010
0000
1000
0100
,
0000
0010
0001
0000
0100
0000
0000
0000
,
0001
0010
0101
0000
,
0010
0100
0110
0000
,
0001
0010
0100
0010
,
0100
0000
1000
0001
0100
0000
0000
0000
,
0001
0100
0001
1000
,
0001
0000
0100
0010
0000
0000
1000
0000
,
0010
0100
0001
0000
0001
0010
0000
0001
,
0000
0100
0010
0000
0010
0000
0000
0000
,
0100
0010
0100
1000
,
0020
0000
0000
0000
,
0031
0000
0010
0000
0001
0000
0100
0100
,
0001
0000
0010
0000
0100
0000
1000
1000
,
0000
0110
1100
0000
,
0100
0100
0010
0010
0001
0000
0000
0000
,
0010
0000
0100
0000
0001
0001
1000
1000
,
0100
0000
1000
0000
0010
0001
0100
1000
,
0001
0000
0011
0000
0110
0000
0001
0010
,
0100
0000
1000
0100
0001
0000
0000
0000
,
0010
0100
0001
0010
,
0100
1000
0001
0010
,
0001
0100
0001
0010
,
0100
1000
0001
0010
,
0100
0010
0001
0100
,
0010
0100
0001
1000
,
0001
0100
0001
0010
,
0100
1000
0010
0100
,
0010
0000
0000
0000
,
0100
0100
1000
0000
0010
0000
0100
0000
,
0001
0010
0100
1000
,
0001
1000
0100
1000
,
0010
0100
0010
1000
,
0100
0100
1000
0000
0010
0000
1000
0000
,
0100
0010
0100
0010
,
0001
0000
1000
1000
0010
0000
1000
0000
,
0101
0000
0000
0000
,
0001
0000
0010
0000
0001
0000
0100
0100
,
0010
0000
1000
0000
0010
0000
0100
0010
,
0000
0110
0011
0000
,
0010
0010
0100
0100
0010
0000
0000
0000
,
0001
0000
0010
0000
0100
0000
1000
1000
,
0100
0000
0000
0000
0001
0001
0010
0100
,
0000
0000
1010
0000
0101
0000
0100
0001
,
1000
0000
0010
0001
0100
0000
0000
0000
,
0001
0000
0010
0000
0001
0000
0100
0100
,
0001
0000
0010
0000
0100
0000
1000
1000
,
0000
0110
1100
0000
,
0100
0100
0010
0010
0001
0000
0000
0000
,
0010
0000
0100
0000
0001
0001
1000
1000
,
0100
0000
1000
0000
0010
0001
0100
1000
,
0001
0000
0011
0000
0110
0000
0001
0010
,
0100
0000
1000
0100
0001
0000
0000
0000
,
0110
0000
0000
0000
;

//--------------- dance-single - B. M'Rey ----------------
#NOTES:
     dance-single:
     B. M'Rey:
     Hard:
     7:
     0,0,0,0,0:
0000
0000
0000
0000
,
0000
0000
0000
0000
,
0000
0000
0000
0000
,
0000
0000
0000
0000
,
0100
0010
0001
1000
0000
1000
0000
0100
,
0010
1000
0001
0100
0000
0100
0000
0100
,
0010
1000
0010
1000
0000
0100
0000
0010
,
0200
0000
0000
0000
,
1300
0010
0100
1000
0000
0010
0001
0100
,
0010
0000
0001
1000
0100
1000
0001
0010
,
0000
0000
0001
0000
0100
0000
0000
0010
,
0001
1000
0100
0010
0100
0000
0000
0000
,
0100
1000
0010
1000
0000
0100
0001
0100
,
0010
0000
0010
0000
0010
0100
0001
1000
,
0000
0000
0010
0000
0010
0000
0100
1000
,
0100
0010
0001
1000
0100
1000
0000
0000
,
0100
0010
0100
1000
0000
1000
0010
0100
,
0010
0000
0001
0100
0001
1000
0001
1000
,
0000
0000
0010
0000
0001
0000
0000
1000
,
0001
1000
0010
0100
0010
0000
0100
0000
,
0010
1000
0010
0100
0000
1000
0001
0100
,
0010
0000
0100
0000
0100
0010
0100
1000
,
0000
0000
0001
0000
0010
0000
1000
0100
,
0001
0010
0100
0010
0100
1000
0000
0000
,
1001
0000
0100
1000
0001
1000
0010
1000
,
0001
0100
0001
1000
0000
1000
0100
0001
,
0000
0100
0001
1000
0010
1000
0010
1000
,
0001
0000
0010
0100
0000
0100
0001
0010
,
0000
0100
0001
0010
0100
0000
0100
0010
,
0000
1000
0100
1000
0000
0000
0000
0100
,
0001
0100
0010
1000
0100
0000
0000
0010
,
0001
0010
0000
1000
0000
0010
0001
1000
,
0000
1000
0100
1000
0100
0010
0001
1000
,
0010
0100
0001
1000
0001
0000
0000
0000
,
0010
0000
0010
1000
0100
0010
0001
0010
,
0100
1000
0001
0010
0100
0000
1000
0000
,
0010
0100
0010
1000
0100
0001
0000
1000
,
0000
1000
0010
1000
0010
0000
0000
0000
,
0010
0000
0001
0100
0010
0100
0001
1000
,
0100
0000
0000
0001
0000
0000
0200
0000
0000
0000
0000
0000
0000
0000
0000
0000
,
1300
0010
0100
1000
0000
0010
0001
0100
,
0010
0000
0001
1000
0100
1000
0001
0010
,
0000
0000
0001
0000
0100
0000
0000
0010
,
0001
1000
0100
0010
0100
0000
0000
0000
,
0100
1000
0010
1000
0000
0100
0001
0100
,
0010
0000
0010
0000
0010
0100
0001
1000
,
0000
0000
0010
0000
0010
0000
0100
1000
,
0100
0010
0001
1000
0100
1000
0000
0000
,
0100
1000
0001
1000
,
0010
0100
0001
0010
,
0001
0100
0010
0100
,
0001
1000
0001
0010
,
0001
1000
0001
1000
0001
0100
0010
0100
,
0010
0100
0001
1000
0001
1000
0001
0010
,
0100
1000
0100
1000
0001
0010
0100
0010
,
0100
0010
0100
1000
0001
0100
0001
1000
,
1001
0000
0000
0000
,
0010
1000
0010
1000
0010
1000
0001
1000
,
0001
1000
0001
1000
0001
0010
0001
0010
,
0001
0010
0100
0010
0100
0010
0100
0010
,
0100
1000
0100
1000
0001
1000
0001
1000
,
0010
1000
0010
1000
0001
0100
0001
0100
,
0010
0100
0010
0100
0010
0100
0010
0100
,
0001
1000
0001
0100
0010
0100
0001
0100
,
0101
0000
0000
0000
,
1000
0010
0100
1000
0000
0010
0001
0100
,
0010
0000
0001
1000
0100
1000
0001
0010
,
0000
0000
0001
0000
0100
0000
0000
0010
,
0001
1000
0100
0010
0100
0000
0000
0000
,
0100
1000
0010
1000
0000
0100
0001
0100
,
0010
0000
0010
0000
0010
0100
0001
1000
,
0000
0000
0010
0000
0010
0000
0100
1000
,
0100
0010
0001
1000
0100
1000
0000
0000
,
0100
0010
0100
1000
0000
1000
0010
0100
,
0010
0000
0001
0100
0001
1000
0001
1000
,
0000
0000
0010
0000
0001
0000
0000
1000
,
0001
1000
0010
0100
0010
0000
0100
0000
,
0010
1000
0010
0100
0000
1000
0001
0100
,
0010
0000
0100
0000
0100
0010
0100
1000
,
0000
0000
0001
0000
0010
0000
1000
0100
,
0001
0010
0100
0010
0100
1000
0000
0000
,
1001
0000
0000
0000
;

//--------------- dance-single - B. M'Rey ----------------
#NOTES:
     dance-single:
     B. M'Rey:
     Challenge:
     10:
     0.533,0.502,0.144,0.131,0.189:
0000
0000
0000
0000
,
0000
0000
0000
0000
,
0000
0000
0000
0000
,
0000
0000
0000
0000
,
0010
0000
0010
0000
0001
0000
0010
0100
0000
0100
0000
1000
0000
0010
0001
0000
,
0010
0000
0100
0000
0001
0000
0100
0010
0000
0010
0000
1000
0000
0100
0001
0000
,
0100
0000
0010
0000
0001
0000
0010
0100
0000
1000
0000
0100
0000
0100
0001
0000
,
0100
0000
0001
0000
0100
0000
0010
0100
0000
0100
0000
0100
0000
1000
0010
0000
,
0100
0000
0010
0100
0001
0000
0100
0000
0010
0000
0001
1000
0010
0000
0100
1000
,
0001
0000
0010
0000
0100
0000
0010
0100
0001
0000
0100
0010
0001
0000
0010
0100
,
0001
0000
0000
0000
0110
0000
0000
0000
0110
0000
0000
0000
0000
0000
0001
1000
,
0010
0000
0010
1000
0100
0000
0100
1000
0001
0000
0100
0000
0010
0000
1000
0000
,
0010
0000
0001
1000
0100
1000
0010
1000
0100
0000
0010
0100
0001
0000
0010
1000
,
0001
0000
0001
0000
0001
0000
0100
0000
0100
0000
0010
0000
0001
0010
0001
0100
,
0010
0000
0110
0000
1100
0000
0001
0100
,
0100
0000
0001
0000
0100
0000
0001
0000
0001
0000
0100
1000
0000
0100
0001
0000
,
0010
0000
0100
0010
0001
0000
0010
0000
0100
0000
0001
1000
0100
0000
0010
1000
,
0001
0000
0100
0000
0010
0000
0100
0010
0001
0000
0010
0100
0001
0000
0100
0010
,
0001
0000
0000
0000
0110
0000
0000
0000
0110
0000
0000
0000
0000
0000
0001
1000
,
0100
0000
0100
1000
0010
0000
0010
1000
0001
0000
0010
0000
0100
0000
1000
0000
,
0100
0000
0001
1000
0010
1000
0100
1000
0010
0000
0100
0010
0001
0000
0100
1000
,
0001
0000
0001
0000
0001
0000
0010
0000
0010
0000
0100
0000
0001
0100
0001
0010
,
0100
0000
0110
0000
1010
0000
0001
0010
,
0010
0000
0001
0000
0010
0000
0001
0000
0001
0000
0010
1000
0000
0010
0001
0000
,
0100
0010
0100
1000
0010
0100
0001
0010
,
0100
0000
0010
0000
0100
0000
1000
0010
0001
0000
0100
0000
0010
0000
1000
0000
,
0100
0010
0100
0010
0001
1000
0001
1000
,
0001
0000
0010
0000
0100
0000
1000
0010
0001
0000
0100
0000
0010
0000
1000
0000
,
0010
0100
0001
1000
0100
0010
0001
0100
,
0010
0000
0100
0000
0001
0000
0010
0100
0001
0000
1000
0000
0010
0000
0100
0000
,
0001
0000
0010
0000
0100
0000
0010
0000
0001
1000
0100
0000
0001
0000
0010
0000
,
0100
0000
0010
0000
0001
0000
0010
0001
0100
0000
1000
0000
0001
0000
0010
0000
,
0100
0010
0001
0100
0010
1000
0100
1000
,
0001
0100
0010
0100
0001
0000
0100
0000
,
0001
0100
0001
0100
0001
1000
0100
1000
,
0010
1000
0100
0010
0001
0100
0010
0000
,
0001
0010
0001
1000
0010
1000
0100
1000
,
0010
1000
0100
0010
0001
0000
0001
0000
,
0010
1000
0001
1000
0100
1000
0010
1000
,
0010
0000
0000
0100
0000
0000
0020
0000
0000
0000
0000
0000
0000
0000
0000
0000
,
0130
0000
0010
0100
0001
0000
0100
0000
0010
0000
0001
1000
0010
0000
0100
1000
,
0001
0000
0010
0000
0100
0000
0010
0100
0001
0000
0100
0010
0001
0000
0010
0100
,
0001
0000
0000
0000
0110
0000
0000
0000
0110
0000
0000
0000
0000
0000
0001
1000
,
0010
0000
0010
1000
0100
0000
0100
1000
0001
0000
0100
0000
0010
0000
1000
0000
,
0010
0000
0001
1000
0100
1000
0010
1000
0100
0000
0010
0100
0001
0000
0010
1000
,
0001
0000
0001
0000
0001
0000
0100
0000
0100
0000
0010
0000
0001
0010
0001
0100
,
0010
0000
0110
0000
1100
0000
0001
0100
,
0100
0000
0001
0000
0100
0000
0001
0000
0001
0000
0100
1000
0000
0100
0001
0000
,
0001
1000
0001
0000
0001
0100
0001
0000
0001
0010
0001
0000
0001
0100
0010
0000
,
0001
0100
0001
0000
0001
0100
0001
0000
0001
0100
0001
0000
0001
1000
0001
0000
,
0001
0100
0001
0000
0001
0100
0001
0000
0010
0100
0010
0000
0010
1000
0010
0000
,
0010
1000
0010
0000
0010
1000
0010
0000
0010
1000
0010
0000
0010
0100
0010
0000
,
0001
0100
0001
0000
0001
1000
0001
0000
0001
1000
0001
0000
0001
0100
0001
0000
,
0001
0100
0001
0000
0001
0100
0001
0000
0010
0100
0010
0000
0010
0100
0010
0000
,
0001
0100
0001
0000
0010
1000
0010
0000
0001
1000
0001
0000
0100
1000
0100
0000
,
0100
1000
0100
0000
0010
1000
0010
0000
0010
1000
0010
0000
0010
0100
0010
0000
,
0020
0000
0000
0000
,
0130
0000
0010
0000
0001
0000
0001
0100
0000
0010
0001
0000
0001
0100
0001
0000
,
0001
0000
0100
0000
0001
0000
0100
0010
0000
0010
0000
1000
0000
1000
0100
0000
,
0010
0000
0001
0000
0001
0000
0100
1000
0000
0100
0000
1000
0000
0100
0001
0000
,
0001
0000
0010
0000
0001
0000
0001
0100
0000
0100
0000
1000
0000
0100
0001
0000
,
0100
0000
0001
0000
0001
0000
0010
1000
0000
0100
0000
0010
0000
0100
0010
0000
,
0100
0000
0001
0000
0010
0000
0001
0100
0000
0010
0000
0100
0000
1000
0100
0000
,
0010
0000
0010
0000
0100
0000
0001
1000
0000
0100
0000
0100
0000
0010
0100
0000
,
2002
0000
0000
0000
,
3103
0000
0010
0100
0001
0000
0100
0000
0010
0000
0001
1000
0010
0000
0100
1000
,
0001
0000
0010
0000
0100
0000
0010
0100
0001
0000
0100
0010
0001
0000
0010
0100
,
0001
0000
0000
0000
0110
0000
0000
0000
0110
0000
0000
0000
0000
0000
0001
1000
,
0010
0000
0010
1000
0100
0000
0100
1000
0001
0000
0100
0000
0010
0000
1000
0000
,
0010
0000
0001
1000
0100
1000
0010
1000
0100
0000
0010
0100
0001
0000
0010
1000
,
0001
0000
0001
0000
0001
0000
0100
0000
0100
0000
0010
0000
0001
0010
0001
0100
,
0010
0000
0110
0000
1100
0000
0001
0100
,
0100
0000
0001
0000
0100
0000
0001
0000
0001
0000
0100
1000
0000
0100
0001
0000
,
0100
0000
0010
0100
1000
0000
0100
0000
0010
0000
1000
0001
0010
0000
0100
0001
,
1000
0000
0010
0000
0100
0000
0010
0100
1000
0000
0100
0010
1000
0000
0010
0100
,
1000
0000
0000
0000
0110
0000
0000
0000
0110
0000
0000
0000
0000
0000
1000
0001
,
0010
0000
0010
0001
0100
0000
0100
0001
1000
0000
0100
0000
0010
0000
0001
0000
,
0010
0000
1000
0001
0100
0001
0010
0001
0100
0000
0010
0100
1000
0000
0010
0001
,
1000
0000
1000
0000
1000
0000
0100
0000
0100
0000
0010
0000
1000
0010
1000
0100
,
0010
0000
0110
0000
0101
0000
1000
0100
,
0100
0000
1000
0000
0100
0000
1000
0000
1000
0000
0100
0001
0000
0100
1000
0000
,
1000
0000
0000
0000
;
