#VERSION:0.83;
#TITLE:AM-3P (C&O remix);
#ARTIST:KTz (Remixed by AMAZE);
#GENRE:EURO-TECHNO;
#CREDIT:B. M'Rey;
#MUSIC:AM-3P (C&O remix).ogg;
#BANNER:AM-3P (C&O remix).png;
#BACKGROUND:AM-3P (C&O remix)-bg.png;
#CDTITLE:./CDTITLES/BOF-TT.PNG;
#SAMPLESTART:49.076;
#SAMPLELENGTH:15;
#OFFSET:-0.039;
#BPMS:0=137;

//--------------- dance-single - B. M'Rey ----------------
#NOTEDATA:;
#STEPSTYPE:dance-single;
#DESCRIPTION:B. M'Rey;
#CREDIT:B. M'Rey;
#DIFFICULTY:Beginner;
#METER:4;
#RADARVALUES:0,0,0,0,0;
#NOTES:
0000
0000
0000
0000
,
0000
0000
0000
0000
,
0000
0000
0000
0000
,
0000
0000
0000
0000
,
1001
0000
0010
0000
,
0100
0000
0010
0000
,
0001
0000
1000
0000
,
0010
0100
0010
0000
,
0001
0000
1000
0000
,
0010
0100
0010
0100
,
0001
0000
1000
0000
,
0010
1000
0010
1000
,
0100
0000
0001
0000
,
0100
0001
0100
0001
,
0010
0000
0100
0000
,
0001
0010
1000
0000
,
0110
0000
0001
0000
,
1000
0000
0010
0000
,
0100
0000
0001
0000
,
0010
0000
1000
0000
,
0011
0000
0100
0000
,
0010
0000
1000
0000
,
0100
0000
0001
0000
,
1000
1000
1000
0000
,
0110
0000
1000
0000
,
0001
0000
0010
0000
,
0001
0000
0100
0000
,
0010
0010
0010
0000
,
0001
0000
1000
0000
,
0010
0000
0100
0000
,
0001
0000
0010
0000
,
0001
0000
0100
0000
,
0110
0000
1000
0000
,
0001
0000
0010
0000
,
0001
0000
0100
0000
,
0010
0000
1000
0000
,
1001
0000
0000
0000
,
0010
0000
0000
0000
,
0100
0000
0000
0000
,
0001
0000
0000
0000
,
1010
0000
0000
0000
,
0100
0000
0000
0000
,
0001
0000
0000
0000
,
1000
0000
0000
0000
,
0010
0000
0100
0000
,
0001
0000
1000
0000
,
0010
0000
0100
0000
,
0001
0000
1000
0000
,
0110
0000
0100
0000
,
0001
0000
1000
0000
,
0010
0000
0100
0000
,
0010
0000
0001
0000
,
1001
0000
0100
0000
,
0010
0000
1000
0000
,
0001
0000
0010
0000
,
0001
0000
0100
0000
,
0011
0000
1000
0000
,
0010
0000
0100
0000
,
0001
0000
0010
0000
,
0001
0000
1000
0000
,
1001
0000
0010
0000
,
0001
0000
0100
0000
,
0010
0000
1000
0000
,
0010
0000
0100
0000
,
0101
0000
0000
0000
;

//--------------- dance-single - B. M'Rey ----------------
#NOTEDATA:;
#STEPSTYPE:dance-single;
#DESCRIPTION:B. M'Rey;
#CREDIT:B. M'Rey;
#DIFFICULTY:Easy;
#METER:6;
#RADARVALUES:0,0,0,0,0;
#NOTES:
0000
0000
0000
0000
,
0000
0000
0000
0000
,
0000
0000
0000
0000
,
0000
0000
0000
0000
,
1001
0000
0001
0000
,
1000
0000
0001
0000
,
0100
0000
0010
0000
,
0100
0010
0100
0000
,
0010
0100
0001
0010
,
0100
0010
0001
0100
,
0010
1000
0001
1000
,
0001
0010
0100
0010
,
0110
0010
0001
0100
,
0001
0010
0100
1000
,
0010
1000
0100
0010
,
0001
0010
0100
0010
,
0001
0000
0010
0000
,
0100
0000
0001
0000
,
1000
0000
0001
0000
,
0100
0000
0010
0000
,
0010
0100
0001
0000
,
0010
1000
0001
0000
,
0001
0100
0001
0000
,
0100
0000
0001
0000
,
0100
0010
0100
0000
,
0001
1000
0100
0000
,
0001
0100
0001
0000
,
0001
0000
0100
0000
,
0001
0010
0100
1000
,
0100
0010
0100
0010
,
0001
0100
0010
0100
,
0010
0100
0001
1000
,
1010
1000
0100
1000
,
0010
0100
0010
1000
,
0010
0100
0001
1000
,
0010
1000
0100
1000
,
0010
0000
0001
0000
,
0100
0010
0001
0000
,
0010
0000
0001
0000
,
0001
0100
0001
0000
,
1010
0000
0100
0000
,
0100
1000
0100
0000
,
0001
0000
0010
0000
,
0100
1000
0010
0000
,
0100
0010
0100
0000
,
0100
0010
0001
0000
,
0100
1000
0100
0000
,
0100
0010
0001
0000
,
0010
0100
0010
1000
,
0010
1000
0100
1000
,
0100
0010
0001
1000
,
0010
0100
0010
0100
,
1010
1000
0001
0100
,
0010
0100
0001
0010
,
0001
1000
0001
1000
,
0010
0100
0010
1000
,
0110
0000
0001
0000
,
0001
1000
0010
0100
,
0001
0000
0100
0000
,
0100
1000
0010
0100
,
1001
0000
0100
0000
,
0100
0010
0100
1000
,
0001
0000
0010
0000
,
0001
0010
0100
1000
,
1001
0000
0000
0000
;

//--------------- dance-single - B. M'Rey ----------------
#NOTEDATA:;
#STEPSTYPE:dance-single;
#DESCRIPTION:B. M'Rey;
#CREDIT:B. M'Rey;
#DIFFICULTY:Medium;
#METER:9;
#RADARVALUES:0,0,0,0,0;
#NOTES:
0000
0000
0000
0000
,
0000
0000
0000
0000
,
0000
0000
0000
0000
,
0000
0000
0000
0000
,
0001
0010
0100
0010
,
0100
1000
0100
0010
,
0001
0100
0010
0100
,
0010
0100
1000
0000
0100
0001
0010
0000
,
0100
0000
1000
0000
0001
0010
0001
0000
,
0100
0000
0010
0000
0001
0010
1000
0000
,
0010
0000
0100
0000
0001
0100
0001
0000
,
0010
0100
1000
0000
0001
0100
1000
0000
,
0110
0000
1000
0000
0010
0001
0100
0000
,
0010
0000
0100
0000
0001
1000
0001
0000
,
0010
0000
1000
0000
0100
0010
1000
0000
,
0001
0100
0010
0000
0100
1000
0010
0000
,
0110
0010
0001
0100
,
0010
1000
0001
0100
,
0001
0100
0001
1000
,
0100
1000
0001
0010
,
0001
1000
0010
0000
0100
0000
1000
0000
,
0010
0001
0100
0000
0001
0000
1000
0000
,
0100
0001
0010
0000
0100
0000
0010
0000
,
1100
1010
0011
0000
,
1001
0000
0010
0000
0100
0001
0010
0000
,
0001
0000
0010
0000
0100
0001
1000
0000
,
0100
0000
1000
0000
0100
1000
0010
0000
,
0011
0110
1001
0000
,
0001
0010
0100
0000
0100
1000
0001
0000
,
0100
0010
0001
0000
0010
0100
0001
0000
,
0001
1000
0100
0000
0100
0010
0100
0000
,
1001
0110
0101
1010
,
0010
1000
0100
0000
0100
0010
0001
0000
,
0010
1000
0001
0000
0001
0010
0100
0000
,
0100
0010
0001
0000
0010
0100
0010
0000
,
1010
1100
0110
1001
,
0100
0010
0000
0010
0100
0000
0010
0000
,
0001
0100
0000
0100
0010
0000
0100
0000
,
0001
0010
0000
0010
0001
0000
0100
0000
,
0001
0100
0000
0100
0010
0000
1000
0000
,
1001
1000
0000
1000
0001
0000
0010
0000
,
0100
1000
0000
1000
0010
0000
1000
0000
,
0010
0100
0000
0100
0010
0000
0100
0000
,
0001
0100
0000
0100
0001
0000
1000
0000
,
0010
1000
0100
0000
0001
1000
0000
0100
,
0000
0100
0010
1000
0000
0010
0000
0001
,
0000
1000
0010
0000
0001
1000
0000
0001
,
0000
0100
0010
0100
0000
1000
0000
0100
,
0010
0100
0001
0000
0100
0010
0001
0000
,
0100
1000
0010
0000
0001
0100
0010
0000
,
0001
0010
0100
0000
0001
0100
0010
0000
,
1100
1010
0110
1100
,
0010
0100
0001
0000
0001
0010
0001
0000
,
0010
1000
0001
0000
0001
0010
0001
0000
,
0010
0100
0010
0000
0010
0100
0001
0000
,
0011
1001
0110
0110
,
0001
0010
0001
0000
0001
0100
0000
0001
,
0000
1000
0100
1000
0000
1000
0000
0010
,
0000
0010
0100
0000
0010
0100
0000
1000
,
0000
1000
0001
0100
0000
0010
0000
0100
,
0000
1000
0010
0000
0100
0010
0000
1000
,
0000
0010
0001
0010
0000
1000
0000
0010
,
0000
0100
0001
0000
0100
0010
0000
1000
,
0000
0010
0100
1000
0000
0100
0000
1000
,
1001
0000
0000
0000
;

//--------------- dance-single - B. M'Rey ----------------
#NOTEDATA:;
#STEPSTYPE:dance-single;
#DESCRIPTION:B. M'Rey;
#CREDIT:B. M'Rey;
#DIFFICULTY:Hard;
#METER:11;
#RADARVALUES:0,0,0,0,0;
#NOTES:
0000
0000
0000
0000
,
0000
0000
0000
0000
,
0000
0000
0000
0000
,
0000
0000
0000
0000
,
0110
0000
0010
0000
0100
1000
0100
0000
,
0010
0000
0100
0000
0010
0001
0100
0000
,
0010
0000
1000
0000
0001
0100
0010
0000
,
0010
0000
0100
0000
0001
0000
0100
0000
0010
0000
0001
0000
0000
0000
1000
0001
,
0010
0100
0001
1000
0010
1000
0200
0000
,
0301
0100
0001
1000
0100
0010
0002
0000
,
0013
0001
0100
1000
0100
0010
0002
0000
,
0013
1000
0000
1000
0010
0000
0001
0100
,
1001
0000
0010
0100
0010
1000
0020
0000
,
0031
1000
0001
0010
0100
0010
0002
0000
,
0103
1000
0001
1000
0100
0010
0002
0000
,
0013
0100
0000
0100
0001
0000
0100
0000
,
0001
0100
0010
1000
,
0001
0010
0001
0010
,
0001
1000
0010
0100
,
0001
0100
0010
0100
,
0010
0000
0000
1000
0000
0000
0100
0000
0000
0100
0000
0000
0010
0000
1000
0000
,
0001
0000
0000
0100
0000
0000
0010
0000
0000
0010
0000
0000
0100
0000
1000
0000
,
0001
0000
0000
1000
0000
0000
0100
0000
0000
1000
0000
0000
0100
0000
0000
0000
,
0100
0001
0010
1000
0001
0010
0100
0000
,
0101
0000
0000
1000
0000
0000
0010
0000
0000
1000
0000
0000
0100
0000
0001
0000
,
0010
0000
0000
1000
0000
0000
0010
0000
0000
0100
0000
0000
1000
0000
0001
0000
,
0100
0000
0000
0010
0000
0000
0100
0000
0000
0010
0000
0000
0100
0000
0001
0000
,
0110
1100
0011
1010
,
0100
1000
0100
1000
0010
1000
0100
0010
,
0100
0010
0100
1000
0010
0100
0010
0100
,
0010
1000
0001
0100
0001
1000
0001
1000
,
1100
0000
0100
0010
0000
0010
0011
0000
,
1100
0000
0001
1000
0100
1000
0010
0100
,
0010
0100
0010
1000
0100
1000
0100
0010
,
0001
1000
0100
1000
0100
1000
0001
0100
,
0110
0000
0010
0100
0000
1000
0000
0100
,
0001
0100
0010
0000
0001
0100
0000
1010
,
0000
0000
0100
0000
0010
0000
0100
0000
0000
0000
0100
0001
0000
0100
0010
0000
,
0000
0010
0100
0000
0001
1000
0000
1100
,
0000
0000
0010
0000
0100
0000
1000
0000
0000
0000
0100
0010
0000
0010
1000
0000
,
0110
0000
0010
0000
0001
1000
0000
0101
,
0000
0000
0100
0000
0010
0000
0100
0000
0000
0000
1000
0100
0000
0100
1000
0000
,
0001
1000
0001
0000
0010
1000
0000
1010
,
0000
0000
0100
0000
0001
0000
1000
0000
0000
0000
1000
0100
0000
0100
1000
0000
,
1100
0000
0100
1000
0010
0100
0010
1000
,
0100
0000
1000
0000
0001
0000
1000
0000
0010
0000
0100
0001
0000
0001
0100
0000
,
0010
1000
0100
0010
0100
0010
0001
1000
,
0001
0010
0001
0000
0001
0000
0100
0010
0100
0000
0101
0000
0000
0000
1000
0000
,
0001
1000
0001
1000
0001
0010
0100
0010
,
0100
0010
0001
0100
0010
0100
0010
1000
,
0010
1000
0001
0100
0001
0100
0001
0010
,
0110
0000
0100
0010
0000
0100
0001
1000
,
1010
0000
0010
1000
0001
0010
0100
0010
,
0100
0010
0001
1000
0001
0010
0001
0010
,
0100
0010
0100
1000
0100
0010
0001
0010
,
0011
0000
0100
1000
0000
0010
0100
0000
,
0100
0000
0010
0000
0001
0000
0000
0000
0010
0100
0010
0000
0000
0000
1010
0000
,
0000
0000
1000
0100
1000
0000
1000
0000
0000
0000
0100
0010
0000
0010
1000
0000
,
0001
0000
1000
0000
0010
0000
0000
0000
0100
0010
0100
0000
0000
0000
0110
0000
,
0000
0000
1000
0010
1000
0000
0100
0000
0000
0000
1000
0010
0000
0010
0100
0000
,
0110
0000
0100
0000
0001
0000
0000
0000
0100
1000
0100
0000
0000
0000
1001
0000
,
0000
0000
0010
0100
0000
0100
1000
0000
0001
0000
0100
0010
0000
0010
1000
0000
,
0100
0000
0010
0001
0010
0000
0100
0000
0001
0010
0001
0000
0001
0000
1010
0000
,
0000
0000
0100
0010
0000
0010
1000
0000
0001
0000
1000
0010
0000
0010
0100
0000
,
1001
0000
0000
0000
;
