#VERSION:0.83;
#TITLE:ABOVE THE CLOUDS (Eric Kupper Remix);
#ARTIST:AMBER;
#GENRE:SOULFUL HOUSE;
#CREDIT:B. M'Rey;
#MUSIC:Above The Clouds (Eric Kupper Remix).ogg;
#BANNER:Above The Clouds (Eric Kupper Remix)-BN.png;
#BACKGROUND:Above The Clouds (Eric Kupper Remix)-bg.png;
#CDTITLE:./CDTITLES/LICENSED MUSIC.PNG;
#SAMPLESTART:46.020;
#SAMPLELENGTH:15;
#OFFSET:-0.315;
#BPMS:0=130;

//--------------- dance-single - B. M'Rey ----------------
#NOTEDATA:;
#STEPSTYPE:dance-single;
#DESCRIPTION:B. M'Rey;
#CREDIT:B. M'Rey;
#DIFFICULTY:Beginner;
#METER:1;
#RADARVALUES:0,0,0,0,0;
#NOTES:
0000
0000
0000
0000
,
0000
0000
0000
0000
,
0000
0000
0000
0000
,
0000
0000
0000
0000
,
0000
0000
0001
0000
,
0000
0000
0000
0000
,
0000
0000
1000
0000
,
0000
0000
0000
0000
,
0000
0000
0001
0000
,
0000
0000
0010
0000
,
0000
0000
0100
0000
,
0000
0000
0001
0000
,
0000
0000
1000
0000
,
0000
0000
0010
0000
,
0000
0000
0100
0000
,
0000
0000
0001
0000
,
0000
0000
0010
0000
,
0000
0000
1001
0000
,
0000
0000
0100
0000
,
0000
0000
0010
0000
,
0000
0000
1000
0000
,
0000
0000
0101
0000
,
0000
0000
0010
0000
,
0000
0000
1000
0000
,
0001
0000
1000
0000
,
0001
0000
1001
0000
,
0000
0000
0010
0000
,
0000
0000
0100
0000
,
0100
0000
0100
0000
,
0001
0000
1000
0000
,
0000
0000
0001
0000
,
0000
0000
0010
0000
,
0100
0000
0010
0000
,
0100
0000
0001
0000
,
0000
0000
0000
0000
,
0000
0000
1000
0000
,
1000
0000
1000
0000
,
1000
0000
0001
0000
,
0001
0000
0001
0000
,
0001
0000
0110
0000
,
0010
0000
0000
0000
,
0000
0000
1100
0000
,
1000
0000
0000
0000
,
0000
0000
0001
0000
,
0000
0000
0000
0000
,
0000
0000
0100
0000
,
0000
0000
0000
0000
,
0000
0000
0110
0000
,
0000
0000
0000
0000
,
0000
0000
1000
0000
;

//--------------- dance-single - B. M'Rey ----------------
#NOTEDATA:;
#STEPSTYPE:dance-single;
#DESCRIPTION:B. M'Rey;
#CREDIT:B. M'Rey;
#DIFFICULTY:Easy;
#METER:4;
#RADARVALUES:0,0,0,0,0;
#NOTES:
0000
0000
0000
0000
,
0000
0000
0000
0000
,
0000
0000
0000
0000
,
0000
0000
0000
0000
,
0000
0000
1000
0000
,
0001
0000
0100
0000
,
0000
0000
0010
0000
,
0100
0000
0010
0000
,
1000
0000
0001
0000
,
0010
0000
0001
0100
,
0010
0000
1000
0000
,
0010
0000
0100
0000
,
0010
0100
1000
0000
,
0001
0000
0010
0000
,
0001
0000
0100
0000
,
0010
0000
2000
0000
,
0000
0000
3000
0000
,
1000
0010
0001
0000
,
0100
1000
0001
0000
,
1000
0010
0100
0000
,
0001
0000
0010
0000
,
0010
1000
0100
0000
,
0001
1000
0010
0000
,
1000
0000
0001
0000
,
0100
0000
0010
0000
,
1000
0001
0200
0000
,
0000
0310
0002
0000
,
0003
0000
0010
0000
,
0100
0000
1000
0000
,
0001
0010
0200
0000
,
0000
0301
0020
0000
,
0030
0000
1000
0000
,
0001
0000
0100
0000
,
0010
0000
0200
0000
,
0000
0000
0001
0000
,
0001
0300
0001
1000
,
0001
0000
0010
0100
,
0010
0000
1000
0100
,
1000
0000
1001
0000
,
0110
0000
0101
0000
,
1000
0010
0000
0000
,
0100
0000
0101
0000
,
0010
0100
0000
0000
,
1000
0000
0110
0000
,
0001
1000
0000
0000
,
0010
0000
0101
0000
,
0001
0100
0000
0000
,
0010
0000
1010
0000
,
0100
0001
0000
0000
,
0010
0000
0110
0000
,
0010
0100
0000
0000
,
0000
0000
1001
0000
;

//--------------- dance-single - B. M'Rey ----------------
#NOTEDATA:;
#STEPSTYPE:dance-single;
#DESCRIPTION:B. M'Rey;
#CREDIT:B. M'Rey;
#DIFFICULTY:Medium;
#METER:6;
#RADARVALUES:0,0,0,0,0;
#NOTES:
0000
0000
0000
0000
,
0000
0000
0000
0000
,
0000
0000
0000
0000
,
0000
0000
0000
0000
,
0000
0000
1001
0000
,
0010
0100
0000
0001
,
0000
1000
0110
0000
,
0010
0100
0001
0000
,
0010
1000
0001
0010
,
0001
0010
0001
1000
,
0010
0000
0001
1000
,
0100
0010
0001
0000
,
0100
0000
0001
0000
,
0001
1000
0010
0000
,
0001
0000
0100
0001
,
0010
1000
0100
0000
,
0100
0000
0010
0000
,
0010
1000
0100
0010
,
0100
1000
0100
0000
,
0010
1000
0001
0010
,
0100
0000
1000
0100
0001
0000
1000
0000
,
0010
1000
0001
0010
,
0001
0010
0001
1000
,
0100
0000
1000
0001
0100
0000
1000
0000
,
0001
0100
1010
1001
,
0011
0110
0001
0100
,
0001
0000
0100
0001
0010
0000
1000
0000
,
0010
0000
1000
0000
0010
1000
0100
0000
,
0001
0010
1000
0000
0010
0100
1000
0000
,
0010
0100
0001
1000
,
0010
0000
0100
0010
0001
0000
1000
0000
,
0010
0000
1000
0000
0010
0100
1000
0000
,
0110
0000
0010
0000
0001
0010
1000
0000
,
0110
0000
1000
0000
0001
1000
0020
0000
,
0100
1000
0100
1000
,
0100
1000
0031
0100
,
0001
1000
0100
1000
,
0110
0100
0010
1000
,
0100
1000
0010
0100
,
1010
1000
1100
0000
,
0010
1000
0010
0000
,
0001
0000
1001
0000
,
0001
0010
0100
0000
,
0100
0010
0101
0000
,
0001
1000
0010
0000
,
0001
0000
1100
0000
,
0010
0100
0001
0000
,
0010
0000
1100
0000
,
0100
0010
0100
0000
,
0001
0000
0101
0000
,
0010
1000
0001
0000
,
0010
0000
0011
0000
;

//--------------- dance-single - B. M'Rey ----------------
#NOTEDATA:;
#STEPSTYPE:dance-single;
#DESCRIPTION:B. M'Rey;
#CREDIT:B. M'Rey;
#DIFFICULTY:Hard;
#METER:8;
#RADARVALUES:0,0,0,0,0;
#NOTES:
0000
0000
0000
0000
,
0000
0000
0000
0000
,
0000
0000
0000
0000
,
0000
0000
0000
0000
,
0000
0000
1100
0000
,
0100
1000
0100
0000
0001
0000
0000
0000
,
1000
0000
0110
0000
,
0010
0100
1000
0000
0010
0000
0000
0000
,
0010
1000
0001
0000
0100
0000
1000
0010
,
0100
0001
0010
0100
,
0010
0000
0000
0010
0100
0010
0000
1000
,
0000
0100
0001
1000
0000
0000
0000
1000
,
0000
0100
0000
0010
0100
0000
0000
0010
,
0001
0100
0001
0010
0000
0000
0001
1000
,
0000
0000
0001
0000
0010
0000
0001
0010
,
0100
0000
0000
1000
0010
0000
0001
0000
,
0010
1000
0010
0000
0100
0000
0001
0000
,
0100
0010
0001
0000
0010
0000
0100
0010
,
0001
1000
0001
0010
,
0001
1000
0010
0000
0001
0000
0100
0010
,
0100
0000
0001
0000
0010
0000
0100
0010
,
0001
0010
0110
0001
,
0100
0000
0001
0000
1000
0000
0100
0010
,
0100
0000
0001
1000
0000
0010
0100
0000
,
1001
0100
0110
1001
,
0110
0000
0101
0000
0100
0010
1000
0000
,
0010
0000
1000
0100
0001
0000
1000
0000
,
0010
0000
0100
0000
0001
1000
0010
0000
,
0100
0001
1000
0000
0010
0100
1000
0000
,
0010
0000
0100
0000
0010
0001
0100
0000
,
0001
0000
0010
1000
0100
0000
0010
0000
,
0001
0000
0100
0000
0010
0001
0100
0000
,
0010
0000
0100
0000
0001
0010
1000
0000
,
0010
0100
1000
0000
0200
0000
1000
0000
,
1000
0010
0010
1000
,
0010
0000
1000
0000
0310
0001
0010
0000
,
0001
1000
0100
0000
0001
0100
0001
0000
,
1001
0000
0010
0000
0100
1000
0010
0000
,
0010
0100
0010
0000
0001
0000
0100
0000
,
1010
0000
1001
1000
,
0001
0010
1000
0000
0001
0000
0100
0000
,
0010
0100
0110
0100
,
0010
0001
0010
0000
1001
0000
0110
0000
,
0011
1100
1100
0000
,
0100
0010
1000
0000
0001
0000
0000
0000
,
0001
0000
1001
0000
,
0010
0100
1000
0000
0100
0000
0000
0000
,
0100
0000
1100
0000
,
0001
1000
0010
0000
0001
0000
0000
0000
,
0010
0000
0110
0000
,
0001
0010
1000
0000
0100
0000
0000
0000
,
0001
0000
0110
0000
;

//--------------- dance-single - B. M'Rey ----------------
#NOTEDATA:;
#STEPSTYPE:dance-single;
#DESCRIPTION:B. M'Rey;
#CREDIT:B. M'Rey;
#DIFFICULTY:Challenge;
#METER:10;
#RADARVALUES:0,0,0,0,0;
#NOTES:
0000
0000
0000
0000
,
0000
0000
0000
0000
,
0000
0000
0000
0000
,
0000
0000
0000
0000
,
0000
0000
0110
0010
,
0001
0010
0001
1000
0100
0000
0010
0000
,
0001
1000
0010
0000
0101
0000
0001
0000
,
0010
1000
0001
0010
0001
0000
1000
0010
,
0100
1000
0100
0010
0100
0000
0001
0010
,
0100
0000
0100
0010
0100
0000
0001
0000
,
0100
0000
0001
0010
0100
1000
0010
1000
,
0000
0100
0000
0001
0000
0000
0010
1000
,
0000
0010
0000
1000
0010
0000
0001
0100
,
0001
1000
0010
1000
0000
1000
0001
0100
,
0000
0010
0100
0000
0010
0000
0001
0100
,
0010
0000
0100
0000
0000
0000
0100
0000
0001
0000
0000
0000
0100
0000
0000
0001
,
0000
1000
0001
0100
0001
0000
0010
0100
,
0010
1000
0000
0200
0000
1300
0010
0100
,
0001
0100
0000
0020
0000
0030
0100
1000
,
0100
1000
0010
0200
0000
0310
0001
1000
,
0020
0000
0130
1000
0000
0200
0000
0301
,
0010
0100
0000
2000
0000
3010
0100
0010
,
0000
1000
0000
0100
0000
0100
0010
0100
,
0010
1000
0010
0200
0000
1300
0002
0000
,
0013
0100
0010
0000
0011
0000
0100
0010
,
0100
0010
0001
0100
2000
0000
0100
0000
,
0100
0000
3100
0010
0002
0000
0100
0000
,
0100
0000
0103
1000
0010
1000
0000
0100
,
0000
0001
0000
1000
0000
0010
0000
1000
,
0100
0010
0100
0010
0002
0000
1000
0000
,
1000
0000
1003
0100
0020
0000
0001
0000
,
0031
0000
0001
0000
0100
0010
0001
0100
,
0000
0100
0001
0000
0100
0010
0000
1000
,
0000
0001
0000
0000
0020
0000
0001
0000
,
0100
1000
0001
0100
,
1000
0000
0001
0000
0031
1000
0001
0000
,
0010
0100
0010
0000
0010
1000
0001
0100
,
0010
0000
0110
0000
0001
0010
0100
0000
,
0100
0000
0010
0000
0100
0000
0000
0000
0010
0000
0000
1000
0000
0000
0100
0000
,
0010
0000
0001
0100
1010
0000
0010
1000
,
0001
0010
0001
1000
0001
0000
0100
0000
,
0010
0000
0100
0000
1001
0000
0001
0100
,
0001
0100
0010
1000
1100
0000
0011
0000
,
0110
0110
1001
0010
,
0001
0100
0001
0010
0001
0000
0010
0000
,
1000
0010
0101
0001
,
0010
1000
0100
1000
0100
0000
0001
0000
,
0100
0010
1001
0010
,
0010
0100
0010
1000
0001
0000
0100
0000
,
1000
0100
0011
0100
,
0001
0100
0010
1000
1010
0000
0101
0000
,
0011
1010
0110
0000
;
